#TITLE:ぽっぴっぽー;
#SUBTITLE:(Ryu☆ Remix);
#ARTIST:ラマーズP;
#TITLETRANSLIT:PoPiPo;
#SUBTITLETRANSLIT:(Ryu* Remix);
#ARTISTTRANSLIT:LamazeP;
#GENRE:;
#CREDIT:;
#MENUCOLOR:#CC6666;
#NEWMETERSYSTEM:NO;
#BANNER:PoPiPo (Ryu Remix)-bn.png;
#BACKGROUND:PoPiPo (Ryu Remix)-bg.png;
#LYRICSPATH:;
#CDTITLE:PROJECT VIRIDIAN-cdtitle.png;
#MUSIC:PoPiPo (Ryu Remix).mp3;
#OFFSET:0.320;
#SAMPLESTART:72.380;
#SAMPLELENGTH:11.500;
#SELECTABLE:YES;
#LISTSORT:;
#BPMS:0.000=168.360;
#STOPS:;
#BGCHANGES:;
#ATTACKS:;

//---------------dance-single - ----------------
#NOTES:
     dance-single:
     :
     Easy:
     4:
     0.385,0.445,0.073,0.218,0.000:
0000
0000
0000
0000
,
0010
0000
0010
0000
,
0100
0000
0100
0001
,
1000
0000
1000
0000
,
0001
0000
0001
0000
,
0010
0000
0010
0000
,
0100
0000
0200
0300
,
1000
0000
1000
0000
,
0001
1000
0001
0110
,
1001
0010
0100
0001
,
1000
0100
0010
0000
,
1000
0001
0100
0001
,
0010
0100
0010
0000
,
1000
0100
0001
0100
,
1000
0010
0100
0000
,
0001
0010
0001
0001
,
0100
0010
1000
0000
,
1000
0100
1000
0100
,
0010
0001
0100
0010
,
1000
0001
0100
0001
,
0010
0001
1000
0010
,
0100
0100
0010
1000
,
0001
0010
0100
1000
,
0001
0100
0010
0100
,
0001
1000
0100
0010
,
0001
0001
0010
0010
,
0100
1000
0001
0000
,
0100
0100
0010
0010
,
1000
0010
0100
0020
,
0130
0001
0100
0010
,
1000
0001
0001
0000
,
1000
1000
0100
0020
,
0031
0001
0100
0020
,
1030
0200
0310
0002
,
0203
0320
0230
0301
,
1001
0010
0010
0100
,
0001
1000
2000
3200
,
0310
0001
0100
0010
,
1000
0001
0020
0032
,
0103
0010
1000
0001
,
0001
0010
0200
2300
,
3010
0100
0001
1000
,
0100
1000
0020
2030
,
3100
0010
0100
0000
,
1000
0001
1000
0000
,
0001
0010
0001
0000
,
0100
0001
0100
0110
,
0010
1000
0001
0000
,
0100
0001
1000
0000
,
0000
0001
0010
0100
,
2000
0000
0001
3010
,
1000
0100
2000
3000
,
0001
0100
0002
0003
,
0010
0100
0010
0001
,
2000
0100
0010
3001
,
0100
0010
0200
0300
,
0001
0010
0002
0003
,
1000
0100
0100
0010
,
0002
0010
0100
1003
,
0010
0100
0010
0010
,
1000
0100
1000
0100
,
0001
0100
1000
0010
,
0200
0010
0001
0310
,
0100
0001
1000
0100
,
1000
0001
0010
0001
,
1000
0100
1000
0001
,
0100
0001
0010
0100
,
1000
1000
1000
0000
,
0001
0010
0001
0100
,
0010
1000
0100
0000
,
1000
0100
1000
0001
,
0010
0100
1000
0000
,
0010
0100
0001
0100
,
0010
1000
0001
0000
,
0100
0001
0010
0100
,
1000
0010
0100
0000
,
0001
0001
0010
0100
,
1000
1000
0010
0100
,
0001
0001
0100
0010
,
1000
1000
0100
0010
,
0001
1000
1001
1001
,
0010
0100
0110
0110
,
0010
1000
0001
0001
,
1000
0100
0001
0100
,
2002
0000
0000
3003
;

//---------------dance-single - Copied from----------------
#NOTES:
     dance-single:
     Copied from:
     Beginner:
     1:
     0.130,0.171,0.024,0.073,0.000:
0000
0000
0000
0000
,
1000
0000
0000
0000
,
0001
0000
0000
0010
,
0010
0000
0000
0000
,
0001
0000
0000
0000
,
0100
0000
0000
0000
,
0010
0000
1000
0000
,
0100
0000
1000
0000
,
0001
0000
0000
0000
,
1001
0000
0000
0000
,
0100
0000
0000
0000
,
0010
0000
0000
0000
,
0001
0000
0000
0000
,
1000
0000
0000
0000
,
0010
0000
0000
0000
,
0100
0000
0000
0000
,
0010
0000
0000
0000
,
0001
0000
0000
0000
,
1000
0000
0000
0000
,
0010
0000
0000
0000
,
0100
0000
0000
0000
,
1000
0000
0000
0000
,
0010
0000
0000
0000
,
0001
0000
0000
0000
,
0100
0000
0000
0000
,
0010
0000
0010
0000
,
1000
0000
0000
0000
,
0100
0000
0100
0000
,
0001
0000
0000
0000
,
0010
0000
1000
0000
,
0001
0000
0000
0000
,
0020
0000
0030
0000
,
0200
0000
0300
0000
,
0010
0000
0100
0000
,
0010
0010
0010
0000
,
1001
0000
0000
0000
,
0000
0000
1000
1000
,
0000
0000
0000
0000
,
0000
0000
0001
0001
,
0000
0000
0000
0000
,
0000
0000
0010
0010
,
0000
0000
0000
0000
,
0000
0000
0100
0100
,
0100
0000
0000
0000
,
0010
0000
0000
0001
,
0001
0000
0000
0000
,
0100
0000
0000
1000
,
1000
0000
0000
0000
,
0010
0000
0000
0000
,
0100
0000
0000
0000
,
0002
0000
0003
0000
,
1000
0000
0000
0000
,
0100
0000
0000
0000
,
0010
0000
0000
0000
,
0002
0000
0003
0000
,
1000
0000
0000
0000
,
0001
0000
0000
0000
,
0010
0000
0000
0000
,
0200
0000
0300
0000
,
1000
0000
1000
0000
,
0010
0000
0010
0000
,
0100
0000
0000
0000
,
0020
0000
0030
0000
,
0001
0000
0001
0000
,
0100
0000
0100
0000
,
0010
0000
0000
0000
,
0100
0000
0000
0000
,
2000
0000
3000
0000
,
0001
0000
0000
0000
,
0100
0000
0000
0000
,
1000
0000
0000
0000
,
0100
0000
0000
0000
,
0001
0000
0000
0000
,
0010
0000
0000
0000
,
1000
0000
0000
0000
,
0010
0000
0000
0000
,
0001
0000
0000
0000
,
0100
0000
0000
0000
,
0010
0000
0000
0000
,
1000
0000
0000
0000
,
0100
0000
0000
0000
,
0010
0000
0000
0000
,
0001
0000
0000
0000
,
1000
0000
0001
0000
,
2002
0000
0000
3003
;

//---------------dance-single - Copied from----------------
#NOTES:
     dance-single:
     Copied from:
     Medium:
     5:
     0.427,0.513,0.234,0.178,0.000:
0000
0000
0000
0000
,
1000
0000
1000
0100
,
0001
0000
0001
1001
,
0100
0000
0100
0010
,
0001
0000
0000
0000
1000
0001
1000
0000
,
0100
0000
0010
1000
,
0001
0000
0011
1100
,
0010
0010
1000
0100
,
0002
0203
0320
1030
,
1001
0001
0100
0010
,
1000
0100
1000
0100
,
0010
0001
1000
0010
,
0100
0001
0010
0010
,
0001
0100
1000
0100
,
0001
1000
0100
0010
,
0100
1000
0001
0010
,
0001
0000
0100
0100
,
0010
0010
1000
0001
,
0100
0100
1000
0001
,
0010
0010
0001
0010
,
0100
0010
0100
1000
,
0010
0010
1000
0001
,
1000
1000
0100
0010
,
0100
0100
0010
0001
,
1000
0001
0010
0001
,
0200
0010
0302
1000
,
0103
0100
0010
1001
,
0200
0010
0320
0100
,
1030
0000
0100
0000
0010
0000
0001
0010
,
0200
0010
2300
0001
,
3010
0010
0010
0010
,
0100
0010
0100
0010
0200
0000
0300
0000
,
0010
0100
0010
0100
0020
0000
0030
0000
,
1000
0001
2000
0000
3001
1000
0002
0000
,
1003
0000
1000
0000
1000
0001
0001
0000
,
0110
0100
0010
1000
,
0001
0001
0011
0011
,
0001
0100
0010
1000
,
0010
0100
1100
1100
,
0010
1000
0001
0001
,
0100
0010
1001
1001
,
1000
0100
0010
0001
,
1000
1000
0101
0101
,
0100
0010
0100
0001
,
1000
1000
1000
0000
,
0010
0100
0001
1000
,
0010
0001
0001
0000
,
0010
0000
0100
0000
0001
0100
0000
0000
,
0010
0010
1000
0100
,
0000
1000
1000
0001
,
0202
0000
0303
1001
,
0100
0000
1000
0000
0010
0010
0010
0000
,
1000
0000
0001
0000
0100
0100
0100
0000
,
0010
0000
0100
0000
,
0001
1001
1000
1001
,
0010
0000
1000
0000
0100
0100
0100
0000
,
1000
0000
0001
0000
0010
0010
0010
0000
,
0001
0000
1000
0000
,
0010
0110
0100
0110
,
0010
1000
0002
0013
,
0100
1000
2000
3100
,
0010
0000
1000
0000
,
0001
0101
1000
1100
,
0010
0000
0010
0000
1000
0001
1000
0000
,
0100
0000
0100
0000
0001
1000
0001
0000
,
0010
0000
0010
0000
,
0100
0000
0100
0000
,
2000
3200
0320
0031
,
1001
0000
0010
0000
,
0010
0100
0010
0000
,
1000
0100
1000
0000
,
0001
0100
0001
0000
,
0010
0010
0100
0010
,
1000
1000
0100
1000
,
0001
0001
0010
0001
,
0100
0100
0001
0101
,
1000
0100
1000
0010
,
0001
0001
0010
1000
,
0010
0010
0100
0100
,
0001
0010
0100
1000
,
0100
0001
0100
1000
,
0010
1000
0001
0100
,
0010
0100
1000
0001
,
0101
1100
0101
1001
,
0022
0000
0000
0033
;

//---------------dance-single - Copied from ----------------
#NOTES:
     dance-single:
     Copied from:
     Hard:
     8:
     0.653,0.582,0.226,0.153,0.214: // measure 1
0000
0000
0000
0000
,  // measure 2
0001
0000
0001
0000
0100
0001
0100
0000
,  // measure 3
0010
0000
0010
0000
1000
0100
2000
0000
,  // measure 4
3010
0000
0010
0000
1000
0100
1000
0000
,  // measure 5
0001
0000
0001
0000
0010
0001
0010
0000
,  // measure 6
0100
0000
0100
0000
0010
0100
0010
0000
,  // measure 7
1000
0000
1000
0000
0001
0100
0001
0000
,  // measure 8
1000
0000
1000
0000
0001
0100
0001
0000
,  // measure 9
1001
0110
1001
0101
,  // measure 10
1000
0100
1000
0100
0010
0000
0010
0000
,  // measure 11
0001
0100
0001
0100
0010
0000
1000
0000
,  // measure 12
0010
0100
0001
0100
0010
0000
1000
0000
,  // measure 13
0100
1000
0100
0010
0001
0000
0100
0000
,  // measure 14
0010
1000
0010
1000
0001
0000
0100
0000
,  // measure 15
0001
0010
0001
0010
0100
0000
0010
0000
,  // measure 16
0001
1000
0100
1000
0010
0000
0100
0000
,  // measure 17
0100
0010
1000
0010
0100
0000
1001
0000
,  // measure 18
0100
0000
0010
0000
0100
0000
1000
0000
0100
0010
0000
0100
0000
0000
0010
0000
,  // measure 19
0100
0000
0001
0000
1000
0000
0100
0000
1000
0100
0000
1000
0000
0000
0001
0000
,  // measure 20
0100
0000
0001
0000
1000
0000
0100
0000
1000
0010
0000
0100
0000
0000
0001
0000
,  // measure 21
1000
0000
0001
0000
0100
0000
0001
0000
1000
0100
0000
0001
0000
0000
0100
0000
,  // measure 22
1000
0000
1000
0000
0100
0000
0010
0000
0100
1000
0000
0001
0000
0000
0010
0000
,  // measure 23
0001
0000
0100
0000
0010
0000
1000
0000
0010
0100
0000
0001
0000
0000
0001
0000
,  // measure 24
0100
0000
0010
0000
1000
0000
0100
0000
1000
0010
0000
0100
0000
0000
0010
0000
,  // measure 25
0100
0000
0010
0000
1000
0000
0010
0000
0100
0001
0000
1000
0000
0000
0001
0000
,  // measure 26
0100
0010
0100
0000
0001
1000
0001
0000
,  // measure 27
1000
0100
1000
0100
1000
0000
1001
0000
,  // measure 28
0001
0010
0001
0000
1000
0010
1000
0000
,  // measure 29
0001
0100
0001
0100
0001
0000
1000
1000
,  // measure 30
1000
0100
0010
0000
0100
0010
0001
0000
,  // measure 31
0100
0010
0100
1000
0001
0000
0011
0000
,  // measure 32
0010
0010
0100
1000
0002
0000
0103
0000
,  // measure 33
1000
1000
0100
0010
0200
0000
0310
0000
,  // measure 34
0100
0100
2000
0000
3001
0001
0020
0000
,  // measure 35
0130
0000
0100
0000
0010
0010
1001
0000
,  // measure 36
0010
0000
0100
0000
0010
0000
1000
0000
0001
0100
0000
0001
0000
0000
0010
0000
,  // measure 37
0100
0100
0010
0000
1100
0000
0101
0000
,  // measure 38
0001
0000
0100
0000
0001
0000
1000
0000
0010
1000
0000
0100
0000
0000
1000
0000
,  // measure 39
0010
0100
0001
0000
0110
0000
1001
0000
,  // measure 40
1000
0000
0100
0000
0010
0000
0100
0000
1000
0001
0000
0010
0000
0000
0001
0000
,  // measure 41
0100
0010
1000
0000
1100
0000
0011
0000
,  // measure 42
0010
0000
0100
0000
0010
0000
0001
0000
0100
0001
0000
0010
0000
0000
0100
0000
,  // measure 43
1000
0100
1000
0000
0101
0000
1010
0000
,  // measure 44
2000
0000
3002
0000
0103
0020
0100
0000
,  // measure 45
0130
0010
1000
0100
1000
0000
1001
0000
,  // measure 46
0020
0000
0032
0000
1003
0200
1000
0000
,  // measure 47
1300
0010
0100
0001
1000
0000
0011
0000
,  // measure 48
0200
0000
0320
0000
0130
2000
0100
0000
,  // measure 49
3100
0010
0100
0000
1000
0000
0001
0000
,  // measure 50
0000
0000
0100
0000
0100
0010
0100
0000
,  // measure 51
0010
0000
0000
0000
0010
0000
0000
0000
1010
0000
0000
0101
0000
0000
1000
0000
,  // measure 52
1001
0000
0000
0010
0000
0000
0001
0000
0100
0000
0001
0000
1000
0000
0000
0000
,  // measure 53
0100
0000
0000
0100
0000
0000
1000
0000
0010
0000
0100
0000
0001
0000
0000
0000
,  // measure 54
1000
0100
1000
0001
,  // measure 55
0100
0000
0000
0100
0000
0000
0010
0000
0100
0000
0100
0000
0010
1000
0010
0000
,  // measure 56
0100
0000
0000
0001
0000
0000
1000
0000
0100
0000
0010
0000
0001
0000
0000
0000
,  // measure 57
1000
0000
0000
1000
0000
0000
0100
0000
1000
0000
0010
0000
0100
0000
0000
0000
,  // measure 58
0001
0010
0100
0010
,  // measure 59
0010
0000
0000
0001
0000
0000
0100
0000
0010
0000
1000
0000
0001
0100
0001
0000
,  // measure 60
1000
0000
0100
1000
0000
0100
1000
0000
0010
0000
0100
0000
0010
0000
0000
0000
,  // measure 61
0100
0000
0001
0100
0000
0001
0100
0000
0001
0000
0010
0000
0001
0000
0000
0000
,  // measure 62
1000
0010
0100
0001
,  // measure 63
0100
0000
0000
0001
0000
0000
1000
0000
0100
0000
1000
0000
0010
0100
0010
0000
,  // measure 64
1000
0000
0100
0010
0000
0100
0010
0000
0001
0000
1000
0000
0001
0000
0000
0000
,  // measure 65
0010
0000
0001
1000
0000
0001
1000
0000
0010
0000
0100
0000
0010
0000
0000
0000
,  // measure 66
0020
2030
3002
0023
,  // measure 67
0130
1000
0100
0000
0010
0001
0010
0000
,  // measure 68
0001
0101
1100
0010
,  // measure 69
0100
0010
0100
0010
1000
0100
0010
0000
,  // measure 70
0001
0100
0001
1000
0100
1000
0001
0000
,  // measure 71
0100
0010
0100
0001
1000
0010
0100
0000
,  // measure 72
0001
0010
0001
0010
0100
1000
0010
0000
,  // measure 73
1000
0100
0010
0100
1000
0001
0010
0000
,  // measure 74
0001
0100
1000
0100
0001
0010
1000
0000
,  // measure 75
0010
0001
0010
0001
0100
0010
1000
0000
,  // measure 76
0010
1000
0010
0100
0001
1000
0110
0000
,  // measure 77
0010
0000
0000
1000
0000
0000
0010
0000
0100
0000
0001
0000
1000
0000
0000
0000
,  // measure 78
0100
0000
0000
0100
0000
0000
1000
0000
0010
0000
0100
0000
0001
0000
0000
0000
,  // measure 79
0010
0000
0000
0001
0000
0000
0100
0000
0010
0000
1000
0000
0001
0000
0000
0000
,  // measure 80
1000
0000
0000
1000
0000
0000
0100
0000
0010
0000
0001
0000
0100
0000
0000
0000
,  // measure 81
0010
0000
0100
0010
0000
1000
0100
0000
1000
0000
0001
0000
0100
0000
0000
0000
,  // measure 82
0010
0000
0100
0010
0000
1000
0010
0000
0100
0000
0001
0000
1000
0000
0000
0000
,  // measure 83
0001
0000
1000
0010
0000
0100
0001
0000
1000
0000
0100
0000
1000
0000
0000
0000
,  // measure 84
0011
1010
0101
1001
,  // measure 85
0200
0000
0000
0300
;
