#TITLE:PKMN;
#SUBTITLE:;
#ARTIST:Kitsune²;
#TITLETRANSLIT:;
#SUBTITLETRANSLIT:;
#ARTISTTRANSLIT:Kitsune2;
#GENRE:;
#CREDIT:;
#MENUCOLOR:#CC6666;
#NEWMETERSYSTEM:NO;
#BANNER:PKMN-bn.png;
#BACKGROUND:PKMN-bg.png;
#LYRICSPATH:;
#CDTITLE:PROJECT VIRIDIAN-cdtitle.png;
#MUSIC:PKMN.mp3;
#OFFSET:-0.020;
#SAMPLESTART:59.580;
#SAMPLELENGTH:13.260;
#SELECTABLE:YES;
#LISTSORT:;
#BPMS:0.000=145.040;
#STOPS:204.000=1.620
;
#BGCHANGES:;
#ATTACKS:;

//---------------dance-single - ----------------
#NOTES:
     dance-single:
     :
     Easy:
     4:
     0.270,0.293,0.071,0.132,0.000:
0000
0000
0000
0000
,
0000
0000
0000
0000
,
0000
0000
0000
0000
,
0000
0000
0000
0000
,
0000
0100
0000
0100
,
0000
0010
0000
0010
,
0000
1000
0000
1000
,
0000
0001
0000
0001
,
0000
0010
0000
0010
,
0000
0100
0000
0100
,
0000
0001
0000
0001
,
1001
0000
0000
0110
,
1000
0100
0010
0001
,
0100
0010
0100
0001
,
0100
0010
1000
0001
,
2000
0000
3000
0001
,
0100
0010
1000
0001
,
0100
0001
1000
0100
,
1000
0010
0100
0001
,
2000
3000
0002
0003
,
0100
0010
1000
0100
,
1000
0001
0010
0100
,
0001
0100
1000
0010
,
0200
0000
0300
0001
,
0100
0010
1000
0001
,
0001
0010
0100
0010
,
0100
1000
0100
1000
,
0002
0003
0000
0110
,
0001
0100
0001
0100
,
0010
1000
0010
1000
,
0100
0010
0001
0100
,
0002
0000
2003
0000
,
3010
0100
0001
1000
,
0100
1000
0010
0100
,
0001
0100
0010
1000
,
0002
0000
0000
0003
,
0100
0010
0100
0001
,
0100
0010
1000
0001
,
1000
0100
0010
0100
,
0010
0001
1000
1000
,
0100
1000
0010
0100
,
0001
1000
0001
0010
,
0100
0010
0001
0100
,
0010
1000
0002
0000
,
1003
0100
0000
0100
,
0000
0100
0000
0100
,
1000
0010
0000
0010
,
0100
0001
0000
0001
,
1000
0010
0000
0010
,
1000
0100
0000
0100
,
1000
0001
0000
0001
,
0100
0010
0100
0001
,
0200
0300
0020
0030
,
1000
0100
1000
0010
,
0101
0000
1100
0000
,
0001
0100
0001
1000
,
0020
0030
2000
3000
,
0001
1000
0100
0010
,
0011
0000
1100
0001
,
1000
0100
0000
0100
,
0000
0001
0000
0001
,
0000
1000
0000
1000
,
0000
0010
0000
0010
,
0000
1000
0000
1000
,
0000
0001
0000
0001
,
0000
0100
0000
0100
,
0220
0000
0330
0000
;

//---------------dance-single - Copied from----------------
#NOTES:
     dance-single:
     Copied from:
     Beginner:
     1:
     0.115,0.146,0.018,0.079,0.000:
0000
0000
0000
0000
,
0000
0000
0000
0000
,
0000
0000
0000
0000
,
0000
0000
0000
0000
,
0000
0001
0000
0001
,
0000
0001
0000
0001
,
0000
1000
0000
1000
,
0000
1000
0000
1000
,
0000
0010
0000
0010
,
0000
0010
0000
0010
,
0000
0100
0000
0100
,
0100
0000
0000
0010
,
0010
0000
0000
0000
,
1000
0000
0000
0000
,
0100
0000
0000
0000
,
0001
0000
0010
0000
,
0100
0000
0000
0000
,
0010
0000
0000
0000
,
0100
0000
0000
0000
,
0001
0000
1000
0000
,
1000
0000
0000
0000
,
0010
0000
0000
0000
,
0100
0000
0000
0000
,
0100
0000
0001
0000
,
0001
0000
0000
0000
,
0010
0000
0000
0000
,
0100
0000
0000
0000
,
1000
0000
0100
0000
,
0100
0000
0000
0000
,
0010
0000
0000
0000
,
0001
0000
0000
0000
,
2000
0000
3000
0000
,
0010
0000
0000
0000
,
0100
0000
0000
0000
,
0100
0000
0000
0000
,
0002
0000
0003
0000
,
1001
0000
0000
0000
,
0010
0000
0000
0000
,
0100
0000
0000
0000
,
0001
0000
1000
0000
,
1000
0000
0000
0000
,
0010
0000
0000
0000
,
0100
0000
0000
0000
,
0010
0000
0100
0000
,
0002
0000
0000
0003
,
2000
0000
3000
0000
,
0020
0000
0030
0000
,
0200
0000
0300
0000
,
0020
0000
0030
0000
,
2000
0000
3000
0000
,
0200
0000
0300
0000
,
0001
0000
0000
0000
,
1000
0000
0000
0000
,
0010
0000
0000
0000
,
0100
0000
0000
0000
,
0001
0000
0000
0000
,
0010
0000
0000
0000
,
0100
0000
0000
0000
,
1000
0000
1000
0000
,
1000
0000
0000
0000
,
0010
0000
0000
0000
,
0100
0000
0000
0000
,
0001
0000
0000
0000
,
0000
0010
0000
0010
,
0000
0010
0000
0010
,
0000
0100
0000
0000
,
1001
0000
0000
0000
;

//---------------dance-single - Copied from----------------
#NOTES:
     dance-single:
     Copied from:
     Medium:
     6:
     0.369,0.440,0.141,0.088,0.040:
0000
0000
0000
0000
,
0000
0000
0000
0000
,
0000
0000
0000
0000
,
0000
0000
0000
0000
,
1000
0000
1000
0100
0001
0000
0100
0000
,
0000
0100
0000
0100
,
1000
0000
1000
0100
0001
0000
0100
0000
,
2000
0010
0000
3010
,
0001
0000
0001
0100
1000
0000
0100
0000
,
0000
0100
0000
0100
,
0001
0000
0001
0100
1000
0000
0100
0000
,
1001
0000
0000
0110
,
0001
0000
0100
0001
0010
0000
0010
0000
,
0001
0100
0010
1000
,
0010
0000
1000
0100
0001
0000
0100
0000
,
0010
0000
0100
0000
0010
0001
1001
0000
,
0010
0000
0100
0001
1000
0000
0010
0000
,
1000
0100
0010
0001
,
0100
0000
0001
0001
0010
0000
0010
0000
,
0001
0000
0100
0000
0010
1000
0010
0100
,
0010
0000
0100
0001
1000
0000
0001
0000
,
0100
0010
1000
0001
,
1000
0000
0100
0010
0001
0000
0100
0000
,
0010
0000
1000
0000
0001
0010
0011
0000
,
1000
0000
0100
0010
1000
0000
0010
0000
,
0001
0100
0010
1000
,
0001
0000
0100
0001
0100
0000
0010
0000
,
0110
0000
0000
0000
0000
1000
1001
0000
,
0010
0000
0100
0001
0100
0000
0010
0000
,
1000
0001
0100
0010
1000
0000
1100
0000
,
1000
0100
0010
0100
1000
0000
0001
0000
,
0200
0000
0001
0301
,
0010
0100
0001
0100
1000
0000
0100
0000
,
0010
1000
0010
0000
0100
0001
0010
0010
,
0001
0100
0010
0000
1000
0100
0010
0000
,
0100
0000
0000
0000
0000
1000
0000
0000
0000
0000
0001
0000
0000
0000
0000
0000
1001
0000
0000
0000
0000
0000
0000
0000
0110
0000
0000
0000
0000
0000
0000
0000
,
1001
0000
0000
0000
0001
0000
0000
0100
0000
0000
0010
0000
0010
0000
0000
0000
,
1000
0000
0000
0000
1000
0000
0000
0010
0000
0000
0100
0000
0001
0000
0000
0000
,
0010
0000
0000
0000
0010
0000
0000
0100
0000
0000
0010
0000
0001
0000
0000
0000
,
1000
0000
0000
0000
0010
0000
0000
0100
0000
0000
0001
0000
0100
0000
0001
0000
,
1000
0000
0000
0000
0001
0000
0000
0010
0000
0000
0100
0000
1000
0000
0000
0000
,
0010
0000
0000
0000
0100
0000
0000
0100
0000
0000
0010
0000
0100
0000
0000
0000
,
0001
0000
0000
0000
1000
0000
0000
0010
0000
0000
0100
0000
1000
0000
0000
0000
,
0100
0000
0001
0000
1000
0100
0010
0001
,
0200
0010
0000
0001
,
0000
0010
0000
0001
,
0320
1000
0000
0001
,
0000
0100
0000
0100
,
0230
0001
0000
1000
,
0000
0001
0000
1000
,
0320
1000
0000
0100
,
0130
0001
0100
0010
,
1000
0100
0010
0000
0010
0001
0100
0000
,
0010
0100
0001
1000
,
0101
1010
0100
0001
,
0100
1000
0100
0001
,
0010
0001
1000
0000
0010
1000
0001
0000
,
0100
0010
1000
0001
,
2200
3300
0011
1100
,
0001
0100
0000
0100
,
0010
1000
0000
1000
,
0100
0010
0000
0010
,
0001
0000
0100
0000
0010
1000
0001
0000
,
0100
0010
0000
0010
,
1000
0001
0000
0001
,
0100
1000
0000
1000
,
0202
0000
0303
0000
;

//---------------dance-single - Copied from ----------------
#NOTES:
     dance-single:
     Copied from:
     Hard:
     9:
     0.549,0.674,0.441,0.062,0.247: // measure 1
0000
0000
0000
0000
,  // measure 2
0000
0000
0000
0000
,  // measure 3
0000
0000
0000
0000
,  // measure 4
0000
0000
0000
0000
,  // measure 5
0001
0000
0000
0001
0100
0000
0001
0000
1000
0000
0000
0000
0100
0000
0000
0000
,  // measure 6
1000
0010
0100
0001
,  // measure 7
1000
0000
0000
1000
0010
0000
1000
0000
0100
0000
0000
0000
0001
0000
0000
0000
,  // measure 8
0110
0000
0101
0000
1000
0010
0100
0001
,  // measure 9
0010
0000
0000
0001
1000
0000
0001
0000
0100
0000
0000
0000
0010
0000
0000
0000
,  // measure 10
1000
0100
1000
0010
,  // measure 11
0100
0000
0000
0001
1000
0000
0010
0000
0100
0000
0000
0000
0001
0000
0000
0000
,  // measure 12
1001
0000
0000
0110
,  // measure 13
0001
0100
1000
0100
0001
0000
0010
0000
,  // measure 14
0001
1000
0100
0000
1000
0001
0100
0000
,  // measure 15
0010
0100
0001
0100
0010
0000
1000
0000
,  // measure 16
0110
0101
1100
1010
,  // measure 17
0001
0100
1000
0100
0001
0000
0010
0000
,  // measure 18
0100
0010
0001
0000
0100
0010
1000
0000
,  // measure 19
0010
0100
0001
1000
0001
0000
0100
0000
,  // measure 20
0010
0000
1010
0000
0001
1000
1001
0101
,  // measure 21
1100
0000
0000
1000
0100
0000
0001
0000
0100
0000
0000
0000
0110
0000
0000
0000
,  // measure 22
0001
0000
1000
0000
0010
0100
0001
0000
,  // measure 23
1001
0000
0000
0001
0100
0000
0010
0000
1000
0000
0000
0000
0001
0000
1000
0001
,  // measure 24
0100
0000
0000
0100
0010
0000
1000
0000
0001
0000
0010
0000
0100
0000
0000
0000
,  // measure 25
1100
0000
0000
0100
0001
0000
0100
0000
1000
0000
0000
0000
0010
0000
0000
0000
,  // measure 26
0100
0000
0001
0000
0100
0010
1000
0000
,  // measure 27
0101
0000
0000
0001
0010
0000
0001
0000
0100
0000
0000
0000
0010
0000
0100
0010
,  // measure 28
1000
0000
0000
0001
0100
0000
0010
0000
0000
0000
1100
0000
0011
0000
0000
0000
,  // measure 29
1000
0100
0001
0010
1000
0000
0001
0000
,  // measure 30
0100
0001
0010
0000
0100
1000
0010
0000
,  // measure 31
0010
0001
0100
1000
0010
0000
0100
0000
,  // measure 32
0220
0000
0330
0000
0011
0100
1100
0000
,  // measure 33
1001
0010
0001
0100
0010
1000
0001
0000
,  // measure 34
1000
0100
0001
0010
1000
0000
0001
0001
,  // measure 35
0100
1000
0100
0010
0000
1000
0100
0010
,  // measure 36
0002
0000
0000
0000
0000
0020
0003
0000
0000
0000
0200
0030
0000
0000
0000
0000
1300
0000
0000
0000
0000
0000
0001
0000
0100
0000
0000
0000
0000
0000
0000
0000
,  // measure 37
0100
0010
0100
0000
0001
0000
0000
0100
0000
0000
0010
1000
0010
0000
0100
0000
,  // measure 38
0001
1000
0100
0000
1000
0000
0000
0100
0000
0000
1000
0100
0010
0000
0001
0000
,  // measure 39
0100
0001
0100
0000
0001
0000
0000
0010
0000
0000
0001
1000
0010
0000
0100
0000
,  // measure 40
0010
0100
0001
0000
1000
0000
0000
0001
0100
0000
0100
0000
0010
0000
0010
0000
,  // measure 41
1000
0100
0010
0000
0001
0000
0000
1000
0000
0000
0001
0010
0001
0000
0100
0000
,  // measure 42
0010
1000
0001
0000
1000
0000
0000
0010
0000
0000
0100
0001
0010
0000
1000
0000
,  // measure 43
0010
0001
0010
0000
0001
0000
0000
0100
0000
0000
0100
0010
0001
0000
0010
0000
,  // measure 44
0100
0010
1000
0000
0001
0000
0000
1000
0010
0000
0110
0000
0101
0000
1010
0000
,  // measure 45
1001
0000
0000
0001
0100
0000
0010
0000
1000
0000
0000
0000
1100
0000
0000
0000
,  // measure 46
0000
0011
0000
1001
,  // measure 47
0010
0000
0000
0010
0100
0000
0001
0000
1000
0000
0000
0000
1100
0000
0010
0000
,  // measure 48
0001
0000
0000
0100
0001
0000
0000
0000
0000
0000
0000
0000
1010
0000
0000
0000
,  // measure 49
0001
0000
0000
1000
0100
0000
0010
0000
0001
0000
0000
0000
1100
0000
0000
0000
,  // measure 50
0000
0110
0000
0011
,  // measure 51
0010
0000
0000
0001
0100
0000
0010
0000
1000
0000
0000
0000
0001
0000
1000
0000
,  // measure 52
0110
0001
0100
1000
0010
0000
0100
0000
,  // measure 53
0001
0000
0100
0000
0000
1100
0000
0000
1000
0000
0010
0000
0000
0101
0000
0000
,  // measure 54
0001
1000
0100
0001
0100
0010
0001
0100
,  // measure 55
0010
0000
0000
0010
1000
0000
0000
1000
0100
0000
0100
0000
0000
0010
0000
0000
,  // measure 56
0001
0100
0010
1000
0100
0000
1000
0000
,  // measure 57
0001
0000
0010
0000
0000
0110
0000
0000
1000
0000
0100
0000
0000
0110
0000
0000
,  // measure 58
0001
0010
0001
1000
0001
0000
0100
0000
,  // measure 59
0010
1000
0010
1000
0010
0000
0000
0000
0110
0000
0000
0000
0101
0000
0000
0000
,  // measure 60
1000
0000
0000
1000
0100
0000
0010
0000
0001
0000
0000
0000
0110
0000
0000
0000
,  // measure 61
0000
0011
0000
1100
,  // measure 62
0001
0000
0000
0001
0010
0000
0100
0000
1000
0000
0000
0000
0001
0000
1000
0000
,  // measure 63
0110
0000
0000
1000
0010
0000
0000
0000
0000
0000
0000
0000
0011
0000
0000
0000
,  // measure 64
1000
0000
0000
0010
0100
0000
0001
0000
0010
0000
0000
0000
1001
0000
0000
0000
,  // measure 65
0000
0110
0000
1001
,  // measure 66
0010
0000
0000
1000
0001
0000
0100
0000
0010
0000
0000
0000
0100
0000
0010
0000
,  // measure 67
2002
0000
3003
0000
;
