#TITLE:One Two Three (You Love Me);
#SUBTITLE:;
#ARTIST:Lydia Nurbs;
#TITLETRANSLIT:;
#SUBTITLETRANSLIT:;
#ARTISTTRANSLIT:;
#GENRE:;
#CREDIT:;
#MENUCOLOR:;
#NEWMETERSYSTEM:NO;
#BANNER:One Two Three (You Love Me)-bn.png;
#BACKGROUND:One Two Three (You Love Me)-bg.png;
#LYRICSPATH:One Two Three (You Love Me).lrc;
#CDTITLE:PROJECT VIRIDIAN-cdtitle.png;
#MUSIC:One Two Three (You Love Me).mp3;
#OFFSET:-0.040;
#SAMPLESTART:60.020;
#SAMPLELENGTH:12.000;
#SELECTABLE:YES;
#LISTSORT:;
#BPMS:0.000=160.000;
#STOPS:;
#BGCHANGES:;
#ATTACKS:;

//---------------dance-single - ----------------
#NOTES:
     dance-single:
     :
     Easy:
     3:
     0.261,0.324,0.095,0.111,0.000:
0000
0000
0000
0000
,
0000
0000
0000
0000
,
0000
0000
0000
0000
,
0000
0000
0000
0000
,
0000
1000
0000
0000
,
0000
0001
0000
0000
,
0000
1000
0000
0001
,
1000
1000
1001
0000
,
0010
0010
0100
0000
,
0001
0000
1000
0100
,
1000
0010
0010
0000
,
0100
0000
0001
0000
,
0010
0001
1000
0000
,
0100
0000
1000
0000
,
0010
1000
0001
1000
,
0020
0000
0000
0000
,
1030
0001
0100
0001
,
0010
0000
0001
0000
,
1000
0100
1000
0000
,
0001
0100
0020
1030
,
0001
0100
0001
0000
,
1000
0100
0010
0100
,
0010
0000
0001
0000
,
0100
0100
1001
0000
,
0010
0000
1000
0000
,
0001
0010
0000
1000
,
0100
0000
1000
0000
,
0010
0000
0001
1000
,
0010
0000
0100
0000
,
0001
0010
0000
1000
,
0010
0000
1000
0000
,
0010
1000
0010
1000
,
0100
0000
0100
0000
,
0010
0001
1000
0100
,
0010
0000
0100
0000
,
0002
0000
2000
3003
,
0010
0000
0100
0000
,
0010
1000
0001
0000
,
0100
0000
0001
0000
,
0000
0010
0010
0000
,
0100
1000
0100
0000
,
0100
0000
0010
0000
,
0001
0010
0001
0000
,
1000
2000
0200
3300
,
0010
0100
0010
0000
,
0001
0000
1000
0100
,
1000
0000
0010
0000
,
0100
0100
0002
0000
,
0013
0000
0100
0000
,
1000
0010
0001
0000
,
0100
0000
0001
0000
,
0010
0100
0010
0001
,
1000
0000
0010
0000
,
1000
0001
0100
0000
,
0001
0010
0100
0000
,
0010
0100
1100
0000
,
1001
0000
0000
0000
,
0110
0000
0000
1000
,
1001
0000
0000
0000
,
0110
0000
0000
0001
,
0101
1000
0000
1000
,
0110
1000
0000
1000
,
0110
0001
0000
0001
,
2002
0000
0000
3003
,
0010
0010
0010
0010
,
1000
1000
1000
1000
,
0100
0100
0100
0100
,
0001
0001
0001
0001
,
1000
0000
1000
0001
,
0100
0000
0010
0000
,
0100
0010
0100
0000
,
2002
0000
0000
3003
,
0001
0100
1000
0100
,
0010
0000
0010
0000
,
1000
0001
1000
0000
,
0001
0002
0020
0033
,
0100
0100
0001
0010
,
0001
0000
0100
0000
,
0010
0100
0010
1000
,
0100
1000
0010
0000
,
0020
0000
0000
0000
,
0000
0000
0030
0000
;

//---------------dance-single - Copied from----------------
#NOTES:
     dance-single:
     Copied from:
     Beginner:
     1:
     0.101,0.191,0.008,0.056,0.000:
0000
0000
0000
0000
,
0000
0000
0000
0000
,
0000
0000
0000
0000
,
0000
0000
0000
0000
,
0000
0010
0000
0000
,
0000
0100
0000
0000
,
0000
0010
0000
0000
,
0000
0100
0000
0000
,
0001
0000
0000
0000
,
1000
0000
0000
0000
,
0100
0000
0000
0000
,
0010
0000
0010
0000
,
0010
0000
0000
0000
,
0001
0000
0000
0000
,
0100
0000
0000
0000
,
2000
0000
3000
0000
,
0010
0000
0000
0000
,
0010
0000
1000
0000
,
1000
0000
0000
0000
,
0001
0000
0000
0000
,
0010
0000
0000
0000
,
0100
0000
0100
0000
,
0001
0000
0000
0000
,
0020
0000
0030
0000
,
0100
0000
0000
0000
,
0001
0000
0000
0000
,
0100
0000
0000
0000
,
1000
0000
0000
0000
,
0010
0000
0000
0000
,
0100
0000
0000
0000
,
0001
0000
0000
0000
,
0002
0000
0003
0000
,
1000
0000
0000
0000
,
0100
0000
0000
0000
,
0010
0000
0000
0000
,
0010
0000
0000
0000
,
0001
0000
0000
0000
,
1000
0000
0000
0000
,
0100
0000
0000
0000
,
2002
0000
3003
0000
,
0001
0000
0000
0000
,
1000
0000
0000
0000
,
0010
0000
0000
0000
,
1000
0000
0000
0000
,
0100
0000
0000
0000
,
0001
0000
0000
0000
,
0010
0000
0000
0000
,
0010
0000
0000
0000
,
0100
0000
0000
0000
,
1000
0000
0000
0000
,
0001
0000
0000
0000
,
0100
0000
0000
0000
,
0010
0000
0000
0000
,
0100
0000
0000
0000
,
0001
0000
0000
0000
,
1000
0000
0000
0000
,
0010
0000
0000
0000
,
0000
0000
0000
0000
,
0100
0000
0000
0000
,
0000
0000
0000
0000
,
0001
0000
0000
0000
,
0000
0000
0000
0000
,
1000
0000
0000
0000
,
0200
0000
0300
0000
,
0010
0000
0000
0000
,
0001
0000
0000
0000
,
0100
0000
0000
0000
,
1000
0000
0000
0000
,
0010
0000
0000
0000
,
0100
0000
0000
0000
,
0001
0000
0000
0000
,
2000
0000
3000
0000
,
0001
0001
0001
0000
,
0100
0000
0000
0000
,
0010
0000
0000
0000
,
1000
0000
0000
0000
,
1000
1000
1000
0000
,
0100
0000
0000
0000
,
0010
0000
0000
0000
,
0100
0000
0000
0000
,
0100
0000
0000
0000
;

//---------------dance-single - Copied from----------------
#NOTES:
     dance-single:
     Copied from:
     Medium:
     5:
     0.354,0.388,0.079,0.159,0.000:
0000
0000
0000
0000
,
0000
0000
0000
0000
,
0000
0000
0000
0000
,
0000
0000
0000
0000
,
0001
0100
0000
1000
,
0100
0000
0000
0000
0010
0000
0100
0001
,
0100
0000
0010
0000
1000
0001
1000
0000
,
0100
0010
0220
0330
,
0001
0100
0010
1000
,
0100
0010
0100
0001
,
0100
1000
0010
0100
,
0001
0000
1000
0000
,
0010
0100
0001
0100
,
0010
1000
0100
0010
,
0002
0023
0230
2300
,
0002
0000
0000
3003
,
0010
0100
0001
0100
,
0010
0000
1000
0000
0001
0100
0010
0000
,
1000
0100
0010
0100
,
0001
0000
0100
0000
1000
0010
1000
0000
,
0001
0100
0010
0100
,
0010
0000
0010
0000
1000
0010
0100
0000
,
0001
0100
1000
0100
,
0010
0000
1001
0000
,
0100
1000
0001
0100
,
0010
0000
0000
0000
0100
0000
0100
0010
,
0100
0001
0100
0010
,
1000
0000
1001
0000
,
0010
1000
0100
0010
,
0001
0100
0001
0000
0000
0000
1000
0000
,
0001
0100
0010
1000
,
0001
0010
0100
1000
0010
0000
0000
0000
,
0100
0010
0001
0000
,
0101
1000
1100
0000
,
0010
0100
0010
1000
,
0002
0100
1000
0103
,
1000
0100
0010
1000
,
0010
0000
0001
0000
0100
0000
0010
1000
,
0001
0100
0010
0000
,
0000
1000
1001
0000
,
0010
0000
0001
0000
0010
0000
0001
0100
,
0010
1000
0001
0000
,
1000
0100
0010
0100
,
0010
0001
1000
0000
1001
0000
0000
0000
,
0010
0000
0100
0000
0010
0000
1000
0001
,
0100
0010
1000
0000
,
1000
0100
0010
0001
,
1000
0001
1000
0000
0020
0000
0030
0000
,
0100
0100
0010
1000
,
0010
0000
0100
0000
0001
0000
1000
0010
,
0100
0001
0100
1000
,
0100
0000
0001
0000
0010
0100
0010
0000
,
0001
1000
0100
1000
,
0010
0000
0100
0000
0001
0100
0010
0000
,
1000
0100
0010
0100
,
0001
0000
1001
0000
,
0002
0000
0000
1000
,
0203
0000
0000
0010
,
0302
0000
0000
0010
,
2003
0000
0000
0100
,
3200
0000
0000
1000
,
0320
0000
0000
0001
,
0032
0000
0000
1000
,
2000
0000
0000
3003
,
0010
0100
0001
1000
,
0001
0010
0100
1000
,
0010
0100
0001
1000
,
0100
0010
0001
1001
,
0010
0100
0010
1000
,
0001
0100
0001
0000
1000
0100
1000
0000
,
0010
0100
0001
1000
,
0220
0000
0000
0330
,
0001
0100
0001
0000
1000
0100
1000
0000
,
0010
0100
0001
0010
,
0100
1000
0010
1000
,
0001
0100
1000
0000
0100
0000
0000
0000
,
0010
0100
0001
0010
,
0001
1000
0001
0000
1000
0001
1000
0000
,
0010
0100
0001
0010
,
0001
0000
1000
0100
0001
0000
0000
0000
,
2000
0000
0000
0000
,
0000
0000
3000
0000
;

//---------------dance-single - Copied from----------------
#NOTES:
     dance-single:
     Copied from:
     Hard:
     6:
     0.423,0.453,0.191,0.222,0.000:
0000
0000
0000
0000
,
0000
0000
0000
0000
,
0000
0000
0000
0000
,
0000
0000
0000
0000
,
0001
0100
1000
0100
,
0001
0010
1000
0010
,
0001
1000
0100
1000
,
0010
0100
0010
0000
1001
0000
0000
0000
,
0010
0100
0010
1000
,
0001
0000
0100
0000
0001
0010
0100
0000
,
1000
0010
0100
0001
,
1000
0100
0002
0003
,
1000
0010
0100
0001
,
1000
0010
0010
0100
,
0001
0101
1000
1100
,
0000
0020
0200
0000
0000
0000
0330
0000
,
0001
0100
0001
0000
1000
0010
1000
0000
,
0010
0100
0002
1003
,
1000
0100
0010
0000
0100
0010
0001
0000
,
1000
0010
0110
1001
,
0010
0100
0001
0000
0100
0010
1000
0000
,
0001
0100
0020
1030
,
0100
1000
0001
0100
,
0000
0101
1100
0000
,
0010
0100
0001
1000
,
0010
1000
0100
0000
0000
0000
1000
0000
,
1001
0010
0100
0001
,
0010
0001
0100
0000
0010
1000
0100
0000
,
1000
0001
0100
0010
,
1000
0010
1000
0000
0000
0000
0002
0000
,
0203
0010
0010
0301
,
0001
0100
0010
1000
0001
0000
0000
0000
,
1000
0100
0001
0100
,
2000
0010
3001
0110
,
1000
0100
0010
0000
0001
1000
0001
0000
,
1000
0100
0020
0000
,
0130
0010
0001
0100
,
0001
1000
0010
0000
,
0100
0001
1000
0000
1000
0000
0001
0000
,
0000
0001
1001
0110
,
0002
0000
0203
0000
2300
0000
3100
0010
,
0000
0210
0000
0000
0001
0000
1300
0000
,
0001
0100
0010
0000
1000
0000
0100
0010
,
0001
0000
1000
0000
0100
1000
0010
0000
,
0200
0000
0320
0000
2030
0000
3100
1000
,
0000
1002
0000
0000
0100
0000
1003
0000
,
0010
0000
0100
0001
1000
0000
0100
0000
,
1000
0010
0100
0001
1000
0000
0000
0000
,
0010
0100
0001
1000
,
0100
0000
1000
0000
0010
0100
0001
0000
,
1000
0100
0010
0100
,
1000
0010
1000
0000
0001
0010
0001
0000
,
0100
0010
1000
0100
,
0001
0000
0100
0000
1000
0010
0100
0000
,
0001
0010
0100
1000
,
0000
0101
1100
0000
,
0110
0010
0010
0000
,
0100
0010
0100
0000
0000
0000
1000
0000
,
1100
0000
0000
0001
,
0101
0000
0000
0000
0010
1000
0001
0000
,
0110
1000
0000
1000
,
0110
0002
2003
3010
,
0101
1000
0000
1000
,
0001
0100
1000
0100
0001
0000
1000
0000
,
0100
0100
0100
0100
,
0010
0000
0010
0000
0010
0000
0001
0100
,
0001
0001
0001
0001
,
1000
0000
1000
0000
1000
0100
0010
0001
,
0100
0010
0100
0010
,
1000
0100
1000
0100
,
0001
0100
0001
0100
,
0000
1000
1001
0010
,
0200
0000
0302
0000
2003
0000
3010
0100
,
0000
0201
0000
0000
0010
0000
0301
0000
,
0100
0010
1000
0000
1000
0000
0001
0000
,
1000
0100
0001
0000
0100
0000
1000
0000
,
0020
0000
2030
0000
3002
0000
0013
0001
,
0000
0120
0000
0000
0001
0000
1030
0000
,
1000
0001
0100
0000
0010
0000
1000
0000
,
0001
0100
0010
1000
0001
0000
0100
0000
,
0002
0000
0000
0000
,
0000
0000
0003
0000
;

//---------------dance-single - Copied from ----------------
#NOTES:
     dance-single:
     Copied from:
     Challenge:
     8:
     0.601,0.579,0.365,0.175,0.183: // measure 1
0000
0000
0000
0000
,  // measure 2
0000
0000
0000
0000
,  // measure 3
0000
0000
0000
0000
,  // measure 4
0000
0000
0000
0000
0000
0000
0000
0000
0000
0000
0001
0100
0001
0000
1000
0000
,  // measure 5
0100
1100
1000
0101
,  // measure 6
0010
0000
1001
0000
1000
0000
0100
0010
,  // measure 7
0001
0101
0010
1010
,  // measure 8
1000
0100
0001
0100
1100
0000
0010
0000
,  // measure 9
0001
0000
0100
0000
0100
0000
0000
0010
0000
0000
0100
0000
0010
0000
1000
0000
,  // measure 10
0001
0000
0100
0000
1000
0100
0010
1000
,  // measure 11
0001
0000
0000
0100
0001
0000
0000
1000
0100
0000
0000
0000
0010
0000
0000
0000
,  // measure 12
0100
0010
0001
1000
0010
0100
0010
1000
,  // measure 13
0001
0000
0100
0000
0100
0000
0000
0001
0000
0000
0100
0000
0010
0000
1000
0000
,  // measure 14
0100
0000
1000
0000
0010
0100
0001
0000
,  // measure 15
0010
0000
0000
0100
0010
0000
0000
0100
0010
0000
0000
1000
0100
0000
0000
0000
,  // measure 16
2000
0000
0000
3000
,  // measure 17
0001
0000
0100
0000
0010
0000
0100
0000
0010
1000
0000
0100
0000
0000
1000
0000
,  // measure 18
0100
0010
0001
1000
0010
0010
0100
0000
,  // measure 19
0001
0000
0100
0000
0010
0000
0100
0000
0001
0000
0000
0100
0000
0000
0010
0000
,  // measure 20
1000
1000
0100
0010
0002
0000
0103
0000
,  // measure 21
0010
0000
0100
0000
0001
0000
1000
0000
0100
0010
0000
0001
0000
0000
0010
0000
,  // measure 22
0001
0100
0010
1000
0100
0100
0010
0000
,  // measure 23
0100
0000
1000
0000
0010
0000
0100
0000
0010
0000
0000
1000
0000
0000
0010
0000
,  // measure 24
0100
0000
0001
0000
0000
0001
0000
0000
1000
0010
1000
0000
0100
0000
0000
0000
,  // measure 25
0010
0001
0100
1000
0100
0010
0100
0001
,  // measure 26
1000
0000
0100
0000
1000
0010
0100
0000
,  // measure 27
0010
0100
0001
0010
0001
1000
0100
1000
,  // measure 28
0100
0010
0011
1100
,  // measure 29
0001
0010
0001
1000
0100
0010
0100
1000
,  // measure 30
0010
0100
0002
2003
,  // measure 31
3100
0010
0100
0001
0100
1000
0010
0000
,  // measure 32
0101
1010
0101
1001
,  // measure 33
0100
0010
0000
0001
0100
0000
0010
0000
,  // measure 34
1000
0000
0000
0100
0000
0000
0010
0000
0001
0000
0000
0010
0000
0000
0100
0000
,  // measure 35
1000
0001
0100
0000
0010
0100
0001
0000
,  // measure 36
1000
0100
0010
0100
0001
0100
2000
0000
,  // measure 37
3010
0100
0001
1000
0100
1000
0001
0000
,  // measure 38
0101
1100
0110
0101
,  // measure 39
0100
0010
0100
1000
0001
0000
0100
0001
,  // measure 40
0000
0000
1100
0000
0000
0101
0000
0000
0100
0010
0100
0000
0001
0000
1000
0000
,  // measure 41
0010
0000
0110
0000
0110
0000
1000
0100
,  // measure 42
0010
0100
0001
0010
0100
0001
1000
0000
,  // measure 43
0010
0000
0000
0100
0001
0000
0000
0000
1000
0000
0000
0010
1000
0000
0000
0000
,  // measure 44
0001
0000
0101
0000
0101
0000
0000
0000
1001
0000
0000
0000
1000
0100
0010
0000
,  // measure 45
0100
0000
1100
0000
1100
0000
0001
0100
,  // measure 46
0010
1000
0100
0010
0010
0100
1000
0000
,  // measure 47
1000
0000
0000
0100
0010
0000
0000
0010
0001
0000
0000
0001
0100
0000
0000
0000
,  // measure 48
0010
1010
1010
0000
0100
0010
0100
0001
,  // measure 49
0010
0000
0100
0000
1000
0000
0100
0000
1000
0001
0000
0100
0000
0000
0010
0000
,  // measure 50
0100
0001
0100
0010
1000
0100
0100
0000
,  // measure 51
0010
0000
0001
0000
0010
0000
0100
0000
0010
0000
0000
0001
0000
0000
0010
0000
,  // measure 52
0001
0100
0010
1000
0200
0000
0310
0000
,  // measure 53
0100
0000
1000
0000
0100
0000
0010
0000
0100
0010
0000
1000
0000
0000
0010
0000
,  // measure 54
0001
0100
0001
0100
1000
0100
0010
0000
,  // measure 55
1000
0000
0100
0000
0010
0000
1000
0000
0010
0000
0000
0001
0000
0000
0100
0000
,  // measure 56
0000
0000
1000
0000
0000
0010
0000
0000
1000
0001
1000
0000
0010
0000
0000
0000
,  // measure 57
0202
0000
0303
0010
,  // measure 58
2200
0000
0000
0000
3300
0000
0001
1000
,  // measure 59
0022
0000
0033
0100
,  // measure 60
2020
0000
0000
0000
3030
0000
0000
0000
0001
0100
0001
0000
1000
0000
0000
0000
,  // measure 61
2002
0000
3003
0001
,  // measure 62
0202
0000
0303
1000
,  // measure 63
0220
0000
0330
1000
,  // measure 64
0001
0100
1000
0100
0001
0010
1000
0010
,  // measure 65
0001
0001
0100
0100
,  // measure 66
0010
0000
1000
0000
0100
0010
0001
0100
,  // measure 67
0010
1000
0001
0100
,  // measure 68
0010
0000
0100
0000
0000
0100
0000
0000
0010
1000
0010
0000
0100
0001
0100
0000
,  // measure 69
0001
0100
0001
0100
0010
1000
0010
1000
,  // measure 70
0100
1000
0100
1000
0001
0010
0001
0010
,  // measure 71
0100
0010
0100
0010
0001
1000
0001
1000
,  // measure 72
0000
0000
0011
0000
0000
1100
0000
0000
0001
0010
0100
0000
1000
0000
0010
0000
,  // measure 73
0100
0000
0101
0000
0101
0000
1000
0100
,  // measure 74
0010
0100
1000
0100
0001
0010
1000
0000
,  // measure 75
0100
0000
0000
0001
1000
0000
0000
0000
0100
0000
0000
1000
0001
0000
0000
0000
,  // measure 76
1000
0000
1100
0000
1100
0000
0000
0000
0101
0000
0000
0000
0001
1000
0010
0000
,  // measure 77
1000
0000
1001
0000
1001
0000
0100
0001
,  // measure 78
0010
0001
1000
0100
0010
0001
0100
0000
,  // measure 79
0010
0000
0000
1000
0100
0000
0000
0100
0010
0000
0000
0010
0001
0000
0000
0000
,  // measure 80
0001
0101
1100
0000
1000
0001
0100
0000
,  // measure 81
2002
0000
0000
0000
,  // measure 82
3003
0000
0000
0000
;
