#TITLE:Oh Oh Oh Sexy Vampire;
#SUBTITLE:(Cusimo & Co. Speedy Mix);
#ARTIST:Fright Ranger;
#TITLETRANSLIT:;
#SUBTITLETRANSLIT:;
#ARTISTTRANSLIT:;
#GENRE:;
#CREDIT:;
#MENUCOLOR:#CC6666;
#NEWMETERSYSTEM:NO;
#BANNER:Oh Oh Oh Sexy Vampire (Cusimo & Co. Speedy Remix)-bn.png;
#BACKGROUND:Oh Oh Oh Sexy Vampire (Cusimo & Co. Speedy Remix)-bg.png;
#LYRICSPATH:Oh Oh Oh Sexy Vampire (Cusimo & Co. Speedy Remix).lrc;
#CDTITLE:PROJECT VIRIDIAN-cdtitle.png;
#MUSIC:Oh Oh Oh Sexy Vampire (Cusimo & Co. Speedy Remix).mp3;
#OFFSET:-1.420;
#SAMPLESTART:45.360;
#SAMPLELENGTH:12.000;
#SELECTABLE:YES;
#LISTSORT:;
#BPMS:0.000=180.000;
#STOPS:100.000=2.680
,268.000=2.680
;
#BGCHANGES:;
#ATTACKS:;

//---------------dance-single - ----------------
#NOTES:
     dance-single:
     :
     Easy:
     3:
     0.255,0.309,0.075,0.117,0.000:
0000
0000
0000
0000
,
0000
0000
0000
0000
,
0000
0000
0000
0000
,
1010
0000
1001
0000
,
0001
0000
0100
0001
,
1000
0000
0100
1000
,
0010
0000
0010
0000
,
0110
0000
0110
0000
,
2000
0000
0000
0000
,
3001
0100
0001
0000
,
1000
0100
0010
0000
,
1000
0000
0100
0000
,
0001
0100
1000
0000
,
0010
0010
0010
0010
,
0100
0000
0001
0000
,
1000
1000
1000
1000
,
0010
0000
0100
0000
,
0002
0000
0100
0000
,
1003
1000
0010
0000
,
2000
0000
0100
0000
,
3001
0001
0010
0000
,
1000
0100
0010
0000
,
0001
0010
0100
0000
,
1000
0000
0001
0000
,
0100
0100
0100
0000
,
0110
0000
0001
0000
,
1000
0100
1000
0000
,
0010
0000
0010
0000
,
0100
0000
0100
0001
,
1000
0000
0001
0000
,
0010
0010
0100
0000
,
1000
0100
1000
0000
,
0010
0100
0001
0000
,
0010
0000
0001
0000
,
1000
0000
0010
0000
,
0100
0010
1000
0000
,
0100
1000
0001
0000
,
0010
0000
0001
0000
,
1000
1000
0100
0010
,
0002
0000
0000
0000
,
0203
0000
0000
0000
,
0320
0000
0000
0000
,
2030
0000
0000
0000
,
3100
0000
0100
0000
,
1000
0100
1000
0000
,
0010
0000
0010
0000
,
0100
0001
0100
0000
,
0001
0000
1000
0000
,
0001
0010
0001
0000
,
1000
0000
0010
0000
,
1000
0100
1000
0000
,
0010
0000
0010
0000
,
0100
0001
1000
0000
,
0100
1000
0010
0000
,
2000
0000
0000
3000
,
0001
0000
0001
0000
,
1000
0010
0001
0000
,
0010
1000
0001
0000
,
0200
0000
0000
0300
,
0000
0010
0000
0010
,
0000
1000
0000
1000
,
0000
0001
0000
0001
,
0000
0100
0000
0100
,
0220
0000
0000
0330
,
2002
0000
0000
3003
,
0001
0000
1000
0000
,
0100
0100
0100
0000
,
1001
0000
1000
0000
,
0010
0100
0001
0000
,
1000
0000
0001
0000
,
0100
0010
0100
0000
,
0001
0000
0010
0000
,
0001
0000
0001
0001
,
0100
0000
0010
0000
,
1000
1000
0100
0000
,
0001
0000
0100
0000
,
0001
1000
0001
0000
,
0010
0000
0010
0000
,
0100
1000
0001
0000
,
0100
0000
0001
0000
,
1000
0010
1000
0001
,
0200
0000
0000
0310
,
1001
0000
0000
0000
;

//---------------dance-single - Copied from----------------
#NOTES:
     dance-single:
     Copied from:
     Beginner:
     1:
     0.114,0.172,0.008,0.109,0.000:
0000
0000
0000
0000
,
0000
0000
0000
0000
,
0000
0000
0000
0000
,
0000
0000
0000
0000
,
0001
0000
0000
0000
,
1000
0000
0000
0000
,
0010
0000
0000
0000
,
0200
0000
0000
0000
,
0300
0000
0000
0000
,
0110
0000
0000
0000
,
0010
0000
0000
0000
,
1000
0000
0000
0000
,
0001
0000
0000
0000
,
2000
0000
3000
0000
,
0002
0000
0003
0000
,
0020
0000
0030
0000
,
0001
0000
0000
0000
,
0100
0000
0100
0000
,
0100
0000
0000
0000
,
0001
0000
0001
0000
,
0001
0000
0000
0000
,
1000
0000
0000
0000
,
0010
0000
0000
0000
,
0100
0000
0000
0000
,
0010
0010
0020
0000
,
0030
0000
0000
0000
,
1000
0000
0000
0000
,
0100
0000
0000
0000
,
0001
0000
0000
0000
,
0100
0000
0000
0000
,
0010
0000
0010
0000
,
0001
0000
0000
0000
,
1000
0000
0000
0000
,
0010
0000
0000
0000
,
0100
0000
0000
0000
,
1000
0000
0000
0000
,
0001
0000
0000
0000
,
0010
0000
0000
0000
,
0100
0000
0100
0000
,
2000
0000
0000
0000
,
0000
0000
0000
0000
,
0000
0000
0000
0000
,
3000
0000
0000
0000
,
0010
0000
0000
0000
,
0100
0000
0000
0000
,
0010
0000
0000
0000
,
0010
0000
0000
0000
,
0100
0000
0000
0000
,
0001
0000
0000
0000
,
1000
0000
0000
0000
,
1000
0000
0000
0000
,
0010
0000
0000
0000
,
0010
0000
0000
0000
,
1000
0000
0000
0000
,
0002
0000
0003
0000
,
0010
0000
0000
0000
,
0010
0000
0000
0000
,
0001
0000
0000
0000
,
2000
0000
3000
0000
,
0000
0100
0000
0000
,
0000
0100
0000
0000
,
0000
0100
0000
0000
,
0000
0100
0000
0000
,
0020
0000
0030
0000
,
2000
0000
3000
0000
,
0002
0000
0003
0000
,
0100
0100
0200
0000
,
0300
0000
0000
0000
,
0010
0000
0000
0000
,
1000
0000
0000
0000
,
1000
0000
0000
0000
,
0100
0000
0000
0000
,
0001
0000
0000
0000
,
0010
0000
0000
0000
,
0001
0000
0000
0000
,
1000
0000
0000
0000
,
0100
0000
0000
0000
,
1000
0000
0000
0000
,
0001
0000
0000
0000
,
0100
0000
0000
0000
,
0010
0000
0000
0000
,
0020
0000
0030
0000
,
1000
0000
0000
0000
;

//---------------dance-single - Copied from----------------
#NOTES:
     dance-single:
     Copied from:
     Medium:
     6:
     0.449,0.481,0.235,0.143,0.000:
0000
0000
0000
0000
,
0000
0000
0000
0000
,
0000
0000
0000
0000
,
0100
0000
0100
0000
,
0001
0000
0100
0000
0010
1000
0000
0000
,
0100
0000
0100
1000
0000
1000
0000
0001
,
0000
0010
0010
0010
,
0100
0010
0100
0010
0100
0000
0100
0000
,
0220
0000
0000
0330
,
1001
0001
1000
0100
,
1000
0010
0100
0002
,
0013
0100
1000
0010
,
1000
1000
0001
0100
,
0001
0010
0100
1000
,
0001
0010
0100
1000
,
0001
0100
0001
0000
1000
0100
1000
0000
,
0010
0010
0010
0010
,
1000
0100
1000
0001
,
0100
0010
0100
0000
0010
1000
0010
0000
,
0100
0001
1000
0100
,
0010
0001
0010
0000
0100
0001
0100
0000
,
0010
1010
0001
0101
,
1000
1100
0001
0011
,
0100
0100
0100
0100
,
1001
1001
1001
0000
,
0210
0000
0001
0000
0301
0100
0010
0000
,
1000
0000
1000
0001
0000
0001
0100
0000
,
0001
0000
0100
0000
1000
0010
0100
0000
,
0001
0000
1000
0100
0000
0010
0000
0100
,
0001
0100
1000
0010
,
0100
0000
0001
0000
0100
0010
1000
0000
,
0001
0010
0011
1000
,
0100
0000
0100
0000
0010
0100
1000
0000
,
1020
0000
1000
0000
0130
0010
0100
0000
,
0001
0000
0100
0001
0000
0010
0001
0000
,
0100
0010
1000
0100
,
1000
0000
0010
0100
0000
0001
0000
0010
,
0001
0001
0100
0010
,
1000
0000
1000
0000
0100
0000
0010
0010
,
0002
0000
0000
0000
,
2003
0000
0000
0000
,
3020
0000
0000
0000
,
0130
0000
0000
0000
,
1001
0001
0001
0100
,
0010
1000
0000
1000
0000
0100
0010
0000
,
0100
1000
0010
0100
,
0010
0100
0000
0001
0000
1000
1001
0000
,
0010
0100
0001
0010
,
0100
0010
0000
0010
0000
0001
1000
0000
,
0100
1000
0010
0100
,
0001
1000
0000
0100
0000
1000
0010
0100
,
0010
0010
1000
0100
,
1000
0001
0010
0100
,
0001
0100
0010
0100
,
1000
0020
0100
0130
,
1000
0100
0001
0000
1000
0100
0001
0000
,
0100
1000
0010
0200
,
0310
1000
0100
1000
,
0002
0100
0100
0013
,
0000
1100
0000
0101
,
0000
0011
0000
1001
,
0000
0110
0000
1010
,
0000
1001
0000
0110
,
0002
0100
0100
0103
,
2000
0100
0100
3100
,
0001
0100
0001
0100
0010
1000
0010
1000
,
0100
0110
0110
0000
,
0012
0000
0010
0000
1003
0001
0100
0000
,
0010
0000
0100
0010
0000
1000
0010
0000
,
0100
0000
0001
0000
1000
0100
1000
0000
,
0010
0000
0100
0001
0000
0010
0000
0010
,
0100
1000
0010
0100
,
0001
0000
0100
0000
0010
0100
1000
0000
,
0100
0010
0110
1000
,
0001
0000
0100
0001
0000
0010
0001
0000
,
2001
0000
0100
0000
3001
0100
0001
0000
,
0100
0000
0001
1000
0000
1000
0001
0000
,
0100
0000
0001
0000
1000
0100
0001
0000
,
0100
0000
1000
0010
0000
0100
0000
0001
,
1000
0000
1000
0000
0001
0000
0100
0010
,
0100
0001
0100
1000
,
0100
0000
0001
1000
0001
0000
2002
0000
,
3003
0000
0000
0000
;

//---------------dance-single - Copied from----------------
#NOTES:
     dance-single:
     Copied from:
     Hard:
     8:
     0.553,0.619,0.168,0.193,0.004: // measure 1
0000
0000
0000
0000
,  // measure 2
0000
0000
0000
0000
,  // measure 3
0000
0000
0000
0000
,  // measure 4
2020
3030
0202
0303
,  // measure 5
0010
0100
0001
0000
1000
0000
0100
1000
,  // measure 6
0010
0000
0100
0001
0000
1000
0000
0100
,  // measure 7
1000
1000
0010
0100
,  // measure 8
0001
0100
0001
0100
0010
1000
0100
0020
,  // measure 9
0000
0000
0000
0030
,  // measure 10
1001
0000
0100
0000
0010
0000
0100
0010
,  // measure 11
0000
1000
0000
0100
0000
2000
0000
0100
,  // measure 12
0000
3010
0100
0000
0001
0000
0100
0010
,  // measure 13
1000
0001
0001
0100
,  // measure 14
0001
0100
0010
1000
,  // measure 15
0010
0100
0001
1000
0100
0010
0001
0000
,  // measure 16
0100
0010
0100
0000
1000
0100
1000
0000
,  // measure 17
0001
0100
0001
0100
0001
0100
0001
1000
,  // measure 18
0100
0000
1000
0000
0010
0100
0000
0001
,  // measure 19
0000
1000
0000
0100
0000
0010
0002
0000
,  // measure 20
1003
0000
0100
1000
0000
0010
0000
0100
,  // measure 21
0000
0101
0000
1010
0000
0001
0100
0010
,  // measure 22
0000
1000
0100
0010
0000
0100
0010
0100
,  // measure 23
1000
0100
0000
0000
0001
0100
0000
0101
,  // measure 24
0000
1000
0100
0000
0100
0000
0100
0000
,  // measure 25
0110
1001
0110
0002
,  // measure 26
1003
0000
1100
0000
0010
0001
0100
0000
,  // measure 27
0010
1000
0010
0100
0000
0100
0010
0000
,  // measure 28
0100
0001
1000
0000
0100
1000
0010
0000
,  // measure 29
0001
0100
0010
1000
0000
0002
0000
0103
,  // measure 30
0010
0000
1000
0000
0100
1000
0000
0100
,  // measure 31
0000
0100
0000
1000
0100
0010
0001
0000
,  // measure 32
0100
0010
0100
0000
0001
0100
0000
0010
,  // measure 33
1000
0000
1000
0100
0000
0010
0100
0000
,  // measure 34
0010
0001
0100
0000
0010
0100
0001
0000
,  // measure 35
1000
0001
0100
0010
0000
0010
1000
0000
,  // measure 36
0001
0100
0010
0000
1000
0001
0100
0000
,  // measure 37
0010
1000
0001
0100
0000
0001
0000
1000
,  // measure 38
0100
0000
0100
0000
1000
0000
0010
1000
,  // measure 39
0010
0100
0001
0100
0010
0100
1000
0100
,  // measure 40
0020
0000
0000
0000
,  // measure 41
2030
0000
0000
0000
,  // measure 42
3200
0000
0000
0000
,  // measure 43
0320
0000
0000
0000
,  // measure 44
0031
0000
0100
0001
0100
0000
0010
0000
,  // measure 45
1000
0100
0000
0110
0000
0010
0001
0000
,  // measure 46
1000
0000
0001
0100
0001
0000
1000
0000
,  // measure 47
0010
0000
0100
0000
0000
0000
0011
0000
0000
0000
0100
0000
1000
0100
0010
0000
,  // measure 48
0001
0000
0010
0100
1000
0000
0010
0000
,  // measure 49
0100
0001
0000
1100
0000
1000
0010
0000
,  // measure 50
0100
0000
0001
0010
0100
0000
0100
0000
,  // measure 51
1000
0010
0000
0100
0000
0001
1000
1000
,  // measure 52
0100
1000
0010
0100
0001
0000
1000
0001
,  // measure 53
0100
0000
0101
0000
1100
0000
0010
0100
,  // measure 54
0001
0100
0010
1000
0001
0000
0200
0000
,  // measure 55
0020
0000
0300
0000
1000
0000
1030
0010
,  // measure 56
0100
0001
1000
0000
0100
0010
1000
0001
,  // measure 57
0001
0010
0000
2001
0000
0001
3002
0100
,  // measure 58
0103
0001
1000
0100
0010
0100
1000
0001
,  // measure 59
0200
0020
0000
0330
,  // measure 60
0001
0010
0100
1000
,  // measure 61
0001
0010
0100
1000
,  // measure 62
0001
0100
0010
1000
,  // measure 63
0001
0100
0010
1000
,  // measure 64
0001
0010
0100
1000
0001
0010
0100
1000
,  // measure 65
0001
0100
0010
1000
0001
0100
0010
1000
,  // measure 66
0001
0100
0001
0100
0010
1000
0010
1000
,  // measure 67
1100
1010
1001
0200
,  // measure 68
0310
0010
1000
0000
0001
0100
0001
0000
,  // measure 69
1000
0100
0010
0001
0000
0100
0010
0000
,  // measure 70
0100
1000
0010
0000
0100
0001
0010
0001
,  // measure 71
0100
0000
0100
0010
0000
1000
0001
0100
,  // measure 72
0010
0100
0001
1000
0100
1000
0001
0010
,  // measure 73
0100
0000
0100
0000
0100
1000
0001
0000
,  // measure 74
0100
0010
0100
0001
1000
0100
1000
0000
,  // measure 75
0010
0000
0100
0010
0000
0010
0100
0000
,  // measure 76
0001
1000
0100
0000
1000
0001
0100
0000
,  // measure 77
0010
0100
0001
0010
0000
1000
0100
0000
,  // measure 78
1000
0001
0100
0001
1000
0100
1000
0010
,  // measure 79
0100
0000
0100
0002
0000
2003
0000
3020
,  // measure 80
0100
0130
0001
1000
0100
0001
0100
1000
,  // measure 81
0010
0100
0001
0100
0010
0100
0000
0010
,  // measure 82
1000
0000
0001
0001
0100
0000
1001
0000
,  // measure 83
0001
0000
0000
0000
;
