#TITLE:NITRO;
#SUBTITLE:;
#ARTIST:MAGIC HAMMER;
#TITLETRANSLIT:;
#SUBTITLETRANSLIT:;
#ARTISTTRANSLIT:;
#GENRE:;
#CREDIT:;
#MENUCOLOR:#CC6666;
#NEWMETERSYSTEM:NO;
#BANNER:NITRO-bn.png;
#BACKGROUND:NITRO-bg.png;
#LYRICSPATH:;
#CDTITLE:PROJECT VIRIDIAN-cdtitle.png;
#MUSIC:Nitro.mp3;
#OFFSET:-0.900;
#SAMPLESTART:49.700;
#SAMPLELENGTH:10.700;
#SELECTABLE:YES;
#LISTSORT:;
#BPMS:0.000=180.000;
#STOPS:;
#BGCHANGES:;
#ATTACKS:;

//---------------dance-single - ----------------
#NOTES:
     dance-single:
     :
     Easy:
     5:
     0.372,0.473,0.205,0.154,0.000:
0000
0000
0000
0000
,
0000
0000
0000
0000
,
0000
0000
0000
0000
,
0000
0000
0000
0000
,
2000
0000
3200
0000
,
0320
0000
0032
0000
,
0203
0000
0320
0000
,
1000
1000
1030
0000
,
2002
0000
0000
0000
,
0000
0000
0000
0000
,
0000
0000
0000
0000
,
3003
0000
0000
0000
,
0010
0100
0010
1000
,
0010
0100
0001
0000
,
1000
0100
0010
0001
,
1010
1010
0101
0101
,
0001
0100
0010
1000
,
0001
0100
0001
0000
,
1000
0100
0001
0100
,
1000
0010
0100
0001
,
2000
0000
0000
3000
,
1000
0010
0100
0001
,
1000
0100
1000
0001
,
0100
0001
0010
0100
,
1000
0001
1000
0100
,
1001
0100
0001
1000
,
0100
0001
0100
1000
,
0010
0100
0001
1000
,
0002
0000
0000
0003
,
0100
1000
0010
0100
,
0001
1000
0001
0000
,
0010
0100
1000
0001
,
0010
0100
1000
0000
,
0010
0100
0001
0100
,
0010
1000
0100
0001
,
0100
0000
0100
0000
,
0200
0000
0300
0101
,
1010
0001
0000
1000
,
0100
0001
0100
1000
,
0010
0100
0010
0100
,
0001
0100
0001
1010
,
0101
1000
0000
1000
,
0100
0010
0001
0000
,
0100
0001
1000
0100
,
0020
0100
0130
0011
,
1100
0100
0000
0001
,
1000
0001
0100
0000
,
0010
0100
0010
1000
,
0100
0001
0100
0011
,
1100
0001
0100
0001
,
1000
0100
1000
0000
,
0010
0100
0001
1000
,
0002
0000
0000
0003
,
1000
0001
0100
0001
,
1000
0100
1000
0010
,
0100
0001
1000
0010
,
0100
0001
1000
0001
,
0110
0100
0001
0010
,
0100
1000
0001
0100
,
0001
1000
0100
1000
,
0020
0000
0000
0030
,
0100
0010
0100
0010
,
1000
0100
0010
0000
,
0001
0100
0001
1000
,
0100
0010
0100
0000
,
1000
0100
0010
0001
,
0010
0100
1000
0001
,
0010
0000
0010
0000
,
0020
0000
0030
0011
,
1100
0001
0000
1000
,
0001
0100
0010
0000
,
0010
0100
0001
0100
,
0010
1000
0100
1001
,
0110
0100
0000
0010
,
0100
0001
0100
0000
,
0010
0100
1000
0100
,
0020
0001
0031
0110
,
0011
0001
0000
0100
,
0001
0100
0010
0000
,
1000
0100
1000
0010
,
0100
0001
0100
1010
,
1001
0001
0000
0100
,
0001
0100
0010
0000
,
1000
0100
0001
0100
,
1000
0001
0100
0010
,
2002
3003
0000
0000
;

//---------------dance-single - Copied from----------------
#NOTES:
     dance-single:
     Copied from:
     Beginner:
     2:
     0.141,0.254,0.043,0.026,0.000:
0000
0000
0000
0000
,
0000
0000
0000
0000
,
0000
0000
0000
0000
,
0000
0000
0000
0000
,
0000
0000
0000
0000
,
0000
0000
0000
0000
,
0000
0000
0000
0000
,
0000
0000
0000
0000
,
0020
0000
0000
0000
,
0000
0000
0000
0000
,
0000
0000
0000
0000
,
0030
0000
0000
0000
,
0001
0000
0000
0000
,
1000
0000
0100
0000
,
1000
0000
0000
0000
,
0010
0010
0010
0010
,
0010
0000
0000
0000
,
0100
0000
0001
0000
,
0100
0000
0000
0000
,
2000
0000
0000
0000
,
3000
0000
0000
0000
,
1001
0000
0000
0000
,
0100
0000
0000
0000
,
0001
0000
0000
0000
,
1000
0000
0000
0100
,
0100
0000
0000
0000
,
0010
0000
0000
0000
,
0001
0000
0000
0100
,
0100
0000
0000
0010
,
0010
0000
0000
0000
,
1000
0000
0001
0000
,
0100
0000
0000
0000
,
0010
0000
0010
0000
,
0001
0000
0000
0000
,
0100
0000
0000
0000
,
1001
0000
1001
0000
,
1001
0000
0000
0000
,
0100
0100
0000
0000
,
0010
0000
1000
0000
,
0001
0000
0000
0000
,
0100
0000
0000
0000
,
0001
0001
0000
0000
,
1000
0000
0000
0000
,
0100
0000
0000
0000
,
0010
0010
0010
0010
,
0010
0010
0000
0000
,
0001
0000
0000
0000
,
1000
0000
0000
0000
,
0100
0000
0000
0000
,
1000
1000
0000
0000
,
0100
0000
0000
0000
,
0010
0000
0000
0000
,
0002
0000
0000
0000
,
0003
0000
0000
0000
,
0100
0000
0000
0000
,
1000
0000
0000
0000
,
0010
0000
0000
0100
,
0100
0000
0000
0000
,
0001
0000
0000
0000
,
0010
0000
0000
0100
,
0100
0000
0000
1000
,
1000
0000
0000
0000
,
0001
0000
0000
0000
,
0010
0000
0001
0000
,
0100
0000
0000
0000
,
0010
0000
1000
0000
,
0001
0000
0000
0000
,
0100
0000
0100
0000
,
0100
0000
0000
0000
,
0001
0001
0000
0000
,
1000
0000
0000
0000
,
1000
0000
0010
0000
,
1000
0000
0000
0000
,
0100
0100
0000
0000
,
1000
0000
0000
0000
,
0001
0000
0010
0000
,
0100
0100
0100
0100
,
0100
0100
0000
0000
,
1000
0000
0000
0000
,
0100
0000
0000
0000
,
1000
0000
0000
0001
,
0001
0000
0000
0000
,
0010
0000
0000
0000
,
0100
0000
0000
0000
,
1000
0000
0001
0000
,
1001
0000
0000
0000
;

//---------------dance-single - Copied from----------------
#NOTES:
     dance-single:
     Copied from:
     Medium:
     6:
     0.506,0.473,0.188,0.273,0.000:
0000
0000
0000
0000
,
0000
0000
0000
0000
,
0000
0000
0000
0000
,
0000
0000
0000
0000
,
0001
0000
0000
0100
0001
0000
0000
0000
,
0000
1000
1000
0100
,
1000
0000
0000
0010
1000
0000
0100
0000
,
1000
1000
2000
0000
,
3001
1000
0001
1000
,
0010
0100
0010
0100
,
0001
0000
0010
0000
0100
0000
1000
0100
,
0000
2002
0000
0000
0000
0000
3003
0000
,
0010
0000
0100
0010
0000
0100
0001
0000
,
1000
0100
0010
0001
0000
0000
1000
0000
,
0001
0000
0100
0010
0000
1000
0100
0000
,
1000
1100
0001
0101
,
0010
0000
0100
0001
0000
0001
0100
0000
,
0010
1000
0010
0100
0000
0000
0010
0000
,
0100
0001
0100
0000
1000
0100
1000
0000
,
0010
1000
0000
0001
0000
0100
0001
0000
,
0020
0000
0000
0000
0030
0100
0010
0000
,
1001
0010
0100
0001
,
1000
0100
0001
0000
1000
0100
0001
0000
,
1000
0010
0100
0001
,
0010
0000
0010
0000
0010
0100
0010
0000
,
1100
1000
0100
0010
,
0001
0100
1000
0000
0001
0100
1000
0000
,
0001
0000
0100
0000
0001
1000
0010
0100
,
0010
0000
0010
0000
0010
0100
0010
1000
,
0001
0100
1000
0100
,
0001
1100
0001
1100
,
0010
0100
0001
0000
1000
0000
0100
0000
,
0010
1100
0010
1100
,
0010
0100
0001
1000
,
0100
1000
0100
1000
0100
0000
0010
0000
,
0101
0000
0000
1000
0100
0000
0000
0100
,
0020
0000
0000
0000
0030
0000
0001
1000
,
0002
0203
0010
0310
,
1000
0100
0001
0000
0100
0000
0100
0000
,
1000
0010
1000
0000
0001
0100
0001
0000
,
0010
0000
0100
0000
0010
0000
0001
0010
,
0002
2003
0100
3100
,
0010
0100
0000
2002
0000
3003
0000
0000
,
0010
0100
1000
0100
,
0010
0001
0010
0001
0100
0000
0010
0000
,
2000
3002
0100
0103
,
0010
0100
0001
0000
0010
0000
0010
0000
,
0100
1000
0100
0000
0010
0001
0010
0000
,
0100
0000
0001
0000
0100
0000
0010
1000
,
0200
2300
0001
3001
,
0010
0100
0000
2002
0000
3003
0000
0000
,
1000
0100
0001
0100
,
2000
0000
0000
3000
,
0010
0100
0001
0100
,
0010
1000
0001
0000
0010
1000
0001
0000
,
0100
0001
0010
0100
,
1000
0000
0100
0000
1000
0001
1000
0000
,
0110
1000
0001
0100
,
1000
0100
0010
0000
1000
0100
0010
0000
,
0100
0000
0001
0000
0010
0001
1000
0001
,
0100
0000
0100
0000
0100
0001
1000
0001
,
0010
0100
0100
0001
,
1000
0101
1000
0101
,
0010
0100
1000
0010
,
0100
0101
0100
0101
,
0010
0100
1000
0000
1000
0100
0010
0000
,
0100
0001
1000
0001
,
0110
0000
0000
1000
0100
0000
0000
0001
,
0200
0000
0000
0000
0300
0000
0010
0100
,
0020
0230
0001
0301
,
0010
0100
1000
0000
0100
0000
0100
0000
,
0001
0100
0001
0000
1000
0010
1000
0000
,
0100
0000
0010
0000
0100
0000
1000
0010
,
2000
3200
0010
0310
,
0001
0100
0000
2002
0000
3003
0000
0000
,
1000
0001
0100
0010
,
0100
0001
0100
0001
0010
0000
0100
0000
,
0200
2300
0100
3100
,
1000
0010
0100
0000
0001
0000
0001
0000
,
1000
0110
0010
0110
,
0100
0000
0010
0000
0001
0000
0001
0100
,
0002
2003
0010
3010
,
1000
0100
0000
2002
0000
3003
0000
0000
,
0001
0100
0100
0010
,
1000
0100
0000
0010
0000
0100
1000
0100
,
2000
3000
0000
0000
;

//---------------dance-single - Copied from Copied from----------------
#NOTES:
     dance-single:
     Copied from Copied from:
     Hard:
     9:
     0.727,0.691,0.247,0.111,0.051: // measure 1
0000
0000
0000
0000
,  // measure 2
0000
0000
0000
0000
,  // measure 3
0000
0000
0000
0000
,  // measure 4
0000
0000
0000
0000
,  // measure 5
0001
0000
0000
0100
0000
0000
0001
0000
0010
0000
0000
0100
0000
0000
1000
0000
,  // measure 6
0010
0000
0000
0100
0000
0000
0001
0000
1000
0000
0000
0010
0000
0000
0100
0000
,  // measure 7
0010
0000
0000
1000
0000
0000
0010
0000
0000
0100
0000
0000
0010
0000
1000
0000
0001
0000
1000
0000
0001
0000
1000
0000
,  // measure 8
0001
1001
1100
0010
,  // measure 9
0100
0010
0100
0001
1000
0100
0010
0100
,  // measure 10
1000
0001
0100
0001
0010
0001
1000
0010
,  // measure 11
0100
0001
0010
0100
1000
0010
0100
0001
,  // measure 12
0000
2002
0000
0000
0000
0000
3003
0000
,  // measure 13
0100
0010
0100
0002
0000
0013
0100
1000
,  // measure 14
0010
0100
0001
1000
0100
0000
0100
0000
,  // measure 15
0010
0001
0100
0001
0000
1000
0100
0020
,  // measure 16
0100
0230
1000
2300
0010
3100
0001
1000
,  // measure 17
0010
0100
0001
0200
0000
0310
1000
0001
,  // measure 18
0100
0010
1000
0100
0000
0010
0100
1000
,  // measure 19
0001
0100
0001
1000
0100
0001
0100
1000
,  // measure 20
0010
0100
0000
1001
0000
0100
0010
0001
,  // measure 21
2000
0000
0000
0000
3000
0001
0010
0100
,  // measure 22
1000
0100
0001
0100
1000
0010
0100
0001
,  // measure 23
1000
0100
1000
0010
0100
0001
1000
0000
,  // measure 24
0010
0000
0010
0000
0100
0010
0100
0000
,  // measure 25
0001
0100
0001
1000
0100
0010
0001
0100
,  // measure 26
0010
1000
0001
0010
0001
0100
0010
1000
,  // measure 27
0001
0010
0100
0010
0001
1000
0010
0000
,  // measure 28
1000
0000
1000
0000
0001
0100
0001
1000
,  // measure 29
0010
0000
0010
0000
0010
1000
0001
0100
,  // measure 30
0001
0010
0100
1000
0100
0010
0001
0100
,  // measure 31
0010
0100
0001
0100
0010
0100
0001
1000
,  // measure 32
0100
0010
0100
1000
0001
0100
0001
0010
,  // measure 33
0001
0010
0100
0010
1000
0010
0001
1000
,  // measure 34
0100
0010
0001
0100
1000
0100
0010
0100
,  // measure 35
0001
0100
0010
0100
1000
0100
0010
1000
,  // measure 36
0001
0000
0000
1000
1100
0000
0000
0001
,  // measure 37
0201
0000
0000
0000
0300
0001
0100
0000
,  // measure 38
1100
0000
0101
0000
0010
0100
0001
1000
,  // measure 39
0100
0001
0100
0010
0000
0001
0010
0100
,  // measure 40
1000
0010
0100
0010
1000
0001
0100
0001
,  // measure 41
1000
0100
0010
0100
1000
0001
0100
0000
,  // measure 42
0011
0000
1100
0000
0001
0100
0001
1000
,  // measure 43
0100
0010
0001
1001
0000
0010
0100
0010
,  // measure 44
1000
0100
1000
0001
0100
0001
0010
0100
,  // measure 45
1000
0001
1000
0000
0001
1000
0001
0000
1000
0000
0100
0000
0010
0000
0000
0000
,  // measure 46
0110
0000
0101
0000
0010
0100
0010
1000
,  // measure 47
0001
0010
0001
0100
0000
0001
0010
0100
,  // measure 48
1000
0100
1000
0010
0100
0001
0010
0100
,  // measure 49
1000
0010
0100
0010
1000
0001
0100
0000
,  // measure 50
1001
0000
1100
0000
0001
0100
0001
0010
,  // measure 51
0100
1000
0001
0101
0000
1000
0100
0010
,  // measure 52
0001
0100
0010
0100
0001
1000
0100
0020
,  // measure 53
0002
0000
0000
0000
0033
0001
0010
0100
,  // measure 54
1000
0010
0100
0001
0100
0010
0100
0001
,  // measure 55
1000
0100
0010
0100
1000
0001
0100
0010
,  // measure 56
0100
0000
0001
0000
0001
0000
0010
0100
,  // measure 57
0010
0000
0100
0000
0100
0010
0100
0001
,  // measure 58
1000
0100
0010
0100
1000
0001
0100
0010
,  // measure 59
0100
0010
1000
0100
0010
0001
0100
0010
,  // measure 60
0100
0000
0100
0000
0010
1000
0010
0100
,  // measure 61
0001
0000
0001
0000
0001
0100
0010
1000
,  // measure 62
0010
0100
0001
0100
1000
0100
0010
0001
,  // measure 63
0100
0001
0010
0001
1000
0001
0100
0010
,  // measure 64
1000
0100
0001
0100
1000
0001
1000
0100
,  // measure 65
1000
0100
0010
0100
0001
0100
1000
0010
,  // measure 66
0100
0010
0100
0001
0010
0001
1000
0001
,  // measure 67
0100
0001
0010
0001
1000
0010
1000
0001
,  // measure 68
0100
0000
0000
0001
0011
0000
0000
1000
,  // measure 69
1020
0000
0000
0000
0030
1000
0100
0000
,  // measure 70
1001
0000
0110
0000
0010
0100
0001
0010
,  // measure 71
0100
0010
0001
0100
0000
0010
0100
1000
,  // measure 72
0010
0100
0001
1000
0100
0010
0100
1000
,  // measure 73
0001
0100
0001
0010
0100
1000
0100
0000
,  // measure 74
0101
0000
1010
0000
0001
0100
0001
0010
,  // measure 75
0100
1000
0001
0110
0000
0010
0100
0001
,  // measure 76
0100
0010
0100
0001
1000
0100
0010
0100
,  // measure 77
1000
0100
1000
0000
0001
0100
0001
0000
0100
0000
0010
0000
0100
0000
0000
0000
,  // measure 78
1100
0000
0110
0000
0010
0001
0100
0001
,  // measure 79
1000
0100
0010
0100
0000
1000
0100
0010
,  // measure 80
0001
0100
0001
1000
0100
0010
0100
1000
,  // measure 81
0010
0100
0001
0010
0001
1000
0010
0000
,  // measure 82
0101
0000
0110
0000
0001
0100
0010
0100
,  // measure 83
0010
1000
0000
1001
0000
0001
0100
0001
,  // measure 84
1000
0100
0001
0100
1000
0010
0100
0001
,  // measure 85
1000
0100
0000
1001
0000
0100
0001
0010
,  // measure 86
0200
0300
0000
0000
;
