#TITLE:Loveholic;
#SUBTITLE:-Love Syndrome MIX-;
#ARTIST:SANA;
#TITLETRANSLIT:;
#SUBTITLETRANSLIT:;
#ARTISTTRANSLIT:;
#GENRE:;
#CREDIT:;
#MENUCOLOR:#00FF00;
#NEWMETERSYSTEM:NO;
#BANNER:Loveholic -Love Syndrome MIX-bn.png;
#BACKGROUND:Loveholic -Love Syndrome MIX-bg.png;
#LYRICSPATH:Loveholic -Love Syndrome MIX-.lrc;
#CDTITLE:PROJECT VIRIDIAN-cdtitle.png;
#MUSIC:Loveholic -Love Syndrome MIX-.mp3;
#OFFSET:-0.020;
#SAMPLESTART:45.820;
#SAMPLELENGTH:12.800;
#SELECTABLE:YES;
#LISTSORT:;
#BPMS:0.000=150.000;
#STOPS:;
#BGCHANGES:;
#ATTACKS:;

//---------------dance-single - ----------------
#NOTES:
     dance-single:
     :
     Easy:
     3:
     0.256,0.302,0.049,0.066,0.000:
0000
0000
0000
0000
,
0000
0000
0000
0000
,
0000
0000
0000
0000
,
0000
0000
0000
0000
,
0001
1000
0100
0000
,
1000
0001
0100
0000
,
0010
0000
1000
0000
,
0010
0100
0010
1000
,
0001
0000
0010
0000
,
0001
0100
0001
0000
,
1000
0010
0100
0001
,
1001
0000
1001
0000
,
0100
0010
1000
0000
,
0010
0100
0001
0000
,
1000
0001
1000
0100
,
0010
0000
0100
0000
,
1000
0001
1000
0000
,
0001
0010
0001
0000
,
0100
0010
1000
0010
,
0100
0000
0100
0001
,
0020
0000
0100
0000
,
0032
0000
1000
0000
,
2003
0000
0001
0000
,
3200
0000
0010
0000
,
1300
0100
1000
0000
,
0001
0100
0001
0000
,
0010
0010
0100
1000
,
0001
0000
1000
0000
,
0220
0000
0330
0001
,
0100
1000
0100
0001
,
0010
1000
0010
0001
,
1000
0000
0001
1000
,
0001
0000
0100
0010
,
1000
0001
0010
0000
,
0100
1000
0001
0000
,
1000
0010
0100
0001
,
2000
0000
3000
0001
,
1000
0100
0001
0100
,
1000
0010
0001
0010
,
1000
0000
1000
0001
,
1000
0000
0010
0100
,
0001
0100
0010
0000
,
1000
0100
0010
0001
,
1000
0000
0100
0000
,
0010
0000
0001
0001
,
0100
0000
0010
0000
,
1000
0000
0100
0100
,
0010
0000
0100
0000
,
0001
0000
0100
1000
,
0010
0000
1000
0000
,
0001
0000
0010
0000
,
0011
0000
0001
0000
,
1000
0000
1000
0000
,
0001
0000
0100
0001
,
1000
0000
0010
0000
,
1000
0100
0000
0100
,
0010
0001
0000
0001
,
1000
0010
1000
0001
,
0011
0000
1100
0010
,
0100
0001
0100
1000
,
0100
0001
0000
0010
,
1000
0010
0001
1000
,
0001
0000
0100
0010
,
1000
0001
0010
0000
,
0100
0100
1000
0001
,
1000
0010
0100
0000
,
0010
0100
0001
0000
,
1000
0001
1000
0000
,
0010
0100
0001
0000
,
1000
0100
0001
0000
,
0001
0100
1000
0000
,
0010
1000
0010
0100
,
0001
0000
0001
0100
,
0020
0000
0000
0030
;

//---------------dance-single - Copied from----------------
#NOTES:
     dance-single:
     Copied from:
     Beginner:
     1:
     0.103,0.179,0.025,0.041,0.000:
0000
0000
0000
0000
,
0000
0000
0000
0000
,
0000
0000
0000
0000
,
0000
0000
0000
0000
,
1000
0000
0000
0000
,
0100
0000
0000
0000
,
1000
0000
0000
0000
,
0001
0000
0000
0000
,
0010
0000
0000
0000
,
0001
0000
0000
0000
,
0100
0000
0000
0000
,
0220
0000
0330
0000
,
0010
0000
0000
0000
,
1000
0000
0000
0000
,
0100
0000
0000
0000
,
0010
0000
0000
0000
,
0001
0000
0000
0000
,
0010
0000
0000
0000
,
1000
0000
0000
0000
,
0000
0000
0000
0100
,
0100
0000
0000
0000
,
0010
0000
0000
0000
,
1000
0000
0000
0000
,
0001
0000
0000
1000
,
1000
0000
0000
0000
,
0010
0000
0000
0000
,
0001
0000
0100
0000
,
2000
0000
0000
0000
,
3000
0000
0000
0100
,
0100
0000
0010
0000
,
0010
0000
0000
0000
,
0001
0000
0001
0000
,
0001
0000
0000
0000
,
1000
0000
0000
0000
,
0100
0000
0000
0000
,
0010
0000
0000
0000
,
1001
0000
0000
0010
,
0010
0000
0001
0000
,
0001
0000
0000
0000
,
1000
0000
1000
0000
,
1000
0000
0000
0000
,
0100
0000
0000
0000
,
0001
0000
0000
0000
,
1000
0000
0000
0000
,
0010
0000
0000
0000
,
0001
0000
0000
0000
,
0100
0000
0000
0000
,
1000
0000
0000
0000
,
0010
0000
0000
0000
,
0001
0000
0000
0000
,
0100
0000
0000
0001
,
0001
0000
0000
0000
,
1000
0000
0000
0000
,
0010
0000
0000
0000
,
0100
0000
0000
0000
,
0110
0000
0000
0000
,
0001
0000
0000
0000
,
2000
0000
3000
0000
,
0002
0000
0003
0000
,
0100
0000
0010
0000
,
0010
0000
0000
0000
,
0001
0000
1000
0000
,
1000
0000
0000
0000
,
0100
0000
0000
0000
,
1000
0000
0000
0000
,
0010
0000
0000
0000
,
0010
0000
0000
0000
,
0100
0000
0000
0000
,
0001
0000
0000
0000
,
1000
0000
0000
0000
,
0010
0000
0000
0000
,
0100
0000
0000
0000
,
0001
0000
0000
0000
,
1000
0000
0000
0000
;

//---------------dance-single - Copied from----------------
#NOTES:
     dance-single:
     Copied from:
     Medium:
     6:
     0.383,0.423,0.139,0.139,0.000: // measure 1
0000
0000
0000
0000
,  // measure 2
0000
0000
0000
0000
,  // measure 3
0000
0000
0000
0000
,  // measure 4
0000
0000
0000
0000
,  // measure 5
0010
0100
0001
1000
,  // measure 6
0010
0000
0010
0000
1000
0000
0100
1000
,  // measure 7
0001
0000
0100
0000
0100
0000
0001
0010
,  // measure 8
0100
0100
1000
1000
,  // measure 9
0010
0100
0001
1000
,  // measure 10
0010
0000
0100
0000
0001
0000
0010
0001
,  // measure 11
0010
0100
1000
0001
,  // measure 12
0010
0100
0000
1001
0000
1001
0000
0000
,  // measure 13
0100
1000
0100
0000
0010
0001
0010
0000
,  // measure 14
0100
0100
1000
0010
,  // measure 15
0100
0000
0001
1000
0001
0000
0010
0100
,  // measure 16
0010
0100
1000
0001
,  // measure 17
0010
0100
0010
0000
0001
1000
0001
0000
,  // measure 18
0100
0000
0010
0000
1000
0000
0100
1000
,  // measure 19
0010
0010
0100
0100
,  // measure 20
0002
0203
0320
1000
,  // measure 21
0230
0000
0310
1000
,  // measure 22
0002
0000
0103
0001
,  // measure 23
2000
0000
3100
1000
,  // measure 24
0020
0000
0000
0000
0130
0000
0001
1000
,  // measure 25
0100
0000
0100
0000
1000
0000
0100
0010
,  // measure 26
0001
0000
0001
0000
0100
0010
0100
0000
,  // measure 27
0001
0000
1000
0000
0010
0000
0100
0010
,  // measure 28
0000
0100
0000
0001
0000
1000
0000
0001
,  // measure 29
0200
0000
0000
0000
0000
0310
0100
0010
,  // measure 30
0000
0010
0100
0010
0000
1000
0001
1000
,  // measure 31
0000
1000
0001
1000
0000
0010
0100
0010
,  // measure 32
0000
0100
0010
0000
1000
0000
0100
0000
,  // measure 33
0010
0000
0001
0000
0100
0001
1000
0000
,  // measure 34
0100
0000
1000
0001
0000
0000
0100
0010
,  // measure 35
0000
0000
0001
0010
0000
0000
0100
1000
,  // measure 36
0020
0100
1000
0001
,  // measure 37
0200
0000
0000
0330
0000
0001
1000
0100
,  // measure 38
0000
1000
0001
0100
0000
0010
0100
0001
,  // measure 39
0000
0100
0010
1000
0000
0010
0100
0010
,  // measure 40
0000
0100
0001
0000
1000
0000
0100
0000
,  // measure 41
0010
0000
0100
0000
1000
0000
0001
0020
,  // measure 42
0000
0000
1030
0020
0000
0000
0130
0000
,  // measure 43
0010
0100
0001
0010
0100
0010
0001
0000
,  // measure 44
1000
0100
0100
1000
,  // measure 45
0010
0000
0100
0000
0001
0100
0001
0000
,  // measure 46
1000
0100
0010
0100
,  // measure 47
1000
0000
0010
0000
0100
0001
1000
0000
,  // measure 48
0100
0000
0000
1100
0000
0000
0010
0000
,  // measure 49
0000
0011
0000
0000
0100
0010
0100
0000
,  // measure 50
0001
0000
0000
1001
0000
0000
1000
0000
,  // measure 51
0000
1100
0000
0000
2000
0000
0000
0000
,  // measure 52
3001
0000
0100
0000
,  // measure 53
1000
0000
0100
0000
,  // measure 54
0001
0000
1000
0001
,  // measure 55
1000
0000
0000
0000
0001
0100
0010
0100
,  // measure 56
0000
0000
0100
0010
0000
0000
0010
1000
,  // measure 57
0000
0000
1000
0100
0000
0000
0010
0001
,  // measure 58
1001
0001
0100
0010
,  // measure 59
0100
0010
0100
0010
2000
0000
3002
0000
,  // measure 60
0103
0000
1001
0000
0000
0001
0100
0001
,  // measure 61
0000
1000
0100
1000
0000
0001
1000
0001
,  // measure 62
0000
0100
0010
0000
1000
0000
0100
0000
,  // measure 63
0010
0000
0100
0000
1000
0000
0010
0100
,  // measure 64
0000
0000
0001
0010
0000
0000
0001
0000
,  // measure 65
0100
0000
1000
0000
0100
1000
0100
0010
,  // measure 66
0100
0000
0000
0010
0000
0000
0001
0000
,  // measure 67
0000
0100
0000
0000
0010
0000
1000
0000
,  // measure 68
0010
0000
0000
0100
0000
0000
0100
0000
,  // measure 69
0000
0010
0000
0000
1000
0000
0100
0000
,  // measure 70
0011
0000
0000
1001
0000
0000
1010
0000
,  // measure 71
0000
1001
0000
0000
0100
0000
0010
0000
,  // measure 72
0011
0000
0000
0101
0000
0000
1010
0000
,  // measure 73
0000
1001
0000
0000
1000
0000
0001
0000
,  // measure 74
2200
0000
0000
3300
;

//---------------dance-single - Copied from----------------
#NOTES:
     dance-single:
     Copied from:
     Hard:
     7:
     0.498,0.453,0.188,0.188,0.000:
0000
0000
0000
0000
,
0000
0000
0000
0000
,
0000
0000
0000
0000
,
0000
0000
0000
0000
,
0001
0100
0001
1000
0100
0000
1000
0100
,
0010
0000
0100
0010
0001
0010
0100
1000
,
0010
0000
0100
0001
0100
1000
0100
0001
,
0010
0000
0010
0000
0001
1000
0001
0000
,
1000
0100
0010
0000
0010
0100
1000
0000
,
0001
0100
1000
0100
0001
0010
1000
0000
,
0010
0001
0010
0001
0100
0001
0100
0000
,
1000
1010
0000
0101
0000
0101
0000
0000
,
1000
0001
0100
0000
0001
1000
0100
0000
,
0010
0100
0100
1000
0010
0100
0001
0000
,
1000
0100
0010
0001
0100
0001
1000
0000
,
0010
0100
0010
1000
0001
0000
0010
0000
,
0100
1000
0010
0000
0100
0001
0010
0000
,
0001
0100
1000
0100
0010
0100
0001
1000
,
0100
0100
0010
0001
,
1000
0000
0100
0000
1000
0010
1000
0000
,
1002
0100
0100
1003
,
2010
0100
0001
3010
,
0120
0100
0001
1030
,
0201
0000
0010
0000
0010
0000
0301
1000
,
0100
0000
0100
0000
0010
0100
1000
0001
,
0010
0000
0010
0000
0001
0100
0001
0000
,
1000
0000
0100
0000
1000
0000
0010
0200
,
0000
0001
0000
1000
0000
0001
0000
0310
,
0110
0000
0000
0000
0000
0100
0010
0200
,
0000
0301
1000
0200
0000
1300
0100
0020
,
0000
0130
1000
0002
0000
0103
0010
1000
,
0100
0000
0100
0000
1000
0001
1001
0000
,
0001
0100
0010
0100
0001
0000
1000
0100
,
0010
0000
0001
0100
0001
0000
1000
0010
,
0100
0000
0010
0100
0010
0000
1000
0200
,
0000
0010
0000
0001
0000
1000
0000
0310
,
0110
0000
0000
0000
0000
1000
0100
0020
,
0000
0130
0010
0002
0000
0103
0010
0200
,
0000
0310
0100
2000
0000
3100
0010
0100
,
0001
0000
0100
0000
0010
1000
1010
0000
,
0100
0001
1000
0000
0100
0100
0010
0100
,
1000
0000
0001
0000
0100
0001
0100
0000
,
0010
0100
0010
1000
0100
1000
0001
0100
,
0001
0001
0101
1000
,
1100
0000
0010
0100
0010
1000
0100
0000
,
1000
0010
0101
0010
,
1100
0000
0010
0100
1000
0001
0100
0000
,
0001
0001
1100
0100
,
1010
0000
1000
0100
0010
0001
1000
0000
,
0010
0010
1001
0100
,
0110
0000
0100
0000
0001
1000
0100
0010
,
0000
0100
0000
0010
0000
0001
0000
0001
,
0000
0100
0000
0100
0000
0010
1000
0010
,
0000
0100
0010
0000
0100
0000
0100
0000
,
0110
0000
0000
0000
0000
0000
0010
0200
,
0000
0300
0010
2000
0000
3000
0100
0020
,
0000
0030
0010
0002
0000
0003
0100
0001
,
2002
0000
0000
3003
,
0100
0010
0100
1000
0100
0010
0001
0100
,
0010
0000
1001
0000
0010
0100
0001
2000
,
0000
3100
0010
0200
0000
1300
0001
0010
,
0001
0000
0100
0000
0010
0100
1001
0000
,
1000
0100
0010
0100
1000
0001
0100
0000
,
0010
1000
0100
0010
0100
0000
0010
0000
,
0100
1000
0001
0100
0001
1000
0010
1000
,
0100
0100
1000
1000
,
0001
0000
0100
0001
0010
0100
1000
0000
,
0010
0000
0100
0010
0100
0000
0001
0000
,
1000
0100
0001
1000
0010
0001
0100
0000
,
0010
0000
0100
0001
0100
0000
0010
0000
,
1000
0100
1000
0010
0100
0001
0010
0000
,
0001
0000
1000
0100
0001
0000
0100
0000
,
1000
0010
0100
0001
1000
0001
0001
0000
,
2000
0000
0000
3000
;
