#TITLE:Kick Your A;
#SUBTITLE:;
#ARTIST:S G X;
#TITLETRANSLIT:;
#SUBTITLETRANSLIT:;
#ARTISTTRANSLIT:;
#GENRE:;
#CREDIT:;
#MENUCOLOR:#00FF00;
#NEWMETERSYSTEM:NO;
#BANNER:Kick Your A-bn.png;
#BACKGROUND:Kick Your A-bg.png;
#LYRICSPATH:;
#CDTITLE:PROJECT VIRIDIAN-cdtitle.png;
#MUSIC:Kick Your A.mp3;
#OFFSET:0.000;
#SAMPLESTART:73.540;
#SAMPLELENGTH:12.000;
#SELECTABLE:YES;
#LISTSORT:;
#BPMS:0.000=93.000,97.000=91.000,98.000=186.000;
#STOPS:;
#BGCHANGES:;
#ATTACKS:;

//---------------dance-single - ----------------
#NOTES:
     dance-single:
     :
     Easy:
     4:
     0.266,0.303,0.088,0.233,0.008:
0000
0000
0000
0000
,
0000
0000
0000
0000
,
0001
0000
1000
0000
,
0010
0000
0001
0000
,
1000
0000
0000
0000
0001
0010
0000
0000
,
0100
0000
0000
0000
0010
0000
1000
1000
,
1000
0000
0001
0000
,
0100
0000
0010
1000
,
2002
3000
0103
0010
,
1000
0001
0010
0100
,
1000
0001
0100
0010
,
1000
0001
0010
0001
,
1000
0100
0010
0100
,
1000
0010
0100
0010
,
0001
0100
1000
0100
,
0001
1000
0001
0010
,
1000
0010
0002
0000
,
0100
0000
2003
0000
,
0010
0000
3002
0000
,
0100
0000
2003
0000
,
3020
0000
0230
0000
,
0001
0000
0320
0000
,
2030
0000
3200
0000
,
1000
0000
0320
0000
,
0031
0100
1001
0000
,
0100
0010
1000
0000
,
0001
0100
1000
0000
,
0100
0001
0010
0000
,
0100
0010
1000
0000
,
0010
0100
1000
0000
,
0100
0001
1000
0000
,
1000
0001
0100
0100
,
0020
0000
1030
0001
,
0100
0001
0010
0100
,
1000
0000
0001
0100
,
0001
1000
0010
1000
,
0010
0000
0100
0001
,
0010
0100
1000
0010
,
0100
0000
0001
0100
,
0001
1000
0100
1000
,
0010
1000
0002
0000
,
1000
0000
2003
3200
,
0320
0030
0001
0000
,
0100
0000
0020
2030
,
3200
0300
0100
0000
,
0010
0000
0200
0302
,
2003
3000
0001
0000
,
0100
0000
0010
0100
,
2002
0000
0000
0000
,
0000
3003
0110
0001
,
0100
0010
1000
0100
,
1000
0000
0001
0100
,
0001
1000
0010
0100
,
0010
0000
0001
0001
,
0010
0010
0100
0100
,
2000
3000
0001
0100
,
1000
0100
0001
0100
,
1000
0000
0001
1000
,
0010
0000
1001
0000
,
1000
0010
0100
0001
,
1000
0000
1001
0000
,
0010
0000
1001
0000
,
0100
0000
1001
0000
,
0010
0000
0101
0000
,
1100
0000
0000
0000
0000
0000
0000
0000
0001
0000
0000
0001
0000
0000
0100
0000
,
0000
1000
0000
0000
0100
0000
0000
0000
0010
0000
0000
0000
0000
0000
0000
0000
,
0200
0300
2002
0000
,
0000
0000
0000
0000
,
0000
0000
3003
0000
;

//---------------dance-single - Copied from----------------
#NOTES:
     dance-single:
     Copied from:
     Beginner:
     2:
     0.134,0.165,0.072,0.096,0.000:
0000
0000
0000
0000
,
0000
0000
0000
0000
,
1000
0000
0000
0000
,
0001
0000
0000
0000
,
1001
0000
1001
0000
,
0000
0000
0010
0000
,
0200
0000
0300
0000
,
0002
0000
0003
0000
,
1001
0000
0100
0000
,
0010
0000
1000
0000
,
0100
0000
0001
0000
,
0100
0000
1000
0000
,
0001
0000
0100
0000
,
0001
0000
0001
0000
,
1000
0000
0010
0000
,
1000
0000
0100
0000
,
0010
0010
0010
0000
,
0001
0000
0001
0000
,
1000
1000
1000
0000
,
0001
0000
0010
0000
,
0100
0000
0010
0000
,
1000
0000
0010
0000
,
0001
0000
0100
0000
,
0010
0000
1000
0000
,
0001
0001
0001
0000
,
0000
0000
1000
0000
,
0000
0000
0010
0000
,
0000
0000
1000
0000
,
0000
0000
0001
0000
,
0000
0000
0010
0000
,
0000
0000
0100
0000
,
0000
0000
2000
0000
,
0000
3000
1000
0000
,
0000
0000
0001
0000
,
0000
0000
0010
0000
,
0000
0000
0001
0000
,
0000
0000
0001
0000
,
0000
0000
1000
0000
,
0000
0000
1000
0000
,
0000
0000
0010
0010
,
0010
0000
0020
0000
,
0000
0000
0030
0000
,
0000
0000
2000
0000
,
0000
0000
3000
0000
,
0000
0000
0002
0000
,
0000
0000
0003
0000
,
0000
0000
0200
0000
,
0300
0000
0010
0000
,
2002
0000
0000
0000
,
3003
0000
0001
0000
,
1000
0000
0001
0000
,
1000
0000
0010
0000
,
0100
0000
0010
0000
,
0100
0000
0001
0000
,
0100
0000
0001
0000
,
1000
0000
0100
0000
,
1000
0000
0100
0000
,
0010
0000
0001
0000
,
1000
0000
1001
0000
,
0010
0000
0000
0000
,
0010
0000
1001
0000
,
0000
0000
1001
0000
,
0000
0000
1001
0000
,
0000
0000
0001
0000
,
1000
0000
0002
0000
,
0000
0000
0003
0000
,
1000
0000
0220
0000
,
0000
0000
0000
0000
,
0000
0000
0330
0000
;

//---------------dance-single - Copied from----------------
#NOTES:
     dance-single:
     Copied from:
     Medium:
     6:
     0.432,0.468,0.137,0.145,0.088:
0000
0000
0000
0000
,
0000
0000
0000
0000
,
0000
0000
0000
0000
,
0000
0000
0000
0000
,
0001
0000
0000
0000
1000
1000
0020
0200
,
0000
0000
0330
0000
0001
1000
0001
0000
,
0110
0000
0001
0000
1000
0100
1000
0000
,
0001
0001
0100
0100
,
2002
0000
3003
0001
0110
0000
0100
0010
,
1000
0000
0001
0000
0010
0000
0001
0100
,
0010
0000
1000
0100
0010
0000
1000
0001
,
0100
0000
0001
0000
0010
0001
0100
0000
,
0010
0100
0010
1000
0001
0100
0010
0100
,
0000
0002
0000
2003
0010
3100
1000
0010
,
0000
0100
0001
1000
0010
0100
0100
0001
,
1000
0200
0000
0320
0001
0031
0100
1000
,
0000
0000
0100
0000
0001
0000
1000
0000
0001
0000
0000
0001
0100
0000
0000
0000
,
1000
0000
0000
1000
0100
0000
0000
0000
0010
0000
0000
0100
0010
0000
0000
0000
,
0001
0000
0000
0100
0001
0000
1000
0000
0001
0000
0000
0100
0010
0000
0000
0000
,
1000
0000
0000
0100
1000
0000
0000
0000
0010
0000
0000
0100
0001
0000
0000
0000
,
1100
0000
0000
0000
0110
0000
0000
0000
0011
0000
0000
1000
0100
0000
1000
0000
,
0001
0000
0000
0010
0001
0000
0000
0000
0100
0000
0000
0010
0100
0000
0010
0000
,
2000
0000
0000
0000
3002
0000
0000
0000
0103
0000
0000
0010
0100
0000
0001
0000
,
0100
0000
0000
0010
1000
0000
0001
0000
0010
0000
0000
0000
0100
0000
0000
0000
,
0001
2000
3100
1000
,
0001
0100
0001
1000
,
0010
0100
0001
0001
,
0010
0100
0100
1000
,
0010
2000
3001
0100
,
0001
0010
0001
1000
,
1000
0100
0010
0001
,
1000
0000
0010
0000
0100
0000
0001
0100
,
0001
0010
0100
0000
1001
0000
0010
0000
,
0100
0010
1000
0001
,
0010
0000
0100
0000
1000
0100
1000
0000
,
0010
0100
0010
0000
0100
0001
0100
0000
,
0001
0010
0001
0000
1000
0100
0010
0001
,
1000
0000
0001
0010
0100
1000
0001
0000
,
0100
0000
0010
0000
1000
0100
0010
0100
,
1000
0001
0010
0001
0100
0000
0100
0000
,
0010
1000
0102
1003
,
0010
0000
0000
0000
0100
0000
0000
0000
0010
0000
0100
0000
0000
0001
0000
0000
,
0100
0000
0000
0010
0000
0000
1000
0000
0010
0000
0000
0000
1000
0000
0100
0000
,
0010
0000
0000
0000
0001
0000
0000
0000
1000
0000
0010
0000
0000
1000
0000
0000
,
0001
0000
0000
0010
0000
0000
0001
0000
0010
0000
0000
0000
0100
0000
0000
0000
,
1000
0000
0001
0000
0010
0000
0000
0000
0001
0000
0010
0000
0000
0010
0000
0000
,
0100
0000
0000
0001
0000
0000
0100
0000
1000
0000
0000
0000
0100
0000
0000
0000
,
0001
0000
0100
0000
1000
0100
0010
0000
,
2002
0000
0000
0000
,
0000
0000
3003
0000
0001
0010
0100
1000
,
0010
0100
0001
0000
1000
0100
0010
0000
,
0010
0100
1000
0000
0001
0100
1000
0100
,
0001
1000
0010
0000
0100
0010
1000
0001
,
0010
0000
0100
1000
0001
0100
0001
0000
,
1000
0100
1000
0000
0001
0010
1000
0010
,
0002
0000
0103
0010
0100
0010
1000
0001
,
0010
0000
0000
0001
0010
0000
0000
0000
0100
0000
0000
0100
1000
0000
0000
0000
,
1001
0000
0010
0100
0001
1000
0100
1000
,
0010
0000
0100
0000
1001
0000
0010
0100
,
0001
0010
0100
1000
0001
0000
0010
0001
,
1000
0010
0010
0000
1010
0000
1000
0001
,
0100
0001
1000
0000
0101
0000
0100
1000
,
0001
1000
0100
0000
1001
0000
0010
0100
,
0001
0100
0010
0000
1100
0000
0100
0000
,
0011
0000
0000
0000
0100
0000
0000
0000
0001
0000
0000
0100
0000
0000
1000
0000
,
0000
0100
0000
0000
0001
0000
0000
0000
1000
0000
0000
0000
0001
0000
0000
0000
,
0100
0010
0100
0000
2002
0000
0000
0000
,
0000
0000
0000
0000
,
0000
0000
3003
0000
;

//---------------dance-single - Copied from----------------
#NOTES:
     dance-single:
     Copied from:
     Hard:
     9:
     0.605,0.578,0.314,0.338,0.117:
0000
0000
0000
0000
,
0000
0000
0000
0000
,
0000
0000
0000
0000
,
0000
0000
0000
0000
0000
0010
0100
0010
,
1001
0000
0000
0000
0100
0000
0000
1000
0010
0000
0110
0000
0002
0000
2000
0000
,
0000
0000
3003
0000
0010
0100
0001
1000
,
1100
0010
0100
0010
0100
0010
0100
0010
,
0001
0100
0001
0100
1000
0100
0001
1000
,
0220
0000
0000
0000
0330
0000
0001
0000
1001
0000
0000
0100
0010
0000
0100
0000
,
0001
2000
3100
0002
0103
0010
0100
0001
,
1000
0000
0100
0000
1000
0100
0010
0001
1000
0000
0000
0010
0100
0000
0001
0000
,
1000
0020
0130
2000
3100
0010
0100
0001
,
0010
0001
0110
1100
0001
0100
0001
1000
,
1000
0020
1030
0200
0301
0100
0100
1000
,
0010
0100
0101
1010
0100
0001
1000
0010
,
1000
0002
0013
0200
0310
0001
0100
1000
,
0100
0000
0001
0000
1000
0000
0010
0000
0110
0000
1000
0100
0010
0000
0001
0000
,
0100
0000
0000
0010
1000
0000
0100
0000
1000
0000
1000
0100
0001
0000
0010
0000
,
0100
0000
0000
0010
0100
0010
1000
0100
0010
0000
0001
0100
0001
0000
1000
0000
,
0010
0000
0000
1000
0010
0000
0100
0000
0001
0000
0100
0010
1000
0000
0100
0000
,
0100
0000
0000
0010
0100
0000
0010
0000
0001
0000
1000
0100
0010
0000
1000
0000
,
0001
0000
0000
0010
0001
0000
0100
0000
0010
0000
1000
0001
0100
0000
0010
0000
,
1000
0000
0001
0000
0101
0000
1100
0000
0010
0000
0100
0001
1000
0000
0010
0000
,
1000
0000
0000
0100
0010
0000
0100
0000
1000
0000
0001
0100
0001
0000
1000
0000
,
0100
1000
0020
0000
0130
0010
0100
0001
,
0100
1000
0100
0010
1000
0100
0010
0001
,
0200
0000
0300
0000
0010
1000
0010
0100
,
0001
0010
0100
0010
1000
0010
0001
1000
,
0200
0000
0300
0000
1000
0100
1000
0100
,
0010
0001
0100
0010
0100
0001
1000
0001
,
0020
0000
0030
0000
0100
0010
0001
1000
,
0100
0010
0001
0100
0010
1000
0010
0100
,
0001
0001
0001
0000
1001
1000
0100
0010
,
0100
1000
0010
0100
1000
0100
0001
1000
,
0001
0010
0100
1000
0100
1000
0010
0100
,
0001
0010
0001
0100
0010
1000
0001
0100
,
0001
0000
1010
0000
0010
0100
0010
1000
,
0001
0100
1000
0100
0010
0100
0001
0010
,
0100
0001
0100
1000
0010
0100
0002
0000
,
0103
0010
2000
0000
3001
0100
0001
0010
,
0010
0100
1000
0010
0101
0000
1001
0000
,
1100
0000
0000
0000
1001
0000
0000
0000
0010
0000
0002
0000
0000
0203
0000
0000
,
2300
0000
0000
3200
0000
0000
0320
0000
0130
0000
0000
0000
0011
0000
0000
0000
,
1001
0000
0000
0000
1100
0000
0000
0000
0010
0000
2000
0000
0000
3200
0000
0000
,
0302
0000
0000
0203
0000
0000
2300
0000
3001
0000
0000
0000
0110
0000
0000
0000
,
1010
0000
0000
0000
0011
0000
0000
0000
1000
0000
0200
0000
0000
0320
0000
0000
,
0032
0000
0000
0203
0000
0000
0320
0000
0130
0000
0000
0000
0011
0000
0000
0000
,
1000
0000
1010
0000
0010
1000
0001
1000
,
0220
0000
0000
0000
,
0000
0000
0330
0000
1001
0010
0001
0100
,
0010
1000
0001
0100
0010
1000
0100
0010
,
0100
1000
0001
0100
0001
1000
0010
0100
,
0001
0010
0100
1000
0001
0010
0100
1000
,
0010
0100
1000
0100
0010
1000
0100
0010
,
0001
1000
0010
0100
0001
0100
0010
1000
,
0002
0000
0103
0010
1000
0100
0010
0001
,
2000
0000
3100
1000
0010
0100
0101
0000
,
0010
0100
0010
1000
0100
0010
0001
1000
,
0100
0001
0100
0010
1001
0000
0001
0100
,
0010
0100
1000
0100
0001
0010
0100
1000
,
0001
0100
0010
1000
1001
0000
1000
0100
,
0010
0001
0100
0010
1001
0000
0001
0010
,
0100
1000
0001
0001
0110
0000
1000
0010
,
0001
0010
1000
0001
0200
0010
0310
0000
,
0002
0000
0100
0000
0103
0000
0000
0000
0011
0000
0000
1001
0000
0000
1100
0000
,
0000
0110
0000
0000
1001
0000
0000
0000
0002
0000
0000
0000
0000
0000
0000
0000
,
1003
0010
1000
0001
0220
0000
0000
0000
,
0000
0000
0000
0000
,
0000
0000
0330
0000
;

//---------------dance-single - Copied from ----------------
#NOTES:
     dance-single:
     Copied from:
     Challenge:
     10:
     0.736,0.771,0.523,0.088,0.390: // measure 1
0000
0000
0000
0000
,  // measure 2
0000
0000
0000
0000
0000
0000
0000
0000
2000
0000
0000
0000
0000
0000
3001
0010
,  // measure 3
0200
0000
1000
0000
,  // measure 4
0310
0000
0001
0010
0001
0000
1000
0100
1000
0000
0001
0000
0010
0000
1000
0000
,  // measure 5
1001
0000
0010
0000
0100
0000
0010
0001
1100
0000
0011
0000
1000
0010
2000
0000
,  // measure 6
0001
0000
0001
3000
0011
1100
0010
0100
,  // measure 7
1001
0000
0010
0001
0010
0000
0001
0010
0001
0000
0010
0001
0010
0000
0100
1000
,  // measure 8
0010
0000
0100
0001
0100
0000
0010
0100
0010
0000
0010
0000
1000
0000
0110
0000
,  // measure 9
2002
0000
0000
0000
3003
0000
0100
0000
0110
0000
0010
1000
0001
0000
0100
0000
,  // measure 10
0001
0000
0010
0001
0100
0001
0010
0000
1100
0000
0011
0000
1000
0000
0110
0000
,  // measure 11
1000
0000
0001
0100
0010
1000
0001
0100
1000
0000
0110
0000
1000
0000
0011
0000
,  // measure 12
1000
0100
0010
0001
0000
1001
0000
0100
0001
0000
0110
0000
0100
0000
1001
0000
,  // measure 13
0010
0000
0100
1000
0100
0010
1000
0000
0010
0000
0101
0000
0001
0000
1100
0000
,  // measure 14
0010
0000
1000
0001
0100
0010
1000
0000
0001
0000
0110
0000
0001
0000
1100
0000
,  // measure 15
1000
0100
0001
0000
0110
0000
1001
0000
0110
0000
0001
1000
0001
0000
0100
0000
,  // measure 16
0010
0000
1000
0100
0010
0000
0001
0000
0100
0000
0001
0010
0001
0000
0100
0000
,  // measure 17
0010
0000
1000
0100
0010
0100
1000
0001
0110
0000
0010
0100
0001
0000
0100
0000
,  // measure 18
0010
0000
1000
0001
0100
0000
0010
0000
1000
0000
0001
0100
0001
0000
1000
0000
,  // measure 19
0110
0000
0001
1000
0100
0010
1000
0010
0001
0000
0001
0100
0001
0000
1000
0001
,  // measure 20
1000
0000
1000
0100
0000
1001
0000
0100
0010
1000
0001
0000
0110
0000
0001
1000
,  // measure 21
0001
0000
0010
0100
0010
1000
0001
0100
1000
0000
0100
0010
0100
0000
0010
0000
,  // measure 22
1100
0000
0001
0100
0010
0000
0110
0000
0001
0000
0100
0010
0001
0000
0010
0000
,  // measure 23
1001
0000
0010
1000
0001
0010
0100
1000
0010
0000
0100
0001
1000
0000
0011
0000
,  // measure 24
1000
0000
1000
0100
1000
0000
0010
0100
0001
0000
0010
0001
1000
0100
1000
0100
,  // measure 25
0010
0001
0100
0010
0100
0000
0000
0000
1001
0000
0010
0000
0100
0000
0010
0000
,  // measure 26
1000
0100
0010
0001
1000
0100
1000
0001
,  // measure 27
0010
1000
0010
0001
0100
0010
0100
1000
,  // measure 28
0100
0001
0010
1000
0010
0001
0100
0010
,  // measure 29
1000
0100
0010
0001
1000
0010
0100
0001
,  // measure 30
0100
0100
1000
0010
0001
0010
0100
0010
,  // measure 31
1000
0001
0010
0100
0001
0100
1000
0010
,  // measure 32
1000
0100
0010
0100
1000
0001
0100
0010
,  // measure 33
1000
0000
0001
1000
0001
0100
0001
0100
0001
0000
0100
0000
0010
0000
1000
0000
,  // measure 34
0001
0000
0100
0010
0100
0000
0001
0000
0100
0000
0010
0000
1000
0000
0100
0000
,  // measure 35
0010
0000
0001
0000
0010
0000
0100
1000
0100
0000
0010
0000
0100
0000
0001
0000
,  // measure 36
0100
0000
1000
0000
0001
0000
0100
0000
0010
0000
1000
0010
1000
0000
0001
0100
,  // measure 37
0001
0000
1000
0001
1000
0000
0010
0100
0001
0000
0010
0000
0001
0000
0010
0000
,  // measure 38
0001
1000
0100
0010
1000
0010
0001
0100
,  // measure 39
0010
0000
1000
0001
1000
0000
0001
0000
0110
0000
0001
0000
0100
0000
1000
0000
,  // measure 40
0100
0001
0010
1000
0010
0010
0001
0001
,  // measure 41
0100
0100
1000
1000
0110
0000
0001
0100
,  // measure 42
0010
0000
1000
0000
0001
0000
1000
0000
0010
0000
0101
0000
0000
1010
0000
0000
,  // measure 43
0101
0000
0000
0011
0000
0000
1100
0000
0001
0000
0010
0000
0100
0000
1000
0000
,  // measure 44
0010
0000
0100
0000
0001
0000
0010
0000
0001
0000
1100
0000
0000
1010
0000
0000
,  // measure 45
1001
0000
0000
0101
0000
0000
0011
0000
0100
0000
0010
0000
0100
0000
0001
0000
,  // measure 46
0100
0000
0010
0000
1000
0000
0100
0000
0010
0000
0101
0000
0000
1010
0000
0000
,  // measure 47
0011
0000
0000
1001
0000
0000
0110
0000
0001
0000
0100
0000
0010
0000
0100
0000
,  // measure 48
0001
0000
0100
0000
1000
0000
0100
0000
0001
0010
0100
0000
1000
0000
0010
0000
,  // measure 49
2002
0000
0000
3000
,  // measure 50
0100
0000
0103
0000
1001
0010
0100
0001
,  // measure 51
0100
1000
0100
0010
1000
0100
0010
0001
,  // measure 52
0100
0001
0010
0100
1000
0010
0100
0001
,  // measure 53
1000
0100
0010
0000
0100
0010
0001
0000
1000
0100
0010
0000
0001
0010
0100
0000
,  // measure 54
0010
0100
1000
0010
0100
0001
1000
0010
,  // measure 55
0001
0000
0010
0000
0100
0000
0010
0000
1000
0000
1000
0100
0001
0000
0100
0000
,  // measure 56
0010
0000
0001
0000
1000
0000
0010
0000
1000
0000
0100
0010
0001
0000
1000
0000
,  // measure 57
0100
0000
0010
0001
1000
0000
0100
0000
0010
0000
0100
0000
0001
0100
1000
0000
,  // measure 58
0001
0000
1000
0000
0010
0000
0100
0000
0001
0000
0100
0000
0010
1000
0001
0000
,  // measure 59
0010
0100
0010
0001
1001
0000
0001
0100
,  // measure 60
1000
0000
0100
0000
0010
1000
0001
0000
1000
0000
0001
0000
0100
0000
0010
0000
,  // measure 61
1000
0001
0010
1000
0110
0000
0001
1000
,  // measure 62
0010
0100
0010
0000
1000
0000
0001
0000
0110
0000
0000
0000
0001
0000
1000
0100
,  // measure 63
0010
0000
0001
0000
1000
0010
1000
0000
1001
0000
0000
0000
0100
0000
0010
0000
,  // measure 64
0010
0001
1000
0000
0001
0000
0100
0000
1010
0000
0000
0000
1000
0000
0100
0000
,  // measure 65
0101
0000
0000
0000
0001
0000
0100
0000
1010
0000
0000
1100
0000
0000
0011
0000
,  // measure 66
0000
0101
0000
0000
1001
0000
0000
0000
0220
0000
0000
0000
0330
0000
0000
0000
,  // measure 67
0001
0010
0001
0000
1000
0100
1000
0000
2002
0000
0000
0000
0000
0000
0000
0000
,  // measure 68
0000
0000
0000
0000
,  // measure 69
0000
0000
3003
0000
;
