#TITLE:Jin Go Lo Ba;
#ARTIST:Fatboy Slim;
#FILE:Jin Go Lo Ba.mp3;
#BPM:127.000;
#GAP:40;
#MENUCOLOR:;
#SAMPLESTART:30.260;
#SAMPLELENGTH:11.980;
#CDTITLE:PROJECT VIRIDIAN-cdtitle.png;
#SINGLE:BASIC:4:
00000000
00000000
00000000
00000000
40206020
40206000
60204020
60204000
8!802020A0
4!40808070
6!604040B0
2!20606030
B0001000
B0003000
9000A000
1000B!B0B0
40802060
80204080
20608060
40204060
2!20603000
8!80407000
2!20401000
8!80609000
30607020
B0809000
10407020
B080B000
6!60304!4070
2!20A08!8070
2!20106!6090
4!40B08!80A0
8!80207!4060
B!60403000
4!40207!8040
A!2060A000
2!208!800000
00000000
00000000
000000A0
20602040
20602040
20602040
20602040
6040B000
8020A000
40201000
60203!3030
60804080
60208020
40206020
40802020
6!60408090
4!40602010
8!804020A0
40602!2000
A0066004
40088002
20088004
40066000
40022008
80066004
40066002
20066000
8!80000000
00000000
80000000
;
#SINGLE:BEGINNER:1:
00000000
00000000
00000000
00000000
40000000
60000000
80000000
20000000
4!40004000
6!60006000
4!40004000
6!60006000
40004000
40004000
60006000
60006000
2!20002000
20000000
8!80008000
80000000
4!40004000
40000000
6!60006000
60002000
80008000
80008000
20002000
20002000
40004000
40004000
60006000
60006000
20002000
20002000
80008000
80008000
2!20000000
00000000
00000000
20000000
60000000
20000000
40000000
20000000
00606000
00404000
00808000
00202000
6!60006000
60000000
2!20002000
20000000
8!80008000
80000000
4!40004000
40002000
60006000
60006000
80008000
80008000
20002000
20002000
40004000
40004000
20000000
;
#SINGLE:ANOTHER:5:
00000000
00000000
00000000
00000000
40602060
80248000
20802080
40268020
68080808
24040404
26060606
28080808
60062002
80084004
20024006
20042!2020
B6204280
20406020
88406280
40208060
44206240
20802060
88604840
20408!8080
B0626042
40828040
60868048
40628020
30642048
20846080
B0242086
80282060
4!400B8!800A
2!200A6008
6!60092!2001
8!800A8000
4!42!2000000
00000000
00000000
00000010
40204080
20608060
40802060
40204080
40603000
60401000
80403080
2040B!B0B0
B4802620
80406020
66208420
40804060
22806820
40608020
44602820
60208!8080
1!40072!2003
8!80094004
6!60092!2001
6!60038000
40042006
20082008
40028006
40082000
9!90000000
00000000
90000000
;
#SINGLE:MANIAC:7:
00000000
00000000
00000000
00000000
(8004008020006000)
(8002008060000000)
(4002004080002000)
(6008002040000000)
82020606
48080202
46060404
86060808
(4006002080080040)
(2004006020000080)
(2006002080040040)
(6004002080000000)
B6242840
60402820
42624820
60208460
86882460
20804240
24826460
40608!8096
B0263024
1048A060
30841026
A0643042
4!40B28!80A6
8!80A48!80A6
2!20A46!6036
8!80A42!2016
(2002008020020060)
(2002008040000040)
(8008002080080040)
(8008002060000000)
4!46!6000000
00000000
00000000
000000B0
(8008002060040020)
(8002004060020080)
(2006008020040080)
(4006002040020060)
(8200402080000000)
(6200604080000000)
(4200408026008060)
(4600808020000000)
12624826
80204620
84826828
60408420
82428646
20808460
82864686
4020B!B0B8
(2002008040040060)
(800800204000A020)
(6006002080080020)
(400400208000B000)
(4002008060080020)
(4002008060000060)
(6008002040020080)
(6008002040000040)
2!20000000
00000000
20000000
;
#SINGLE:SMANIAC:9:
00000000
00000000
00000000
00000000
(4062006080204080)
(20820080B0002000)
(4024008020604060)
(206800204000B000)
82624268
24282482
68246242
84286424
(B0060020A0080040)
(10060040B0000080)
(7002006090020040)
`300000000000000000000000000000000000400000000000000000000000000000000000800000000000000000000000400000000000000020000000000000004000000000000000200000000000000040000000000000002000000000000000'
(4028602080406080)
(2042408020604080)
(6084208060402040)
(6086208020608040)
(8064602060408020)
(8042802040602080)
(4028604080402060)
`200000000000000000000000400000000000600000000000800000000000000000000000600000000000000000000000400000000000000020000000000000004000000000000000600000000000000020000000000000006000000000000000'
(8006208040042080)
(2004802060086020)
(8004806080028040)
(6006208040646020)
(8004802080026080)
(6008208060042040)
(2008604080048020)
(4002608020048040)
(6006002080080040)
(2002002080000060)
(2008002060040020)
(4008002080000000)
6!64!4000000
00000000
00000000
000000B0
(8208208042042040)
(6206206048048040)
(6406406086086080)
(2402402082082080)
(2400602080002000)
(2600406020000000)
(8200804062008020)
`600000000000800000000000000000000000000000000000200000000000000000000000400000000000000000000000600000000000000080000000000000006000000000000000800000000000000060000000000000008000000000000000'
(6042802060204080)
26428248
(2062604080206040)
26846284
(8026208040608060)
28424826
(4028208020406080)
[600200600400608020402080]
(6004204080028020)
(600860208000B080)
(2004204080028020)
(600860402000B000)
(8002008040020040)
(6002006080002080)
(2004002060020040)
(600200604000004!40)
8!80000000
00000000
70000000
;
