#TITLE:I'm Gonna Get You;
#SUBTITLE:;
#ARTIST:MAGIC HAMMER;
#TITLETRANSLIT:;
#SUBTITLETRANSLIT:;
#ARTISTTRANSLIT:;
#GENRE:;
#CREDIT:;
#MENUCOLOR:#CC6666;
#NEWMETERSYSTEM:NO;
#BANNER:I'm Gonna Get You-bn.png;
#BACKGROUND:I'm Gonna Get You-bg.png;
#LYRICSPATH:I'm Gonna Get You.lrc;
#CDTITLE:PROJECT VIRIDIAN-cdtitle.png;
#MUSIC:I'm Gonna Get You.mp3;
#OFFSET:-0.620;
#SAMPLESTART:47.160;
#SAMPLELENGTH:12.000;
#SELECTABLE:YES;
#LISTSORT:;
#BPMS:0.000=165.000;
#STOPS:;
#BGCHANGES:;
#ATTACKS:;

//---------------dance-single - ----------------
#NOTES:
     dance-single:
     :
     Easy:
     4:
     0.384,0.501,0.147,0.481,0.000:
0000
0000
0000
0000
,
0000
0000
0000
0000
,
0000
0000
0000
0000
,
0000
0000
0000
0000
,
0010
1000
0002
0000
,
1003
0100
0020
0000
,
0130
1000
0200
0000
,
1300
0000
0000
1001
,
1001
0010
0100
0001
,
2000
0000
3002
0000
,
0013
0001
0100
0010
,
0200
0000
0310
0010
,
1000
0100
0001
0100
,
2000
0000
3200
0000
,
0310
0001
0100
0010
,
0200
0000
0000
0000
,
0310
0100
0010
1000
,
0100
0000
0100
0000
,
1000
0100
0010
0001
,
0100
0100
0010
0010
,
0100
0001
0100
0010
,
1000
0000
0001
0000
,
0010
0001
0010
0001
,
2000
0100
0010
3001
,
0110
1000
0001
0100
,
0002
0010
0020
0033
,
1000
0100
1000
0010
,
2000
0100
0200
3300
,
0001
0100
0010
1000
,
0020
0100
0200
0330
,
0001
0100
1000
0100
,
0001
0000
1000
0000
0010
0100
0010
0000
,
2001
0100
0100
3001
,
0100
1000
0020
0000
,
0130
0001
0100
0001
,
1100
0110
0022
0033
,
1002
0100
0100
1003
,
0100
0010
0200
0000
,
1300
0010
0100
0001
,
2002
0000
0000
3003
,
0220
0000
0000
0330
,
0001
0100
0010
1000
,
0002
0000
0023
0000
,
0130
1000
0100
1000
,
0002
0000
1003
1000
,
0100
1000
0010
0100
,
0020
0000
2030
0000
,
3100
1000
0010
0100
,
0200
0000
0000
0000
,
0310
0100
0010
1000
,
0200
0010
0020
0330
,
0010
0001
0100
0001
,
0200
0001
0002
0303
,
1000
0010
0100
0001
,
2000
0001
0002
3003
,
0010
0100
0001
0010
,
0100
0000
0100
0000
1000
0001
1000
0000
,
0120
1000
1000
0130
,
0010
0100
0002
0000
,
1003
0100
1000
0010
,
0110
0110
2002
3003
,
0210
0001
0001
0310
,
1000
0001
2000
0000
,
3010
0100
0001
1000
,
0220
0000
0000
0330
,
2002
0000
0000
3003
,
0100
0010
1000
0100
,
0020
0000
0032
0000
,
0103
0001
1000
0001
,
2000
0000
3100
0100
,
0010
0001
1000
0010
,
0200
0000
0320
0000
,
1030
0001
0100
0001
,
1000
0100
0010
0001
,
1000
0100
1000
0001
,
0002
0000
2003
0000
,
3010
0100
0001
1000
,
0200
0000
0310
0010
,
0100
1000
0010
0100
,
0020
0000
2030
0000
,
3001
0100
0001
1000
,
0020
0000
0000
0030
,
1001
0000
0000
0000
;

//---------------dance-single - Copied from----------------
#NOTES:
     dance-single:
     Copied from:
     Beginner:
     2:
     0.138,0.200,0.016,0.098,0.000:
0000
0000
0000
0000
,
0000
0000
0000
0000
,
0000
0000
0000
0000
,
0000
0000
0000
0000
,
0020
0000
0030
0000
,
0020
0000
0030
0000
,
0020
0000
0030
0000
,
0100
0000
0000
1000
,
1000
0000
0000
0000
,
0001
0000
0001
0000
,
0001
0000
0000
0000
,
0100
0000
0100
0000
,
0100
0000
0000
0000
,
1000
0000
1000
0000
,
1000
0000
0000
0000
,
0010
0000
0000
0000
,
0001
0000
0000
0000
,
0100
0100
0000
0000
,
1000
0000
0000
0000
,
0020
0000
0030
0000
,
1000
0000
0000
0000
,
0001
0001
0000
0000
,
0100
0000
0000
0000
,
0010
0000
0000
0000
,
1000
0000
1000
0000
,
1000
0000
0000
0000
,
0001
0000
0001
0000
,
0001
0000
0000
0000
,
0010
0000
0010
0000
,
0010
0000
0000
0000
,
0200
0000
0300
0000
,
0020
0000
0030
0000
,
1001
0000
0000
0000
,
0001
0000
0010
0000
,
0010
0000
0000
0000
,
2000
0000
3000
0000
,
1001
0000
0000
0000
,
1000
0000
1000
0000
,
0100
0000
0000
0000
,
0002
0000
0003
0000
,
2000
0000
3000
0000
,
0010
0000
0000
0000
,
1000
0000
1000
0000
,
1000
0000
0000
0000
,
0100
0000
0100
0000
,
0100
0000
0000
0000
,
0010
0000
0010
0000
,
0010
0000
0000
0000
,
0001
0000
0000
0000
,
0100
0000
0000
0000
,
0010
0000
0000
0000
,
1000
0000
0000
0000
,
0001
0000
0000
0000
,
0010
0000
0000
0000
,
0100
0000
0000
0000
,
1000
0000
0000
0000
,
0001
0000
0001
0001
,
0001
0000
1000
0000
,
0001
0000
0000
0000
,
0100
0000
0100
0000
,
0002
0000
0003
0000
,
1000
0000
0010
0000
,
1000
0000
0000
0000
,
0001
0000
0100
0000
,
0020
0000
0030
0000
,
0200
0000
0300
0000
,
0001
0000
0000
0000
,
0010
0000
0010
0000
,
0100
0000
0000
0000
,
1000
0000
1000
0000
,
0001
0000
0000
0000
,
0100
0000
0100
0000
,
0010
0000
0000
0000
,
0010
0000
0000
0000
,
1000
0000
0000
0000
,
0001
0000
0001
0000
,
1000
0000
0000
0000
,
1000
0000
1000
0000
,
0100
0000
0000
0000
,
0010
0000
0010
0000
,
0100
0000
0000
0000
,
0010
0000
0000
0000
,
1000
0000
0000
0000
;

//---------------dance-single - Copied from----------------
#NOTES:
     dance-single:
     Copied from:
     Medium:
     6:
     0.483,0.501,0.269,0.310,0.000:
0000
0000
0000
0000
,
0000
0000
0000
0000
,
0000
0000
0000
0000
,
0000
0000
0000
0000
,
0010
0000
0100
0001
0000
0001
1000
0000
,
0010
0000
1000
0100
0000
0100
0010
0000
,
0001
0000
1000
0001
0000
0001
0100
0000
,
0010
1000
0001
1001
,
0010
0100
0010
0100
,
0002
0103
2000
3100
,
0010
0100
0010
0001
,
1000
0100
0010
0110
,
1001
0001
0100
0010
,
2000
3001
0002
0103
,
0010
0100
0001
1000
,
0001
0100
0010
1000
,
0100
1000
0010
0100
,
0002
2003
3010
0100
,
0010
0000
0001
0000
1000
0000
0001
0100
,
0010
0010
1000
1100
,
1000
0001
0100
0010
,
2000
3002
0103
0010
,
0100
0000
0001
0000
1000
0000
0100
0010
,
0001
0200
0320
2030
,
3001
0000
0100
0000
0010
0000
1000
0001
,
1000
0000
0001
0100
0001
0000
1000
0000
,
0010
0000
0100
0000
0001
0000
0010
0100
,
1000
0000
0010
0100
0001
0000
1000
0000
,
1000
0000
0001
0000
0001
0000
0100
0010
,
1000
0000
0010
0100
0010
0000
1000
0000
,
0110
0001
1000
0001
,
0110
0000
1001
0000
1000
0001
1000
0000
,
0110
1000
0010
2000
,
0001
0000
3001
0100
0001
0000
0000
0000
,
1000
0100
0010
0000
0001
0000
0100
0000
,
0020
2030
3002
0103
,
1001
0001
0100
0020
,
1000
0000
1030
0001
0100
0000
0000
0000
,
0010
1000
0100
0001
,
0010
1000
0010
0100
0001
0000
1000
0000
,
0002
0000
0003
0101
,
1001
0100
0010
1000
,
0002
0013
0200
1300
,
1000
0010
0100
0001
,
0010
0001
1000
0110
,
1001
0001
1000
0100
,
2000
3010
0002
0013
,
0100
1000
0010
0100
,
0001
0100
0010
1000
,
1001
0001
0001
0101
,
1100
1000
0110
1000
,
1001
0100
0100
0110
,
1010
0100
0011
1000
,
0110
0001
0001
1001
,
1010
0001
0110
0001
,
2000
3200
0320
0032
,
0103
0000
0100
0000
0010
0100
0010
1000
,
0001
1000
0001
0020
,
0100
0000
0130
0010
0001
0000
0000
0000
,
1000
0010
0100
0000
0001
0010
0100
1000
,
0010
0010
0200
0310
,
1001
0010
0001
0002
,
1000
0000
1003
0010
0100
0000
0000
0000
,
0001
0010
0100
0000
1000
0100
0010
0000
,
0001
1000
0001
1000
0001
0100
0001
0100
,
0010
0000
0010
0000
0010
1000
0001
0000
,
0110
1000
0001
0010
,
0200
1300
0020
0130
,
0001
0100
1000
0010
,
0100
0001
0001
0110
,
1001
0001
1000
0010
,
0200
0310
0200
0301
,
1000
0100
0010
0100
0000
0010
0001
2000
,
0000
3001
0100
0000
0100
0000
0100
0000
,
1001
0010
0001
1000
,
0020
0130
0002
1003
,
0010
0100
0001
0010
,
0100
1000
0001
0110
,
1001
0100
0010
1000
,
0200
1300
0002
0103
,
0010
0100
0010
1000
0000
0001
0100
0002
,
0000
1003
0100
0000
0010
0000
0001
0000
,
1001
0000
0000
0000
;

//---------------dance-single - Copied from----------------
#NOTES:
     dance-single:
     Copied from:
     Hard:
     8:
     0.593,0.568,0.367,0.334,0.000: // measure 1
0000
0000
0000
0000
,  // measure 2
0000
0000
0000
0000
,  // measure 3
0000
0000
0000
0000
,  // measure 4
0000
0000
0000
0000
,  // measure 5
0010
0000
0100
0010
1000
0010
0100
0000
,  // measure 6
0001
0000
1000
0100
0010
0001
0010
0000
,  // measure 7
0001
0000
0100
0010
1000
0001
0010
0000
,  // measure 8
0200
2300
3020
0230
,  // measure 9
0301
0100
0010
1000
,  // measure 10
0101
1000
1100
1000
,  // measure 11
0010
0000
0100
0000
0001
0000
1000
0100
,  // measure 12
0010
0000
0001
0100
0010
1000
0010
0100
,  // measure 13
0001
0000
1000
0000
0100
0000
0010
0100
,  // measure 14
0010
0000
0001
0100
0001
0000
1000
0000
,  // measure 15
0010
0100
0001
0020
0000
0130
1000
0020
,  // measure 16
0000
0130
0002
0000
2003
0000
3002
0000
,  // measure 17
0103
0010
0100
0000
0001
0100
0001
1000
,  // measure 18
0100
1000
0010
0100
,  // measure 19
0001
0010
0100
0000
0010
0100
1000
0000
,  // measure 20
0110
1001
0011
1100
,  // measure 21
0010
0100
0001
0000
1000
0100
0010
0000
,  // measure 22
0200
2300
3002
0203
,  // measure 23
0310
0100
0010
0000
1000
0100
0010
0001
,  // measure 24
0100
0002
0023
0130
,  // measure 25
0011
0000
1000
0000
0010
0100
0001
0010
,  // measure 26
0200
0000
1300
0010
0100
0000
0001
0000
,  // measure 27
1000
0000
0100
0000
1000
0010
0100
0001
,  // measure 28
2000
0000
3100
0010
0001
0000
0110
0000
,  // measure 29
0011
0000
0100
0000
0010
1000
0010
0100
,  // measure 30
0020
0000
1030
0100
0010
0000
0001
0000
,  // measure 31
2000
3200
2300
3010
,  // measure 32
0110
0000
1001
0000
0001
0100
1000
0000
,  // measure 33
0110
0000
0100
0010
0100
0000
0001
0100
,  // measure 34
0000
0101
0000
1000
0100
0000
1000
0000
,  // measure 35
0010
0100
0010
0100
1000
0100
0001
1000
,  // measure 36
0200
0310
2002
3003
,  // measure 37
0110
0000
1000
0100
0010
0000
0100
1000
,  // measure 38
0000
1001
0000
0010
0100
0010
1000
0000
,  // measure 39
0001
0010
0100
1000
0100
0001
0100
1000
,  // measure 40
0010
0100
0001
0100
0010
0100
0010
1000
,  // measure 41
0002
0000
0203
0000
0310
1000
0001
0000
,  // measure 42
1001
0000
0100
0000
0010
1000
0100
0002
,  // measure 43
0000
0103
1000
0010
1000
0000
0100
0000
,  // measure 44
1000
1000
0100
0010
0001
0000
0100
0002
,  // measure 45
0000
0013
0100
0000
0010
0001
0110
0000
,  // measure 46
0101
0000
1000
0001
0010
0001
0100
0020
,  // measure 47
0000
0000
1030
0100
0010
0001
1000
0000
,  // measure 48
2000
0001
3020
0100
,  // measure 49
0130
0001
0100
1000
0100
0001
1000
0010
,  // measure 50
0100
0000
0010
0000
0100
0010
1000
0001
,  // measure 51
0100
0000
0100
0001
1000
0000
0010
0000
,  // measure 52
1000
0000
0100
0000
0010
0001
0100
0010
,  // measure 53
1000
0000
0001
0100
0001
0000
1001
0000
,  // measure 54
0110
0000
1000
0000
0001
0010
0100
1000
,  // measure 55
0010
0000
0100
0010
0100
0000
0001
0000
,  // measure 56
2000
3200
0320
0031
,  // measure 57
0110
0000
1001
0000
1000
0100
1000
0100
,  // measure 58
1001
0000
0010
0100
0010
0000
1000
0010
,  // measure 59
0000
1010
0000
0001
0100
0000
0010
0000
,  // measure 60
0100
0001
0100
0010
0100
0000
0010
1000
,  // measure 61
0002
1003
0220
0330
,  // measure 62
1001
0000
0010
0001
0010
0000
0001
1000
,  // measure 63
0000
0110
0000
0100
0010
0000
0001
0000
,  // measure 64
1000
0100
0001
0100
1000
0010
0100
0001
,  // measure 65
0100
0010
0100
0010
1000
0100
1000
0100
,  // measure 66
0001
0000
0100
0000
1000
0010
1010
0000
,  // measure 67
0101
0100
0010
1000
,  // measure 68
0011
0001
0101
1000
,  // measure 69
0110
1000
0001
0100
,  // measure 70
0110
1000
1010
0101
,  // measure 71
0110
0100
0001
1000
,  // measure 72
0110
1000
1100
1000
,  // measure 73
0001
0100
0001
2000
0000
3010
0100
0002
,  // measure 74
0000
1003
0100
0000
0100
0000
0100
0000
,  // measure 75
1001
0000
0001
0100
0010
1000
0001
1000
,  // measure 76
0000
0001
0010
0100
0010
0000
1001
0000
,  // measure 77
0110
0000
0010
0100
0010
1000
0001
0100
,  // measure 78
0000
0001
1000
0100
0010
0000
0101
0000
,  // measure 79
1001
0000
1000
0100
0010
0001
0010
0001
,  // measure 80
0000
1000
0010
0100
0001
0000
0100
0000
,  // measure 81
0001
1000
0100
0002
0000
0103
1000
0002
,  // measure 82
0000
0103
0001
0000
0010
0000
0100
0000
,  // measure 83
0110
0000
0000
0000
;
