#TITLE:Holiday with Mia Fey;
#SUBTITLE:;
#ARTIST:OA;
#TITLETRANSLIT:;
#SUBTITLETRANSLIT:;
#ARTISTTRANSLIT:;
#GENRE:;
#CREDIT:;
#MENUCOLOR:#3333FF;
#NEWMETERSYSTEM:NO;
#BANNER:Holiday with Mia Fey-bn.png;
#BACKGROUND:Holiday with Mia Fey-bg.png;
#LYRICSPATH:;
#CDTITLE:;
#MUSIC:Holiday with Mia Fey.mp3;
#OFFSET:-0.660;
#SAMPLESTART:31.540;
#SAMPLELENGTH:13.800;
#SELECTABLE:YES;
#LISTSORT:;
#BPMS:0.000=100.000;
#STOPS:;
#BGCHANGES:;
#ATTACKS:;

//---------------dance-single - ----------------
#NOTES:
     dance-single:
     :
     Easy:
     3:
     0.199,0.240,0.091,0.227,0.000:
0000
0000
0000
0000
,
0010
0000
0100
0010
,
1000
0000
0001
0100
,
0010
0000
1000
0100
,
0001
0000
0100
0010
,
0001
0000
0100
0010
,
0100
0000
0010
1000
,
0100
0000
1000
0001
,
0001
0000
0010
0100
,
2000
0000
3002
0000
,
0103
0010
0100
0000
,
0001
0010
0100
1000
,
0011
0110
1100
0000
,
2000
0000
0000
3000
0000
0000
0100
0000
,
0010
0100
0001
1000
,
0020
0000
0000
0030
0000
0000
0100
0000
,
0001
1000
0100
0000
,
0200
0000
0000
0300
0000
0000
0010
0000
,
1000
0001
0010
0001
,
2000
0000
0000
3000
0000
0000
0001
0000
,
0010
0100
0000
0000
,
1001
0000
0100
0000
,
0010
0100
0001
0000
,
1000
0000
0100
0000
,
0010
0010
0001
0100
,
0020
0000
1000
0000
,
0230
0000
0302
0000
,
0023
0000
0001
0000
,
0230
0000
2300
0000
,
3200
0000
1000
0000
,
0320
0000
0230
0000
,
0320
0000
0000
0000
,
0031
0100
1001
0110
,
2002
0000
0000
3003
0000
0000
0100
0000
,
0010
0100
0001
1000
,
2020
0000
0000
3030
0000
0000
0100
0000
,
0001
0010
0001
1000
,
0022
0000
0000
0033
0000
0000
0100
0000
,
0010
0001
1000
0010
,
0220
0000
0000
0330
0000
0000
0010
0000
,
0100
0001
1000
0100
,
1000
1000
0000
0001
0001
0000
0100
0000
,
0010
0000
0000
0000
,
0100
0000
0000
0000
0000
0000
0000
0000
0001
0000
0000
0000
2000
0000
0000
3000
;

//---------------dance-single - Copied from----------------
#NOTES:
     dance-single:
     Copied from:
     Beginner:
     1:
     0.130,0.160,0.082,0.191,0.000:
0000
0000
0000
0000
,
1001
0000
0010
0000
,
0100
0000
1000
0000
,
0001
0000
0100
0000
,
0010
0000
0010
0000
,
1000
0000
0100
0000
,
0001
0000
0100
0000
,
0010
0000
0001
0000
,
1000
0000
0010
0000
,
0200
0000
0300
0000
,
0002
0000
0003
0000
,
1000
1000
1000
0000
,
0010
0010
0010
0000
,
0220
0000
0000
0330
0000
0000
0000
0000
,
0001
0000
0001
0000
,
2002
0000
0000
3003
0000
0000
0000
0000
,
1000
0000
1000
0000
,
0220
0000
0000
0330
0000
0000
0000
0000
,
0010
0000
0010
0000
,
2002
0000
0000
3003
0000
0000
0000
0000
,
0100
0000
0100
0000
,
0001
0000
0000
0000
,
1000
0000
0000
0000
,
0100
0000
0010
0000
,
0200
0000
0300
0000
,
1000
0000
0000
0000
,
0100
0000
0010
0000
,
0001
0000
0000
0000
,
0100
0000
0001
0000
,
1000
0000
0000
0000
,
0100
0000
0100
0000
,
1000
0000
0000
0000
,
0020
0000
0030
0000
,
0220
0000
0000
0330
0000
0000
0000
0000
,
0001
0000
0001
0000
,
2002
0000
0000
3003
0000
0000
0000
0000
,
1000
0000
1000
0000
,
0220
0000
0000
0330
0000
0000
0000
0000
,
0010
0000
0010
0000
,
2002
0000
0000
3003
0000
0000
0000
0000
,
0100
0000
0100
0000
,
0010
0000
0010
0000
,
0001
0000
0000
0000
,
1000
0000
0000
0000
0000
0000
0000
0000
0010
0000
0000
0000
0020
0000
0000
0030
;

//---------------dance-single - Copied from----------------
#NOTES:
     dance-single:
     Copied from:
     Medium:
     5:
     0.328,0.280,0.082,0.127,0.055:
0000
0000
0000
0000
,
0110
0000
0001
0100
0001
1000
0100
1000
,
0000
0000
0010
0100
0010
1000
0100
0010
,
0000
0000
0001
1000
0100
1000
0010
0100
,
0000
0000
1000
0100
0010
0100
1000
0001
,
0000
0000
0010
0001
0100
0001
0010
0100
,
0000
0000
0010
0001
1000
0100
1000
0010
,
0000
0000
0001
0100
0001
1000
0010
0100
,
0000
0000
0100
1000
0010
0100
0001
1000
,
0001
0000
0000
0001
0100
0000
0010
0000
,
1000
0100
1000
0000
1001
0000
0100
0000
,
0010
0001
0100
0010
1000
0000
0001
0000
,
0101
0000
1010
0000
1001
0000
0000
0010
,
0010
0000
0000
0100
0000
0000
0010
0000
0000
0000
1000
0000
0100
0000
0000
0000
,
0001
0010
0100
1000
0000
0000
0010
0000
,
1000
0000
0000
0001
0000
0000
1000
0000
0000
0000
0100
0000
0010
0000
0000
0000
,
0200
0000
0000
2300
0000
0000
3002
0000
0000
0000
0000
0000
0103
0000
0010
0000
,
0100
0000
0000
0001
0000
0000
0100
0000
0000
0000
0010
0000
0100
0000
0000
0000
,
0001
1000
0100
0010
0000
0000
0100
0000
,
0010
0000
0000
0010
0000
0000
0001
0000
0000
0000
1000
0000
0100
0000
0000
0000
,
1000
1000
0100
0010
0001
0000
0100
0000
,
0010
0000
0100
0000
0001
0000
1000
0100
,
0010
0000
0100
1000
0001
0000
0100
0000
,
0001
0001
0100
0100
,
0010
0100
0010
0000
1000
0010
1000
0000
,
0101
0000
0100
0000
0010
0000
0100
0020
,
1000
0030
1000
0200
0010
0300
0010
0002
,
1000
0000
1000
0000
1000
0003
0100
0020
,
1000
0030
0100
2000
0100
3000
0100
0020
,
0001
0000
0001
0000
0001
0030
0001
0200
,
0010
0300
0010
2000
0100
3000
0100
1000
,
0001
0010
0100
1000
,
0001
0010
0100
1000
1001
0000
0110
0000
,
1001
0000
0000
0001
0000
0000
0100
0000
0000
0000
0000
0000
0010
0000
0000
0000
,
1000
0100
0010
0001
0000
0000
0100
0000
,
0010
0000
0000
0100
0000
0000
0010
0000
0000
0000
1000
0000
0100
0000
0000
0000
,
2000
0000
0000
3200
0000
0000
0320
0000
0000
0000
0000
0000
0031
0000
0100
0000
,
0001
0000
0000
0001
0000
0000
1000
0000
0000
0000
0000
0000
0010
0000
0000
0000
,
0100
0010
0100
0001
0000
0000
1000
0100
,
0010
0000
0000
0100
0000
0000
1000
0000
0000
0001
0000
0000
0100
0000
0001
0000
,
0010
0100
0010
0001
0100
0000
0100
0000
,
1000
0010
0000
0001
0010
0000
1000
0010
,
0001
0010
1000
0001
,
0100
0000
0000
0000
0001
0000
0000
0000
0100
0000
0000
0000
0001
0000
1000
0001
;

//---------------dance-single - Copied from ----------------
#NOTES:
     dance-single:
     Copied from:
     Hard:
     8:
     0.484,0.520,0.182,0.237,0.291: // measure 1
0000
0000
0000
0000
,  // measure 2
0010
0000
0000
0000
0100
0010
1000
0000
0100
0000
1000
0010
0100
0000
0001
0000
,  // measure 3
1000
0000
0000
0000
0010
0001
0100
0000
0010
0000
1000
0100
1000
0000
0010
0100
,  // measure 4
0010
0000
0000
0000
0100
0001
0100
0000
0010
0000
1000
0100
1000
0000
0010
0000
,  // measure 5
0100
0000
0000
0000
0001
1000
0100
0000
0010
0000
0100
0010
0001
0000
1000
0000
,  // measure 6
0010
0000
0000
0000
0100
0001
1000
0000
0010
0000
1000
0100
0001
0000
0100
0000
,  // measure 7
1000
0000
0000
0000
0010
1000
0100
0000
0001
0000
0100
0010
0001
0000
1000
0000
,  // measure 8
0010
0000
0000
0000
0010
0100
0001
0000
1000
0000
0010
0100
1000
0000
0100
0000
,  // measure 9
0001
0000
0000
0000
1000
0100
0010
0000
0001
0000
0100
0010
1000
0000
0001
0000
,  // measure 10
0010
0000
0100
0010
1010
0100
1000
0100
,  // measure 11
0010
0001
0100
0010
0100
1000
0100
0001
,  // measure 12
0010
0100
0010
0100
1000
0100
1000
0010
,  // measure 13
0100
0000
0000
0000
0000
0000
0001
0000
0100
0000
0001
0000
0100
0000
0000
0000
0000
0000
0010
0000
0000
0000
0000
0000
1001
0000
0000
0000
0000
0000
0000
0000
0000
0000
0000
0000
0000
0000
0000
0000
0000
0000
1000
0000
0000
0100
0000
0000
,  // measure 14
0020
0000
0000
0230
0000
0000
0320
0000
0000
0030
0001
0000
0100
0000
0010
0000
,  // measure 15
1000
0000
0100
0000
0001
0000
0100
0000
0000
0000
1000
0000
1000
0000
0001
0010
,  // measure 16
0200
0000
0000
2300
0000
0000
3020
0000
0000
0030
0100
0000
0001
0000
1000
0000
,  // measure 17
0011
0000
0000
0110
0000
0000
1100
0000
0000
0000
0010
0000
0010
0000
0100
0010
,  // measure 18
0200
0000
0000
0302
0000
0000
0203
0000
0000
0300
0010
0000
1000
0000
0100
0000
,  // measure 19
1000
0000
0001
0000
0100
0000
1000
0000
0000
0000
0100
0000
0010
0000
1000
0100
,  // measure 20
2000
0000
0000
3020
0000
0000
0230
0000
0000
0302
0000
0000
0103
0000
0100
0000
,  // measure 21
0010
0000
1010
0000
0110
0000
0101
0000
0001
0100
1000
0100
0001
1000
0100
0000
,  // measure 22
1000
0000
0000
1010
0000
0000
0100
0000
0000
0000
0010
0000
0100
0000
0010
0001
,  // measure 23
1000
0000
0000
0110
0000
0000
1000
0000
0010
0000
0000
0000
0100
0000
0000
0000
,  // measure 24
0010
0000
0000
1001
0000
0000
0010
0000
0000
0000
0100
0000
0000
0000
0001
0000
,  // measure 25
0001
0100
0100
0010
0010
1000
1000
0100
,  // measure 26
1001
0000
0010
0000
0100
0000
0010
1000
,  // measure 27
0100
0000
0010
0100
0010
0000
0001
0010
,  // measure 28
0100
0000
0100
0000
0010
0000
0100
0010
,  // measure 29
0001
0000
0010
1000
0100
0000
0010
0100
,  // measure 30
0001
0000
1000
0000
0010
0000
1000
0100
,  // measure 31
0010
0000
0100
0010
0100
0000
0010
0001
,  // measure 32
0010
0001
0100
0100
0001
0001
0010
0000
,  // measure 33
0100
1000
0100
0010
0001
0100
1000
0100
0010
0000
0100
0000
1001
0000
0001
0100
,  // measure 34
2000
0000
0000
3200
0000
0000
0302
0000
0000
0003
1000
0000
0100
0000
1000
0000
,  // measure 35
0010
0000
0010
0000
0100
0000
0001
0000
0000
0000
0010
0000
0010
0000
0100
1000
,  // measure 36
0020
0000
0000
0230
0000
0000
0320
0000
0000
0030
1000
0000
0001
0000
0001
0000
,  // measure 37
1100
0000
0000
0110
0000
0000
0011
0000
0000
0001
0100
0001
1000
0000
0100
1000
,  // measure 38
0020
0000
0000
0230
0000
0000
0320
0000
0000
0030
1000
0000
0100
0000
0010
0000
,  // measure 39
0001
0000
0010
0000
0100
0000
1000
0000
0000
0010
0100
0001
0100
0000
0001
0010
,  // measure 40
0002
0000
0000
0203
0000
0000
0320
0000
0000
2030
0000
0000
3100
0000
1000
0000
,  // measure 41
0010
0000
0101
0000
0011
0000
1100
0000
1000
0010
0100
0001
1000
0001
0100
0000
,  // measure 42
0010
0100
0010
0100
0000
0000
0001
0100
0001
0100
0000
0000
1000
0000
0100
0000
,  // measure 43
1001
0000
0000
0000
0010
0000
0000
0000
0010
0000
0000
0000
0010
0000
0100
0010
,  // measure 44
0100
0000
0000
0000
0100
0000
0000
0000
0001
0000
0000
0000
0001
1000
0001
1000
;
