#TITLE:ひぐらしのなく頃に;
#SUBTITLE:;
#ARTIST:島宮えい子;
#TITLETRANSLIT:Higurashi no Naku Koro ni;
#SUBTITLETRANSLIT:;
#ARTISTTRANSLIT:Eiko Shimamiya;
#GENRE:;
#CREDIT:;
#MENUCOLOR:#FF33CC;
#NEWMETERSYSTEM:NO;
#BANNER:Higurashi no Naku Koro ni-bn.png;
#BACKGROUND:Higurashi no Naku Koro ni-bg.png;
#LYRICSPATH:;
#CDTITLE:PROJECT VIRIDIAN-cdtitle.png;
#MUSIC:Higurashi no Naku Koro ni.mp3;
#OFFSET:-0.960;
#SAMPLESTART:74.100;
#SAMPLELENGTH:12.000;
#SELECTABLE:YES;
#LISTSORT:;
#BPMS:0.000=105.000;
#STOPS:;
#BGCHANGES:;
#ATTACKS:;

//---------------dance-single - ----------------
#NOTES:
     dance-single:
     :
     Easy:
     3:
     0.208,0.237,0.052,0.060,0.000:
0000
0000
0000
0000
,
0000
0000
0000
0000
,
0000
0000
0000
0000
,
0000
0000
0000
0000
,
0100
0000
0100
0000
,
0100
0000
0100
0000
,
0100
0000
0100
0000
,
0100
0000
0100
1001
,
0010
0100
0001
1000
,
0100
0001
0100
1000
,
0010
0100
0001
0010
,
0000
0001
0100
1000
,
0010
0001
0100
0001
,
1000
0100
0010
0010
,
1000
0001
0100
0010
,
0100
0010
0010
1001
,
0000
0010
0100
0000
,
0010
0100
0010
0000
,
1000
0100
0010
0001
,
0100
0010
0100
1000
,
0000
0001
1000
0000
,
0001
1000
0010
0000
,
0100
0010
0100
0100
,
0010
1000
0002
0023
,
0130
0000
0100
0100
,
1000
0000
1000
0010
,
0100
0000
0001
0010
,
0001
0000
0001
0101
,
1100
0000
0100
0010
,
0100
0000
0100
1000
,
1000
0000
0010
0100
,
0001
0001
1000
0020
,
0130
0001
0100
1000
,
0100
0001
0100
1000
,
0100
0010
1000
0010
,
0100
0010
1000
0010
,
0001
0010
1000
0100
,
0001
0100
1000
0010
,
0100
0001
0010
0100
,
1000
0001
2000
3200
,
0310
0000
0000
0000
,
1001
0010
0001
0100
,
0010
1000
0010
0000
,
0100
0010
0100
0001
,
0010
0100
1000
0010
,
0100
0010
1000
0001
,
0001
0010
0100
1000
,
0010
0100
0001
1000
,
0010
0001
0010
1000
,
2002
0000
0000
0000
0000
0000
0000
0000
0000
0000
0000
3003
;

//---------------dance-single - Copied from----------------
#NOTES:
     dance-single:
     Copied from:
     Beginner:
     1:
     0.097,0.128,0.017,0.069,0.000:
0000
0000
0000
0000
,
0000
0000
0000
0000
,
0000
0000
0000
0000
,
0000
0000
0000
0000
,
0001
0000
0000
0000
,
1000
0000
0000
0000
,
0001
0000
0000
0000
,
1000
0000
0000
0100
,
0100
0000
0010
0000
,
0100
0000
0000
0000
,
1000
0000
0001
0000
,
0000
0010
0010
0000
,
0001
0000
0100
0000
,
0010
0000
0000
0000
,
1000
0000
0100
0000
,
0000
0001
0001
0000
,
0100
0000
0000
0000
,
0010
0000
0000
0000
,
0100
0000
1000
0000
,
0100
0000
0000
0000
,
0001
0000
0100
0000
,
0001
0000
0100
0000
,
0010
0000
0000
0000
,
1000
0000
0010
0010
,
0020
0000
0030
0000
,
0001
0000
1000
0000
,
0200
0000
0300
0000
,
2000
0000
3000
0000
,
0020
0000
0030
0000
,
0200
0000
0300
0000
,
0000
0001
0000
0001
,
0002
0000
0003
0000
,
0110
0000
0010
0000
,
1000
0000
0010
0000
,
0100
0000
0000
0000
,
0001
0000
0000
0000
,
0010
0000
0100
0000
,
1000
0000
0010
0000
,
0100
0000
0000
0000
,
0001
0000
0001
0000
,
0002
0000
0003
0000
,
1100
0000
0001
0000
,
1000
0000
0000
0000
,
0010
0000
0001
0000
,
0100
0000
0000
0000
,
1000
0000
0001
0000
,
0100
0000
0000
0000
,
0010
0000
0100
0000
,
0001
0000
0000
0000
,
0200
0000
0300
0000
;

//---------------dance-single - Copied from----------------
#NOTES:
     dance-single:
     Copied from:
     Medium:
     5:
     0.318,0.345,0.069,0.078,0.013:
0000
0000
0000
0000
,
0000
0000
0000
0000
,
0000
0000
0000
0000
,
0000
0000
0000
0000
,
0010
1000
0010
1000
,
0100
1000
0100
1000
,
0001
0100
0001
0100
,
0001
1000
0001
1001
,
0010
0100
0010
1000
0100
0010
0001
0000
,
0100
0000
0001
1000
0001
0000
0010
0000
,
0100
1000
0010
0100
0001
0000
1000
0000
,
0000
0010
0100
0000
0010
1000
0001
0000
,
0100
0001
1000
0100
1000
0010
0100
0000
,
0001
0000
0100
0000
1000
0100
0001
0000
,
0100
1000
0010
0100
0001
1000
0001
0000
,
0010
0010
0100
0100
0010
0001
2000
0000
,
3100
0000
0001
0000
0100
0000
1000
0010
,
0100
0000
0010
0000
1000
0001
0100
0010
,
0200
0000
0001
0000
0001
0000
0010
0301
,
0002
1000
0100
1003
,
0001
0100
0010
0000
1000
0000
1000
0000
,
0100
0010
1000
0010
0001
0000
0100
0010
,
2000
0000
0100
0000
0001
0000
0100
3010
,
0020
0100
1030
1001
,
0010
0100
0001
0000
1000
0100
0010
0000
,
0100
0000
0000
0000
1000
0000
0000
0000
0001
0000
0000
1000
0000
0000
0010
0000
,
0100
0001
1000
0000
1000
0100
0010
0000
,
0100
0001
0100
0000
1000
0000
0010
0000
,
0100
0010
0100
0000
0001
1000
0001
0000
,
0100
0000
0010
0000
1000
1000
0010
0100
,
0000
0000
0001
0000
0010
0000
0100
0000
1000
0000
0000
0001
0000
0000
0100
0000
,
0001
0000
1000
0100
0010
0001
0200
0000
,
0300
0010
1000
0100
0001
0000
1001
0000
,
0000
0001
1000
0100
0010
0000
1001
0000
,
0000
0100
0010
0100
0001
0000
1000
0000
,
0000
0001
0100
0010
1000
0001
1000
0000
,
0000
1000
0100
0001
0100
0000
1001
0000
,
0000
0010
0100
0001
0100
0000
1001
0000
,
0000
0100
0010
1000
0100
0010
0001
0000
,
0100
0000
0001
0000
0100
0000
0000
0000
0010
0000
0000
0010
0000
0000
1000
0000
,
0200
0000
0300
0000
,
1100
0000
0010
0000
0100
0010
0001
0000
,
0100
0001
1000
0010
0100
0000
0001
0000
,
1000
0100
0010
0100
,
1000
0010
0100
0001
1000
0000
0010
0000
,
0100
0010
1000
0001
0010
0000
0100
1000
,
0100
1000
0010
0100
,
0001
0010
0100
0010
0001
0000
1000
0000
,
0100
1000
0100
0000
0010
0100
0001
0000
,
0022
0000
0000
0000
0000
0000
0000
0000
0000
0000
0000
0033
;

//---------------dance-single - Copied from----------------
#NOTES:
     dance-single:
     Copied from:
     Hard:
     7:
     0.377,0.388,0.078,0.052,0.026: // measure 1
0000
0000
0000
0000
,  // measure 2
0000
0000
0000
0000
,  // measure 3
0000
0000
0000
0000
,  // measure 4
0000
0000
0000
0000
,  // measure 5
1000
0010
0100
0001
,  // measure 6
1000
0001
1000
0001
0010
0000
0010
0000
,  // measure 7
0100
1000
0010
0100
,  // measure 8
0001
0100
0001
0100
0010
0000
1010
0000
,  // measure 9
0101
1000
0100
0010
0100
1000
0001
0100
,  // measure 10
0001
0001
0010
0001
0100
1000
0100
0000
,  // measure 11
0010
1000
0100
0100
1000
0010
0100
0001
,  // measure 12
0000
1000
0100
0001
0100
1000
0010
0000
,  // measure 13
0100
0010
0100
0010
1000
0100
0001
0100
,  // measure 14
1000
0010
0100
0001
0010
0100
1000
0000
,  // measure 15
0001
0010
0001
0100
0010
0100
0010
1000
,  // measure 16
0000
0100
1000
0010
0100
0001
0010
0000
,  // measure 17
0011
0001
0100
0000
0010
1000
0100
0000
,  // measure 18
0010
0010
0100
0000
1000
1000
0100
0000
,  // measure 19
0020
0000
0001
0000
0100
0000
0031
0010
,  // measure 20
0200
0000
1000
0000
0010
1000
1300
0000
,  // measure 21
1010
0100
0010
0000
0100
0001
1000
0000
,  // measure 22
0010
0010
1000
0000
0100
0100
0001
0000
,  // measure 23
0200
0000
0010
0000
1000
0000
0301
0001
,  // measure 24
2000
0100
0010
3001
,  // measure 25
1001
0000
0100
0010
0100
0000
1000
0001
,  // measure 26
0100
0000
0010
0000
1001
0000
0000
0000
0010
0000
0000
0010
0000
0000
0100
0000
,  // measure 27
0010
1000
0100
0000
0010
0100
1000
0001
,  // measure 28
0100
0001
0010
0000
1000
0000
0010
0000
,  // measure 29
0101
0000
0001
0000
1000
0001
0100
0100
,  // measure 30
0010
0000
0010
0000
0100
0010
1000
0001
,  // measure 31
0010
0000
0001
0000
0100
0000
0000
0000
1000
0000
0000
0100
0000
0000
0010
0000
,  // measure 32
0001
0000
0001
0000
0100
0000
0010
0100
0010
0000
1000
0000
0001
1000
0001
1000
,  // measure 33
0100
0010
0001
0010
1000
0010
0001
0100
,  // measure 34
0000
0010
1000
0010
0100
0001
1000
0001
,  // measure 35
0000
1000
0100
0001
0010
1000
0001
0000
,  // measure 36
0100
0010
0010
1000
0001
0100
0010
0000
,  // measure 37
1001
0100
0010
0100
1000
0001
0100
0010
,  // measure 38
0000
0100
0001
1000
0010
0100
0010
1000
,  // measure 39
0000
0100
0001
0100
1000
0010
0100
0001
,  // measure 40
0000
0000
1000
0000
0100
0000
0000
0000
0010
0000
0000
0010
0000
0000
0001
0000
,  // measure 41
0200
0000
0000
0300
,  // measure 42
1001
0010
0100
0001
1000
0100
0001
0100
,  // measure 43
1000
0010
0100
0001
1000
0100
1000
0001
,  // measure 44
0100
0001
0010
0100
1000
0010
0100
0001
,  // measure 45
0000
0100
0001
0100
1000
0100
0001
0000
,  // measure 46
1000
0010
0001
0010
1000
0001
0100
1000
,  // measure 47
0100
0001
0010
0100
1000
0010
0100
0001
,  // measure 48
0100
0010
1000
0010
0100
0010
1000
0100
,  // measure 49
0000
0010
0001
1000
0001
0010
1000
0000
,  // measure 50
0020
0000
0000
0000
0000
0000
0000
0000
0000
0000
0000
0030
;

//---------------dance-single - Copied from ----------------
#NOTES:
     dance-single:
     Copied from:
     Challenge:
     9:
     0.539,0.538,0.086,0.035,0.522: // measure 1
0000
0000
0000
0000
,  // measure 2
0000
0000
0000
0000
,  // measure 3
0000
0000
0000
0000
,  // measure 4
0000
0000
0000
0000
,  // measure 5
1000
0001
0000
0100
0001
1000
0100
0000
,  // measure 6
0010
0100
1000
0010
0100
0001
1000
0000
,  // measure 7
0010
0100
0010
0000
1000
0100
1000
0000
,  // measure 8
0001
0100
0001
1000
0001
0010
0000
0000
,  // measure 9
1001
0000
0100
0000
0001
0100
0000
0100
0000
0010
1000
0000
0100
1000
0010
0100
,  // measure 10
0001
0000
1000
0000
0010
1000
0000
0100
0000
0010
0100
0000
1000
0010
1000
0001
,  // measure 11
0100
0000
0001
0000
0010
0001
0000
1000
0000
0100
1000
0000
0010
0100
0010
1000
,  // measure 12
0100
0000
0010
0000
0100
0010
0000
0100
0010
0000
0001
0000
0100
0000
0000
0000
,  // measure 13
0001
0000
0100
0000
0001
1000
0000
0010
0000
1000
0010
0000
0100
0001
0100
0001
,  // measure 14
0010
0000
0100
0000
1000
0010
0000
0100
0000
0001
0010
0000
0100
1000
0010
0100
,  // measure 15
0001
0000
1000
0000
0100
1000
0000
0001
0000
0100
0001
0000
1000
0100
0010
0001
,  // measure 16
0100
0000
0001
0000
1000
0100
0000
1000
0100
0000
0010
0000
0001
0000
0000
0000
,  // measure 17
0101
0000
0001
0000
1000
0100
0000
0010
0100
0000
1000
0000
0010
0000
0100
0000
,  // measure 18
0001
0000
0010
0100
1000
0100
0000
0010
0001
0000
0100
0000
0010
0000
0100
0010
,  // measure 19
1000
0000
0001
0000
0100
0000
0001
0000
1000
0000
0100
0000
0010
0000
0001
0100
,  // measure 20
0010
0000
0100
0000
1000
0000
0100
1000
0010
0000
0100
0000
0001
1000
0001
1000
,  // measure 21
0100
0000
0010
0000
0100
1000
0000
0001
0100
0000
0001
0000
1000
0000
0100
0000
,  // measure 22
1000
0000
0010
0100
0010
0100
0000
0001
0010
0000
0001
0000
1000
0100
0010
0001
,  // measure 23
0100
0000
0000
0000
0010
0000
0000
0000
0100
0000
0010
0000
1000
0000
0001
0100
,  // measure 24
0001
1000
0100
1000
0010
0010
0100
0101
,  // measure 25
1100
0000
1000
0000
0100
0000
1000
0100
0010
0000
0100
0000
1000
0000
0001
0100
,  // measure 26
0001
0000
0010
0000
0001
0000
0100
0000
0010
0000
1000
0010
0001
0000
1000
0000
,  // measure 27
0100
0000
1000
0010
0100
0000
0001
0000
0100
0000
0001
0000
0010
0000
0100
0000
,  // measure 28
1000
0000
0010
0100
0001
0000
0010
0000
0010
0000
0100
0000
1010
0000
0100
0000
,  // measure 29
0011
0000
0001
0000
1000
0000
0100
0000
1000
0000
0010
0000
0100
0000
0001
0010
,  // measure 30
0100
1000
0010
0100
0001
1000
1000
0100
,  // measure 31
0010
0000
0100
1000
0010
1000
0100
0000
0011
0000
0000
1001
0000
0000
1100
0000
,  // measure 32
0100
0000
0010
0100
0010
0000
1000
0100
0010
0000
0001
0000
0100
0001
0100
0001
,  // measure 33
1000
0000
0100
1000
0010
0000
0100
0010
0000
0100
0001
0000
0010
0000
0100
0000
,  // measure 34
1000
0000
0001
0010
0001
0000
0100
0001
0000
0010
0100
0000
1000
0000
0010
0000
,  // measure 35
0100
0000
0010
0000
1000
0000
0010
0100
0000
0010
0100
0000
0001
0000
1000
0000
,  // measure 36
0010
0000
1000
0100
0001
0000
0100
1000
0010
0000
0100
0000
0100
0010
1000
0010
,  // measure 37
1000
0000
0001
0100
0001
0000
1000
0100
0000
0100
1000
0000
0010
0000
0100
0000
,  // measure 38
0001
0000
0010
0001
0100
0000
0010
0100
0000
0100
0001
0000
1000
0000
0100
0000
,  // measure 39
1000
0000
0010
0000
0100
0000
0001
1000
0000
1000
0100
0000
1000
0000
0010
0000
,  // measure 40
0100
0000
0001
0000
0200
0000
0010
0000
0310
0000
0000
1000
0000
0000
0001
0000
,  // measure 41
0020
0000
0000
0000
0000
0000
0000
0000
0030
0000
0000
0000
0000
0000
1000
0001
,  // measure 42
1000
0000
0100
0000
1000
0010
0000
0100
0000
0010
0100
0000
0001
0010
0100
1000
,  // measure 43
0001
0000
0100
0000
0001
0010
0000
0100
0000
1000
0100
0000
1000
0010
0100
0001
,  // measure 44
0010
0000
0100
0000
0010
1000
0000
0010
0000
0001
0100
0000
0010
0100
0001
0100
,  // measure 45
0010
0000
1000
0000
0010
1000
0000
1000
0100
0000
0010
0000
0001
0000
0100
0000
,  // measure 46
0001
0000
1000
0000
0010
0100
0000
0010
0000
1000
0001
0000
0010
0001
0010
0100
,  // measure 47
0010
0000
0001
0000
1000
0010
0000
1000
0000
0001
0010
0000
0001
0100
1000
0100
,  // measure 48
0001
0000
1000
0000
1000
0100
0000
0001
0000
0100
1000
0000
0001
0100
0010
1000
,  // measure 49
0001
0000
0100
0000
0001
0010
0000
0010
0100
0000
1000
0000
0001
0000
0010
0000
,  // measure 50
2002
0000
0000
0000
0000
0000
0000
0000
0000
0000
0000
3003
;
