#TITLE:ハマってサボっておーまいがっ!;
#SUBTITLE:;
#ARTIST:Aya Hirano, Emiri Kato, Kaori Fukuhara and Aya Endo;
#TITLETRANSLIT:Hamatte Sabotte Oh My God!;
#SUBTITLETRANSLIT:;
#ARTISTTRANSLIT:;
#GENRE:;
#CREDIT:;
#MENUCOLOR:#FF33CC;
#NEWMETERSYSTEM:NO;
#BANNER:Hamatte Sabotte Oh My God!-bn.png;
#BACKGROUND:Hamatte Sabotte Oh My God!-bg.png;
#LYRICSPATH:;
#CDTITLE:PROJECT VIRIDIAN-cdtitle.png;
#MUSIC:Habotte Sabotte Oh My God!.mp3;
#OFFSET:-0.780;
#SAMPLESTART:58.620;
#SAMPLELENGTH:12.000;
#SELECTABLE:YES;
#LISTSORT:;
#BPMS:0.000=170.000;
#STOPS:;
#BGCHANGES:;
#ATTACKS:;

//---------------dance-single - ----------------
#NOTES:
     dance-single:
     :
     Easy:
     4:
     0.321,0.339,0.040,0.152,0.000:
0000
0000
0000
0000
,
0000
0000
0000
0000
,
0000
0000
0000
0000
,
0000
0000
0000
0000
,
0001
0000
0100
0000
,
1000
0000
0100
0000
,
0001
0001
0100
0000
,
1000
1000
0001
1001
,
0100
1000
0100
0010
,
0001
0100
0010
0000
,
0001
0010
0100
0010
,
0001
0001
1000
0000
,
0001
0010
1000
0010
,
0100
0001
0010
0000
,
0010
0001
0100
0010
,
2000
0000
0001
3001
,
0100
0010
0000
0010
,
1000
0010
0000
0100
,
0001
0100
0000
0100
,
0010
0100
0000
0010
,
1000
0001
0000
0001
,
0010
0100
0000
0100
,
1000
0001
0000
0001
,
0010
0001
0000
0001
,
1000
0100
0000
0100
,
0100
0010
0000
0010
,
0100
1000
0000
1000
,
0010
0100
0000
0100
,
0001
0010
0000
0010
,
0100
0010
0000
0010
,
0001
1000
0000
1000
,
0100
0001
0000
0001
,
0100
0100
0100
0100
,
0010
0010
0010
0010
,
0001
0001
1000
0001
,
1000
1000
0001
1000
,
0010
0010
0010
0010
,
0100
0100
0100
0100
,
0002
0010
0013
0000
,
2000
0100
3100
0000
,
2002
0000
0000
3003
,
0010
0100
0010
0100
,
0010
1000
0010
0000
,
0001
0010
0001
0010
,
0001
0100
0001
0000
,
1000
0100
1000
0100
,
1000
0010
1000
0000
,
0020
0130
0020
1030
,
0020
0130
0010
0000
,
0100
0001
0100
0001
,
0100
0010
0100
0000
,
0001
1000
0001
1000
,
0001
0100
0001
0000
,
1000
0100
1000
0100
,
1000
0010
1000
0000
,
2000
0000
0200
0000
,
3300
0000
0000
0000
,
0010
1000
0010
0100
,
0001
0010
0100
0000
,
1000
0010
0100
0001
,
1000
0001
0010
0000
,
0100
0001
0100
1000
,
0100
0010
0100
0000
,
0002
1003
0020
1030
,
0200
1300
1000
0000
,
0100
0010
0100
0001
,
1000
0100
0010
0000
,
0001
0100
0001
1000
,
0010
1000
0001
0000
,
1000
0100
0010
0100
,
1000
0001
0010
0000
,
0002
0000
0020
0000
,
0033
0000
0000
1001
,
0010
0000
0100
0000
,
0010
0100
0010
0000
,
1000
0000
0001
0000
,
1000
0100
1000
0000
,
0001
0010
0001
0010
,
0000
0100
1000
0100
,
2000
3010
0200
0301
,
0000
0010
0010
0100
,
0010
0001
0010
0001
,
0000
1000
1000
0100
,
1000
0000
0001
0000
,
1000
0001
0011
0022
,
0033
0000
0000
0000
;

//---------------dance-single - Copied from----------------
#NOTES:
     dance-single:
     Copied from:
     Beginner:
     2:
     0.169,0.237,0.040,0.024,0.000:
0000
0000
0000
0000
,
0000
0000
0000
0000
,
0000
0000
0000
0000
,
0000
0000
0000
0000
,
0010
0000
0010
0000
,
0000
0000
0100
0000
,
1000
0000
0000
0000
,
0001
0000
0100
0000
,
1001
0000
0000
0000
,
0010
0000
0000
0000
,
1000
0000
0000
0000
,
0001
0000
1000
0000
,
0010
0000
0000
0000
,
0100
0000
0000
0000
,
0001
0000
0000
0000
,
0020
0000
0030
0000
,
1001
0000
0000
0000
,
0100
0000
0000
0000
,
1000
0000
0000
0000
,
0010
0000
0000
0000
,
0100
0000
0100
0000
,
0000
0001
0001
0000
,
1000
1000
0000
0000
,
0001
0000
0000
0000
,
0010
0000
0000
0000
,
0100
0000
0000
0000
,
1000
0000
0000
0000
,
0001
0000
0000
0000
,
1000
0000
1000
0000
,
0000
0001
0001
0000
,
0010
0010
0000
0000
,
1000
0000
0100
0100
,
0100
0000
0001
0000
,
1000
0000
0001
0000
,
1000
0000
0001
0000
,
1000
0000
0000
0010
,
0010
0000
0100
0000
,
0010
0000
0100
0000
,
0001
0000
0100
0000
,
1000
0000
0100
0000
,
2002
0000
3003
0000
,
0100
0100
0000
0100
,
0000
0100
0000
0100
,
0000
0010
0000
0010
,
0000
0010
0000
0010
,
0000
1000
0000
1000
,
0000
1000
0000
1000
,
0000
0001
0000
0001
,
0000
0001
0000
1001
,
0000
1000
0000
1000
,
0000
1000
0000
1000
,
0000
0010
0000
0010
,
0000
0010
0000
0010
,
0000
0100
0000
0100
,
0000
0100
0000
0100
,
0000
0001
0000
0001
,
0000
0000
0100
0100
,
0000
0010
0000
1000
,
0000
0010
0000
1000
,
0000
0001
0000
0100
,
0000
0001
0000
0100
,
0000
0010
0000
0100
,
0000
0010
0000
0100
,
0000
0001
0000
1000
,
0000
0001
0000
1001
,
0000
1000
0000
0100
,
0000
1000
0000
0100
,
0000
0010
0000
0001
,
0000
0010
0000
0001
,
0000
0100
0000
0010
,
0000
0100
0000
0010
,
0010
0000
1000
0000
,
0001
0000
0000
0000
,
0010
0000
0010
0000
,
0010
0000
0000
0000
,
0100
0000
0100
0000
,
0100
0000
0000
0000
,
0001
0000
0001
0000
,
0000
0000
1000
0000
,
0100
0000
0100
0000
,
0000
0000
0100
0000
,
0010
0000
0010
0000
,
0000
0000
0001
0000
,
1000
0000
0001
0000
,
0001
0000
1000
1000
;

//---------------dance-single - Copied from----------------
#NOTES:
     dance-single:
     Copied from:
     Medium:
     5:
     0.399,0.407,0.136,0.096,0.000:
0000
0000
0000
0000
,
0000
0000
0000
0000
,
0000
0000
0000
0000
,
0000
0000
0000
0000
,
1010
0100
0011
0100
,
0000
0001
0100
1000
,
0100
0001
0010
0100
,
1000
0000
0001
0000
0010
0010
0010
0000
,
0100
1000
0001
0100
,
0010
1000
0100
0010
,
0100
1000
0010
0100
,
0001
0010
0002
1003
,
0100
1000
0010
0100
,
0001
0010
0100
0010
,
0001
1000
0010
0100
,
0010
0000
1000
0000
0010
1000
0001
0000
,
0000
0000
0100
0000
0001
0100
0000
0000
,
0100
1000
0100
0010
,
0000
0000
0100
0000
1000
0010
0000
0000
,
1000
0100
0010
0100
,
0010
0001
1000
0000
1001
0000
0000
0000
,
0000
0001
0100
0010
,
1000
0010
0001
0000
0000
0000
0010
0000
,
1000
0010
0000
0010
,
1000
0000
0100
0000
1000
0001
0000
0000
,
0010
0001
0100
0010
,
0000
0000
1000
0000
0010
0100
0000
0000
,
0001
0010
0001
1000
,
0100
1000
0010
0000
1001
0000
0000
0000
,
0000
1000
0010
0100
,
0001
1000
0001
0000
0010
0000
0001
0000
,
0100
0010
1000
1001
,
1001
0000
0010
0000
0100
0000
0010
0100
,
0000
0010
0100
0000
0010
0000
1000
0001
,
0000
1000
0001
0000
0100
0000
0000
0001
,
0000
1000
0010
0101
,
1010
0000
0100
0000
0010
0000
1000
0100
,
0000
1000
0100
0000
0010
0000
0001
0000
,
0100
0000
0000
0001
0000
1000
0000
0000
,
0010
0000
0000
0100
0000
0010
0000
0000
,
2002
3003
0220
0330
,
0001
0000
0000
0100
0001
0000
1000
0000
,
0000
0100
1000
0000
0001
0000
0100
0000
,
0010
0000
1000
0100
0010
0000
0001
0000
,
0001
0000
0010
0100
1000
0000
1000
0000
,
0010
0000
0000
0100
0010
0000
0001
0000
,
0000
1000
0001
0000
0100
0000
0010
0000
,
0100
0001
0100
0001
,
1000
0010
1010
0101
,
1000
0000
0000
0100
0010
0000
0001
0000
,
0000
0100
0010
0000
1000
0000
0001
0000
,
0100
0000
0001
1000
0001
0000
0100
0000
,
0100
0000
1000
0001
1000
0000
0100
0000
,
0010
0100
0001
1000
,
0100
0000
0000
0010
0000
0000
0010
0000
,
0100
0000
0000
1000
0000
0000
0001
0000
,
0100
0000
0010
0000
0100
0001
0100
0000
,
0010
0000
0000
1000
0100
0000
0010
0000
,
0000
0001
0100
0000
0010
0000
1000
0000
,
0100
0000
1000
0001
0100
0000
0010
0000
,
1000
0000
0001
1000
0100
0000
0010
0000
,
0001
0000
0000
1000
0100
0000
1000
0000
,
0000
0001
0100
0000
0010
0000
0100
0000
,
0010
1000
0010
0001
,
0010
0001
1000
0000
0011
0000
1010
0000
,
0100
0000
0000
0010
0100
0000
0001
0000
,
0000
1000
0100
0000
0010
0000
0001
0000
,
1000
0000
1000
0001
0100
0000
0010
0000
,
0100
0000
0010
1000
0100
0000
0010
0000
,
0100
1000
0001
0100
,
0010
0100
0001
1000
,
0001
0011
0100
1100
,
1001
0000
0000
0010
,
0100
0000
0000
0000
0010
0000
0000
0200
,
0000
0320
0000
2030
0000
0000
3001
0000
,
0100
0000
0000
0000
0001
0000
0000
0020
,
0000
0032
0000
0203
0000
0000
0301
0000
,
1000
0000
0100
0000
1000
0000
0010
0100
,
0000
0001
0100
1000
,
0100
0000
0001
0000
0100
0000
0001
0010
,
0000
0100
0100
1000
,
0010
0000
1000
0000
0001
0000
0100
0001
,
0000
1000
0100
0010
,
0100
1000
0001
0100
,
0001
0000
1000
0000
1000
0100
0002
0000
,
0003
0000
0000
0000
;

//---------------dance-single - Copied from----------------
#NOTES:
     dance-single:
     Copied from:
     Hard:
     7:
     0.506,0.541,0.080,0.207,0.000:
0000
0000
0000
0000
,
0000
0000
0000
0000
,
0000
0000
0000
0000
,
0000
0000
0000
0000
,
0011
0100
1010
0100
,
1000
0010
0001
0000
0001
0010
1000
0000
,
0001
0100
0001
0100
,
0010
1000
0010
1000
0100
0010
0001
0000
,
0100
0001
0100
0000
1000
0100
1000
0000
,
0010
0100
0001
0010
,
0100
1000
0100
0000
0010
0001
0010
0000
,
0100
0000
0010
0000
0010
0001
0001
0000
,
0100
1000
0100
1000
,
0010
0001
0010
0001
,
0100
0010
0100
0000
0010
1000
0010
0000
,
0100
0000
0001
0010
0001
0010
0200
0000
,
1300
0000
0010
0000
1000
0010
1000
0000
,
0100
0000
1000
0000
0010
0001
0010
0000
,
0100
0000
0010
0000
1000
0001
0010
0000
,
0100
0000
0010
0000
0001
1000
0001
0000
,
1000
0100
1000
0000
1100
0000
1000
0000
,
0010
1000
0100
0010
0001
0000
0100
0000
,
0010
0100
0010
1000
0000
0000
0010
0000
,
1000
0010
1000
0002
0000
2000
0003
0000
,
3001
0000
0100
0000
0010
1000
0010
0000
,
0100
0000
0001
0000
0010
0001
0010
0000
,
0100
0000
1000
0000
0010
1000
0001
0000
,
0100
0001
0010
0000
0100
1000
0010
0000
,
0100
0010
0100
0000
1001
0000
0100
0000
,
0010
1000
0001
0010
0100
0000
0010
0000
,
0100
1000
0001
0100
0000
0000
0010
0000
,
1000
0010
0100
0001
0000
0000
1002
0000
,
0103
0010
1000
0000
1000
0000
0001
0100
,
0000
0001
0100
0000
0010
1000
0100
1000
,
0000
0010
1000
0000
0100
0000
1000
0010
,
0000
0100
0001
0000
1000
0000
2100
0000
,
3010
0100
0001
0000
0010
0000
0001
0010
,
0000
0001
0100
0000
0010
1000
0100
0010
,
0002
0000
1003
0200
0000
2300
0000
3010
,
0200
0000
0310
2000
0000
3002
0000
0000
,
0103
0000
0010
0010
,
1000
0100
0000
0010
0001
0000
0001
0100
,
0000
0010
1000
0000
0010
0100
0001
0000
,
1000
0000
0100
0010
0001
0000
1000
0000
,
0001
0000
1000
0100
0010
0000
0001
0000
,
0100
0010
0000
0001
0100
0000
1000
0100
,
0000
0001
0010
0000
1000
0000
0001
0000
,
0200
0001
0301
0000
0020
1000
1030
0000
,
0100
0010
0100
0010
0100
0000
1001
0000
,
1000
0001
0000
0010
0100
0000
0001
1000
,
0000
0100
0010
0000
1000
0100
1000
0010
,
0100
0000
0001
0100
1000
0000
1000
0000
,
1001
0000
0001
0100
1000
0000
1000
0000
,
0100
0010
1000
0100
,
0010
0001
0100
0001
0010
0000
0010
0000
,
0002
0000
0000
2003
0000
0000
3000
0000
,
1000
0000
1000
0000
1000
0001
1000
0001
,
0100
0010
0000
1000
0001
0000
1000
0100
,
0000
0001
0010
0000
0100
0000
1000
0000
,
0010
0100
0001
0100
0000
0100
0010
0000
,
1000
0100
1000
0001
0000
0001
0100
0000
,
1000
0100
0000
0100
0010
0000
0010
0001
,
0000
0001
0100
0000
0010
1000
0000
1000
,
0200
1000
1300
0000
0020
0001
0031
0000
,
1000
0001
1000
0001
1000
0000
0110
0000
,
0010
1000
0000
0100
0001
0000
0010
1000
,
0000
0100
0001
0000
1000
0100
0010
0000
,
0001
0000
1000
0010
0100
0000
0001
0000
,
0001
0000
1000
0010
0100
0000
0010
0000
,
1000
0001
0100
0001
,
0010
0001
1000
0001
0100
0000
0010
1000
,
0200
0000
0000
2300
0000
0000
3020
0000
,
0130
0000
0000
0110
,
0001
0100
0000
0000
0001
0100
0000
0010
,
0000
0010
0000
2000
0000
0000
3100
0000
,
1000
0010
0000
0000
1000
0010
0000
0100
,
0000
0100
0000
0002
0000
0000
0013
0000
,
1000
0000
0001
1000
0001
0000
1000
0001
,
1000
0010
0010
0100
,
0002
0023
0230
2300
,
3100
0100
0100
0100
,
1000
0000
0010
0100
0010
0000
1000
0100
,
1000
0001
0100
0010
,
1000
0001
1000
0001
,
1000
0000
0100
0000
0010
0010
0010
0000
;

//---------------dance-single - Copied from----------------
#NOTES:
     dance-single:
     Copied from:
     Challenge:
     8:
     0.597,0.609,0.072,0.200,0.000:
0000
0000
0000
0000
,
0000
0000
0000
0000
,
0000
0000
0000
0000
,
0000
0000
0000
0000
,
1000
0000
0010
0010
0100
0000
0001
0001
,
0100
1000
0100
0000
0001
0010
0001
0000
,
0100
1000
0010
0100
0010
1000
0100
0010
,
0001
1000
0100
0010
0001
0001
1000
0000
,
0001
0000
0100
0000
0010
1000
0010
0000
,
0100
0001
0010
0100
0000
0010
0001
0000
,
1000
0100
1000
0000
0010
0100
0010
0000
,
0001
1000
0001
0100
0000
0010
1000
0000
,
1000
0100
0010
0000
0010
0100
1000
0000
,
0001
0100
0010
1000
0000
0100
0010
0000
,
0001
0100
1000
0000
1000
0010
0001
0000
,
0001
0010
1000
0010
0100
1000
0002
0000
,
0103
0010
0100
1000
0100
0000
0100
0000
,
1000
0010
0100
0001
1000
0000
1001
0000
,
0010
0001
0010
0001
0100
0000
0100
0000
,
0010
0100
0010
0000
0100
0010
0100
0000
,
0001
0100
0001
0000
2000
0000
0100
0000
,
3100
1000
0010
0100
0001
0000
1000
0000
,
0001
0000
0010
0001
0000
0001
0100
0000
,
0010
0000
0100
0010
0000
0010
1000
0000
,
0100
1000
0010
0000
0100
0001
0010
0000
,
0001
0100
0001
1000
0100
0010
0001
0000
,
1000
0010
1000
0000
0001
0100
0001
0000
,
0100
0010
0100
0001
0100
1000
0100
0000
,
0010
0001
1000
0000
0002
0000
0100
0000
,
0103
0001
1000
0010
0100
0000
0001
0000
,
1000
0100
0010
0100
0000
1000
0001
0000
,
0100
0001
0100
0010
0000
0100
0002
0000
,
2003
0010
3010
0000
0100
0000
0010
0100
,
0010
0000
1000
0100
1000
0001
0100
0000
,
0001
0010
0001
0000
1000
0100
1000
0010
,
0000
0100
0010
0000
0110
0000
2000
0000
,
3002
0010
0013
0000
0100
0000
1000
0010
,
0000
0100
0001
0000
0010
0001
0010
0100
,
2000
0000
3010
0200
0000
0302
0000
0013
,
0002
0000
1003
0200
0000
2300
0000
3000
,
1010
0000
1001
0101
,
1000
0100
0010
0001
0100
0000
0001
1000
,
0001
0100
0010
0000
1000
0100
1000
0000
,
0002
0000
0103
0010
1000
0100
0010
0000
,
0200
0000
1300
0010
0100
0001
1000
0000
,
1000
0100
0010
1000
0010
0000
0001
0100
,
0001
1000
0100
0000
1000
0001
0100
0000
,
0001
1000
0001
0000
1000
0001
1000
0000
,
0001
0100
1000
0100
0001
0000
1100
0000
,
0001
0100
0001
0010
0001
0000
1000
0010
,
1000
0100
1000
0000
0010
0100
0001
0000
,
2000
0000
3100
0010
0001
1000
0100
0000
,
0020
0000
0130
0010
1000
0010
0001
0000
,
1000
0000
0001
0100
0001
0000
1000
0010
,
0100
0010
0000
2000
0000
3001
0100
0010
,
1000
0100
0010
0002
0100
0000
0103
0000
,
0010
0000
0010
0000
1000
0010
1000
0010
,
1000
0100
0010
0001
1000
0010
0001
0010
,
0100
0001
1000
0010
0100
0010
0100
0000
,
0002
0100
0103
0001
0010
0001
1000
0100
,
2000
0010
3010
1000
0100
1000
0001
0000
,
0100
0010
1000
0100
0010
0001
0010
0100
,
1000
0001
0100
0010
1000
0001
0100
0001
,
1000
0001
1000
0000
0001
0100
0001
0000
,
1000
0010
0001
0010
1000
0000
0110
0000
,
0100
0001
1000
0100
1000
0100
0010
0100
,
0001
0100
0010
0001
0100
0010
1000
0100
,
2000
0010
3010
0100
0010
1000
0001
0100
,
0020
1000
1030
0100
0010
0100
1000
0000
,
0001
1000
0001
0100
0010
0000
0100
1000
,
0010
0100
0001
2000
0000
3100
0010
0000
,
0001
0100
0010
2000
0100
0000
3100
0000
,
1001
0000
0000
0110
,
0001
0100
0000
0000
1000
0100
0000
1000
,
0000
0010
0000
0100
0000
0001
0100
0000
,
0010
1000
0000
0000
1000
0100
0000
0010
,
0000
0010
0000
0001
0000
0000
0100
0000
,
0001
0000
1000
0100
0001
0000
0001
0100
,
1000
0000
0010
0000
0100
0010
0100
0000
,
0001
0010
0001
0010
0001
0010
0001
0000
,
1000
0100
1000
0100
,
1000
0000
1000
0010
0100
0000
0001
1000
,
0000
0010
1000
0000
0001
1000
0001
0000
,
0001
0100
0001
0100
1000
0100
1000
0100
,
0001
0100
1000
0100
0001
1000
1000
0000
;
