#TITLE:Gee;
#SUBTITLE:;
#ARTIST:Girls' Generation;
#TITLETRANSLIT:;
#SUBTITLETRANSLIT:;
#ARTISTTRANSLIT:;
#GENRE:;
#CREDIT:;
#MENUCOLOR:#CC6666;
#NEWMETERSYSTEM:NO;
#BANNER:Gee-bn.png;
#BACKGROUND:Gee-bg.png;
#LYRICSPATH:Gee.lrc;
#CDTITLE:PROJECT VIRIDIAN-cdtitle.png;
#MUSIC:Gee.mp3;
#OFFSET:-1.600;
#SAMPLESTART:58.560;
#SAMPLELENGTH:12.600;
#SELECTABLE:YES;
#LISTSORT:;
#BPMS:0.000=100.000,32.000=200.000,224.000=100.000,256.000=200.020;
#STOPS:;
#BGCHANGES:;
#ATTACKS:;

//---------------dance-single - ----------------
#NOTES:
     dance-single:
     :
     Easy:
     3:
     0.280,0.369,0.100,0.200,0.000: // measure 1
0000
0000
0000
0000
,  // measure 2
0000
0000
0000
0000
,  // measure 3
0000
0000
0000
0000
,  // measure 4
2000
0000
3002
0000
,  // measure 5
0103
0100
0100
0000
,  // measure 6
0010
0010
0010
0000
,  // measure 7
1000
0001
1000
0000
,  // measure 8
1001
1001
1001
0000
,  // measure 9
0100
1000
0100
0000
,  // measure 10
1000
0000
0001
0000
,  // measure 11
0010
0010
0001
0000
,  // measure 12
0100
0000
0001
0000
,  // measure 13
2000
0000
3020
0000
,  // measure 14
0130
0000
0100
0000
,  // measure 15
0002
0000
0023
0000
,  // measure 16
0031
0000
0100
0000
,  // measure 17
1000
0000
0010
0000
,  // measure 18
0100
0010
0100
0000
,  // measure 19
0001
0000
0010
0000
,  // measure 20
0100
0010
0001
0000
,  // measure 21
2000
0000
3002
0000
,  // measure 22
1003
0000
0010
0000
,  // measure 23
0200
0000
0320
0000
,  // measure 24
2000
0000
3030
0000
,  // measure 25
1001
0000
0100
0000
,  // measure 26
0010
0010
1000
0000
,  // measure 27
0001
0000
0010
0000
,  // measure 28
0100
0100
1000
0000
,  // measure 29
0002
0000
0100
0000
,  // measure 30
2003
0000
3010
0000
,  // measure 31
0100
0000
0010
0000
,  // measure 32
1000
0100
1000
0000
,  // measure 33
0001
0000
0100
0000
,  // measure 34
0001
0001
0010
0000
,  // measure 35
0001
0000
1000
0000
,  // measure 36
0100
1000
0010
0000
,  // measure 37
0100
0000
0010
0000
,  // measure 38
0100
0000
0010
0010
,  // measure 39
0100
0000
0100
0000
,  // measure 40
0200
0000
0010
0310
,  // measure 41
1001
0000
1001
0000
,  // measure 42
0100
0100
0010
0000
,  // measure 43
1000
1000
0001
0001
,  // measure 44
2000
0000
3001
0000
,  // measure 45
0010
0000
1000
0000
,  // measure 46
0001
0100
0001
0000
,  // measure 47
0100
0100
0001
0001
,  // measure 48
0020
0000
0031
0000
,  // measure 49
1001
0000
1001
0000
,  // measure 50
0010
0100
0010
0000
,  // measure 51
0001
0001
0010
0010
,  // measure 52
0200
0000
1300
0000
,  // measure 53
0010
0000
1000
0000
,  // measure 54
0001
0000
0000
0000
,  // measure 55
0100
0000
0010
0000
,  // measure 56
1000
0001
1000
0000
,  // measure 57
0110
0000
1000
0001
,  // measure 58
0010
0000
0100
0010
,  // measure 59
1000
0001
0002
0000
,  // measure 60
1003
1100
0010
0011
,  // measure 61
0100
0100
0010
0010
,  // measure 62
1000
1000
0001
0001
,  // measure 63
1000
0100
0010
0001
,  // measure 64
0220
0000
0000
0330
,  // measure 65
0001
0100
0001
0000
,  // measure 66
1000
0100
1000
0000
,  // measure 67
0010
1000
0010
1000
,  // measure 68
0200
0000
0310
0000
,  // measure 69
0100
1000
0010
0000
,  // measure 70
0100
0001
0010
0000
,  // measure 71
0100
0010
0100
0010
,  // measure 72
0002
0000
0013
0000
,  // measure 73
1000
0010
0001
0000
,  // measure 74
0001
0010
1000
0000
,  // measure 75
0001
0100
0001
0100
,  // measure 76
0020
0000
1030
0000
,  // measure 77
0100
0000
1000
0000
,  // measure 78
0001
0000
0000
0000
,  // measure 79
0100
0000
0001
0000
,  // measure 80
1000
0001
1000
0000
,  // measure 81
0020
0000
0000
0030
;

//---------------dance-single - Copied from----------------
#NOTES:
     dance-single:
     Copied from:
     Beginner:
     1:
     0.133,0.233,0.042,0.166,0.000:
0000
0000
0000
0000
,
0000
0000
0000
0000
,
0000
0000
0000
0000
,
0001
0000
0001
0000
,
0010
0000
0000
0000
,
0100
0000
0000
0000
,
1000
0000
0000
0000
,
0020
0000
0000
0030
,
0010
0000
0000
0000
,
0100
0000
0000
0000
,
1000
0000
0000
0000
,
0001
0000
0000
0000
,
2000
0000
3000
0000
,
0200
0000
0300
0000
,
0020
0000
0030
0000
,
0002
0000
0003
0000
,
0010
0000
0000
0000
,
0001
0000
0000
0000
,
1000
0000
0000
0000
,
0010
0000
0000
0000
,
0200
0000
0300
0000
,
0002
0000
0003
0000
,
2000
0000
3000
0000
,
0010
0000
0000
0000
,
1001
0000
0000
0000
,
1000
0000
0000
0000
,
0100
0000
0000
0000
,
1000
0000
0000
0000
,
0010
0000
0000
0000
,
0010
0000
0000
0000
,
0200
0000
0300
0000
,
0002
0000
0000
0000
,
0000
0003
0000
0000
,
0000
0000
0000
0000
,
0100
0000
0000
0000
,
1000
0000
0000
0000
,
0010
0000
0000
0000
,
0001
0000
0000
0000
,
0100
0000
0100
0000
,
0100
0000
0000
0000
,
0220
0000
0330
0000
,
0100
0000
0000
0000
,
0010
0000
0010
0000
,
0010
0000
0000
0000
,
1000
0000
0000
0000
,
0100
0000
0000
0000
,
0001
0000
0001
0000
,
0001
0000
0000
0000
,
2002
0000
3003
0000
,
0010
0000
0000
0000
,
1000
0000
1000
0000
,
1000
0000
0000
0000
,
0200
0000
0000
0000
,
0300
0000
0000
0000
,
0020
0000
0000
0000
,
0030
0000
0000
0000
,
1001
0000
0010
0000
,
0100
0000
1000
0000
,
0001
0000
0010
0000
,
0010
0000
0100
0000
,
0010
0000
1000
0000
,
1000
0000
0001
0000
,
0100
0000
0010
0000
,
2002
0000
3003
0000
,
0010
0000
0010
0000
,
0000
0000
0100
0000
,
0100
0000
0000
0000
,
0010
0000
0000
0000
,
1000
0000
1000
0000
,
0000
0000
0001
0000
,
0001
0000
0000
0000
,
0100
0000
0000
0000
,
0001
0000
0001
0000
,
0000
0000
0010
0000
,
0010
0000
0000
0000
,
0100
0000
0000
0000
,
2000
0000
0000
0000
,
3000
0000
0000
0000
,
0002
0000
0000
0000
,
0003
0000
0000
0000
,
0010
0000
0000
0000
;

//---------------dance-single - Copied from----------------
#NOTES:
     dance-single:
     Copied from:
     Medium:
     6:
     0.475,0.571,0.391,0.341,0.008: // measure 1
0000
0000
0000
0000
,  // measure 2
0000
0000
0000
0000
,  // measure 3
0000
0000
0000
0000
,  // measure 4
0200
0010
0320
1000
,  // measure 5
1030
0100
0000
0100
0000
2002
0000
3003
,  // measure 6
0000
0010
0000
0010
0000
2002
0000
3003
,  // measure 7
0000
0100
0000
1000
0000
2002
0000
3003
,  // measure 8
0100
0010
0100
0010
0100
0010
0010
0000
,  // measure 9
1000
0100
0010
0001
,  // measure 10
0100
0100
0002
2003
,  // measure 11
3010
0000
0010
0000
1000
0000
0001
0100
,  // measure 12
0000
0001
1000
0000
,  // measure 13
0100
1000
0100
1000
,  // measure 14
0010
0000
0000
0010
0000
0000
1010
0000
,  // measure 15
1000
0100
0010
0100
,  // measure 16
0010
0000
0000
0010
0000
0000
0011
0000
,  // measure 17
0001
0100
0001
0000
,  // measure 18
1000
0100
0010
0010
,  // measure 19
0100
1000
0010
0000
,  // measure 20
0100
0001
1000
0000
,  // measure 21
0010
1000
0010
1000
,  // measure 22
0001
0000
0000
0001
0000
0000
0011
0000
,  // measure 23
0001
0010
0100
1000
,  // measure 24
0100
0000
0000
0100
0000
1000
0100
1000
,  // measure 25
0100
1000
0010
0100
,  // measure 26
0001
0001
0020
0130
,  // measure 27
0100
1000
0010
1000
,  // measure 28
0001
1000
2000
3100
,  // measure 29
0010
0010
0001
0001
,  // measure 30
0100
0010
1000
0001
,  // measure 31
1000
0100
0100
1000
,  // measure 32
0010
0100
0001
0020
,  // measure 33
0100
0100
0130
1000
,  // measure 34
0100
1000
0010
0100
,  // measure 35
0002
0013
0100
1000
,  // measure 36
0001
0100
1000
0100
,  // measure 37
0020
1030
0100
1000
,  // measure 38
0001
1001
0010
0100
,  // measure 39
2000
0100
3200
0010
,  // measure 40
0320
0001
0001
0130
,  // measure 41
1001
0000
0100
0000
1001
0000
0010
0100
,  // measure 42
0000
0010
0001
0100
,  // measure 43
1010
1010
0101
0101
,  // measure 44
2001
0000
3100
0000
,  // measure 45
0010
0000
1000
0000
0001
0000
0100
0001
,  // measure 46
0000
0010
0100
1000
,  // measure 47
0011
0011
1100
1100
,  // measure 48
1002
0000
0013
0000
,  // measure 49
0110
0000
1000
0000
0110
0000
0001
0100
,  // measure 50
0000
0010
0100
0001
,  // measure 51
1010
0101
0011
1100
,  // measure 52
2002
0000
3003
0100
,  // measure 53
0020
0000
0000
2030
0000
0000
3200
0000
,  // measure 54
1300
0000
0010
0000
0100
0010
0001
0000
,  // measure 55
0200
0000
0000
0302
0000
0000
2003
0000
,  // measure 56
3010
0010
0020
0100
,  // measure 57
1030
0000
1000
0100
0001
0000
0100
0000
,  // measure 58
1000
0000
0001
0010
1000
0000
0010
0002
,  // measure 59
0100
0000
0100
1000
1003
0000
0100
1000
,  // measure 60
0010
0000
0000
0010
0000
0000
0000
0000
0100
0000
0000
0100
0000
0000
0000
0000
,  // measure 61
0010
1000
0010
1000
0002
0100
0000
0000
,  // measure 62
1003
0010
1000
0001
2000
0010
0000
0000
,  // measure 63
3001
0100
0010
0000
1000
0100
0010
0000
,  // measure 64
0200
0010
0010
0010
0310
0000
0110
0010
,  // measure 65
1010
0100
0101
1000
,  // measure 66
0001
0100
0001
0010
,  // measure 67
1100
0110
0011
1100
,  // measure 68
1001
0010
0100
0010
,  // measure 69
0001
0000
0100
0000
0010
0000
0100
0001
,  // measure 70
0000
1000
0100
1000
,  // measure 71
0110
1001
0110
0101
,  // measure 72
1010
0000
0100
0000
1000
0001
0100
0000
,  // measure 73
0110
0000
0001
0000
0110
0000
1000
0100
,  // measure 74
0000
0000
1000
0000
0010
1000
0001
0000
,  // measure 75
0101
0011
1010
1100
,  // measure 76
1001
0100
0010
1000
,  // measure 77
0200
0000
0000
2300
0000
0000
3002
0000
,  // measure 78
0013
0000
0100
0000
1000
0010
1000
0000
,  // measure 79
0020
0000
0000
0230
0000
0000
0302
0000
,  // measure 80
1003
0100
1000
0001
,  // measure 81
0202
0000
0000
0303
;

//---------------dance-single - Copied from ----------------
#NOTES:
     dance-single:
     Copied from:
     Hard:
     8:
     0.588,0.739,0.333,0.457,0.037: // measure 1
0000
0000
0000
0000
,  // measure 2
0000
0000
0000
0000
,  // measure 3
0000
0000
0000
0000
0000
0000
0000
0010
,  // measure 4
0110
0000
0000
1000
0000
0000
0001
0000
0101
0000
0000
0010
0000
0000
0001
0000
,  // measure 5
1000
0000
0100
0000
1000
0000
0100
0000
1000
0000
0010
0100
0000
0000
0010
0000
,  // measure 6
0100
0000
0001
0000
0100
0000
0001
0000
1000
0000
0010
1000
0000
0000
0010
0000
,  // measure 7
0100
0000
0010
0000
0100
0000
0010
0000
1000
0000
0100
0010
0000
0000
0100
0000
,  // measure 8
2002
3003
0220
0330
1001
0100
0010
0010
,  // measure 9
1000
0100
0001
0000
0100
0000
1000
0000
,  // measure 10
0010
0100
0001
0000
1000
0000
1001
0000
,  // measure 11
0010
0100
0010
0000
0100
0000
0001
0020
,  // measure 12
0001
0031
0100
1000
,  // measure 13
0200
0302
2003
3020
,  // measure 14
0130
0010
0100
0002
0000
1003
0100
0000
,  // measure 15
2000
3002
0023
0230
,  // measure 16
1300
0100
0010
0200
0000
1300
0010
0000
,  // measure 17
0100
0001
1000
0000
0100
0000
0010
0000
,  // measure 18
0100
1000
0100
0000
0010
0000
1001
0000
,  // measure 19
1000
0100
0010
0000
0100
0000
0001
0200
,  // measure 20
1000
1300
0100
0010
,  // measure 21
0200
2300
3002
0203
,  // measure 22
0310
0100
0001
2000
0000
3010
0100
0000
,  // measure 23
0002
0023
2030
3020
,  // measure 24
0031
0000
1000
0001
0000
1000
0001
1000
,  // measure 25
0100
0000
0010
0100
0000
0100
0010
0000
,  // measure 26
0100
0100
2000
0100
,  // measure 27
3010
0000
1000
0010
0000
0010
1000
0000
,  // measure 28
0001
0100
0002
0010
,  // measure 29
0103
0001
0100
0001
1000
0001
0100
0010
,  // measure 30
0100
0100
0010
0001
,  // measure 31
1000
0100
0010
0000
0100
0010
0100
0000
,  // measure 32
0100
0010
0001
0000
0100
0000
0200
0000
,  // measure 33
0010
0000
0020
0000
0330
0000
0001
0100
,  // measure 34
1000
0100
0010
1000
,  // measure 35
1010
0000
0001
0000
0010
0000
0100
0010
,  // measure 36
0001
0100
1000
0010
,  // measure 37
0001
1000
0100
0001
,  // measure 38
0110
0000
1001
0000
0100
0010
0100
1000
,  // measure 39
0002
0100
2003
0100
,  // measure 40
0020
3030
0100
0100
,  // measure 41
1001
0000
0011
0000
1001
0000
0100
0010
,  // measure 42
0000
0010
0100
0000
1000
0000
0001
0000
,  // measure 43
0100
0010
1000
0000
0010
0100
0001
0000
,  // measure 44
2000
0100
3020
0230
,  // measure 45
0301
0000
0100
0000
0101
0000
1000
0100
,  // measure 46
0000
0100
1000
0000
0010
0000
0100
0000
,  // measure 47
0001
0010
0100
0000
0010
0100
1000
0000
,  // measure 48
0010
0100
0010
0100
0001
0100
0001
0000
,  // measure 49
1100
0000
0011
0000
1100
0000
0010
0100
,  // measure 50
0000
0100
0001
0000
1000
0000
0100
0000
,  // measure 51
1000
0010
0001
0000
1000
0100
0001
0000
,  // measure 52
0100
1000
0010
0110
,  // measure 53
0102
0000
0000
2003
0000
0000
3010
0000
,  // measure 54
0110
0000
1000
0000
0100
1000
0001
0000
,  // measure 55
2100
0000
0000
3002
0000
0000
0023
0000
,  // measure 56
0031
0001
0101
0000
,  // measure 57
1020
0000
1000
0100
0001
0100
1000
0030
,  // measure 58
2100
0000
0001
0100
0010
0010
0100
3000
,  // measure 59
0102
0000
0010
0100
0010
1000
0100
1003
,  // measure 60
0100
0000
0000
1001
0000
0000
0001
0000
0100
0000
0000
1001
0000
0000
0100
0000
,  // measure 61
0010
0000
0100
0000
0010
0000
0100
0000
0001
0000
1000
0100
0000
0000
1000
0000
,  // measure 62
0010
0000
0100
0000
0001
0000
0100
0000
1000
0000
0100
0010
0000
0000
0100
0000
,  // measure 63
0001
0001
0001
0001
0010
0010
0010
0010
,  // measure 64
0200
1000
1000
1000
1300
0000
1010
0101
,  // measure 65
1001
0000
0110
0000
0101
0000
1000
0100
,  // measure 66
0000
0100
0010
0000
0100
0000
1000
0000
,  // measure 67
0001
0100
0010
0000
0100
0010
1000
0000
,  // measure 68
0200
1000
2300
3002
,  // measure 69
0013
0000
0100
0000
0110
0000
0100
1000
,  // measure 70
0000
0001
0010
0000
0100
0000
0010
0000
,  // measure 71
0001
0100
0001
0100
1000
0100
0010
0000
,  // measure 72
1000
0000
0100
0000
1000
0100
0010
0000
,  // measure 73
0110
0000
0110
0000
1001
0000
0010
0100
,  // measure 74
0000
0010
1000
0000
0100
0000
1000
0000
,  // measure 75
0010
0100
0001
0000
1000
0100
0010
0000
,  // measure 76
0100
0100
0001
0110
,  // measure 77
2100
0000
0000
3020
0000
0000
0230
0000
,  // measure 78
0310
0000
1000
0000
0001
0010
0100
0000
,  // measure 79
0021
0000
0000
0230
0000
0000
2300
0000
,  // measure 80
3100
0010
0001
0100
0010
1000
0010
0000
,  // measure 81
2002
0000
0000
3003
;
