#TITLE:GILGAMESH;
#SUBTITLE:;
#ARTIST:xRGTMx as Shaman X;
#TITLETRANSLIT:;
#SUBTITLETRANSLIT:;
#ARTISTTRANSLIT:;
#GENRE:;
#CREDIT:;
#MENUCOLOR:#3333FF;
#NEWMETERSYSTEM:NO;
#BANNER:GILGAMESH-bn.png;
#BACKGROUND:GILGAMESH-bg.png;
#LYRICSPATH:;
#CDTITLE:PROJECT VIRIDIAN-cdtitle.png;
#MUSIC:GILGAMESH.mp3;
#OFFSET:-0.060;
#SAMPLESTART:18.400;
#SAMPLELENGTH:11.420;
#SELECTABLE:YES;
#LISTSORT:;
#BPMS:0.000=170.000,244.000=85.000;
#STOPS:244.000=2.820
;
#BGCHANGES:;
#ATTACKS:;

//---------------dance-single - ----------------
#NOTES:
     dance-single:
     :
     Easy:
     5:
     0.323,0.401,0.295,0.197,0.000:
0000
0000
0000
0000
,
0000
0000
0000
0000
,
0000
0000
0000
0000
,
0000
0000
0000
0000
,
1010
0000
1010
0000
,
0101
0000
0101
0000
,
0001
0100
0001
0100
,
0010
1000
0010
1000
,
1001
0000
0110
0000
,
0110
0000
1001
0000
,
0020
0000
1000
0000
,
0200
0000
0000
0000
,
0000
0000
0330
0000
,
1000
0100
1000
0001
,
0010
0000
0010
0001
,
0100
0100
0010
0000
,
1000
0010
1000
0000
,
0001
0100
0010
1000
,
0001
1000
0100
0000
,
1000
0010
0001
0010
,
1000
0000
1001
0000
,
0010
0100
0001
0000
,
0010
0001
0100
0010
,
1000
0000
0100
0000
,
1000
0010
0100
0000
,
0010
0100
0001
1000
,
0100
0100
0010
0000
,
0100
1000
0010
0000
,
0100
0010
0100
0001
,
2000
0000
3100
0000
0000
0100
0000
0000
,
0010
0000
0000
0010
0000
0000
0001
0000
,
0002
0000
0103
0000
0000
0100
0000
0000
,
0010
0000
0000
1000
0000
0000
0010
0000
,
0200
0000
0301
0000
0000
1000
0000
0000
,
0001
0000
0000
0100
0000
0000
0010
0000
,
0020
0000
0130
0000
0000
0100
0000
0000
,
0001
0000
0000
1000
0000
0000
0010
0000
,
0000
0000
0101
0000
0000
1001
0000
0000
,
1100
0000
0000
1001
0000
0000
0010
0000
,
0000
0000
0110
0000
0000
1010
0000
0000
,
1001
0000
0000
0101
0000
0000
1000
0000
,
0000
0000
1100
0000
0000
0011
0000
0000
,
1001
0000
0000
0110
0000
0000
0010
0000
,
0000
0000
0101
0000
0000
0011
0000
0000
,
1010
0000
0000
1100
0000
0000
1000
0000
,
0100
1000
0010
0100
,
0001
1000
0001
0020
,
0030
0100
1000
0001
,
0100
1000
0100
0002
,
0003
0010
0100
0010
,
0001
1000
0010
2000
,
3000
0100
1000
0010
,
0100
0100
0001
2000
,
3000
0001
0010
0001
,
1000
0010
0100
0200
,
0300
0010
0100
0001
,
0010
1000
0010
0002
,
0003
0010
0010
0100
,
1000
0001
0100
2000
,
3000
0100
0010
1000
,
0010
0100
0001
1000
,
2001
0010
0000
3001
,
0120
1000
0000
1030
,
0201
0010
0000
0310
,
0012
1000
1000
1003
,
1200
0010
0000
1300
,
2010
0001
0000
3100
,
0021
0001
0000
0031
,
0201
0001
0010
0020
,
0330
0000
0000
0000
;

//---------------dance-single - Copied from----------------
#NOTES:
     dance-single:
     Copied from:
     Beginner:
     1:
     0.105,0.154,0.018,0.161,0.000:
0000
0000
0000
0000
,
0000
0000
0000
0000
,
0000
0000
0000
0000
,
0000
0000
0000
0000
,
0100
0000
0100
0000
,
0100
0000
0100
0000
,
0200
0000
0000
0000
,
0000
0000
0300
0000
,
0010
0000
0010
0000
,
0010
0000
0010
0000
,
0020
0000
0000
0000
,
0000
0000
0000
0000
,
0000
0000
0030
0000
,
0001
0000
0000
0000
,
1000
0000
0000
0000
,
0100
0000
0000
0000
,
0010
0000
0000
0000
,
1000
0000
0000
0000
,
0001
0000
0000
0000
,
0100
0000
0000
0000
,
0010
0000
0000
0000
,
1001
0000
0000
0000
,
1000
0000
0000
0000
,
0010
0000
0000
0000
,
0001
0000
0000
0000
,
1000
0000
0000
0000
,
0010
0000
0000
0000
,
0100
0000
0000
0000
,
0001
0000
0000
0000
,
0020
0000
0000
0000
,
0000
0000
0030
0000
,
0000
0002
0000
0000
,
0000
0000
0003
0000
,
0000
2000
0000
0000
,
0000
0000
3000
0000
,
0000
0200
0000
0000
,
0000
0000
0300
0000
,
0020
0000
0000
0000
,
0000
0000
0030
0010
,
0000
2000
0000
0000
,
0000
0000
3000
1000
,
0000
0002
0000
0000
,
0000
0000
0003
0001
,
0000
0200
0000
0000
,
0000
0000
0300
0100
,
0100
0000
0000
0000
,
0010
0000
0000
0000
,
1000
0000
0000
0000
,
0100
0000
0000
0000
,
0001
0000
0000
0000
,
0010
0000
0000
0000
,
0100
0000
0000
0000
,
0001
0000
0000
0000
,
1001
0000
0000
0000
,
1000
0000
0000
0000
,
0010
0000
0000
0000
,
0001
0000
0000
0000
,
0100
0000
0000
0000
,
1000
0000
0000
0000
,
0010
0000
0000
0000
,
0100
0000
0000
0000
,
0002
0000
0003
0000
,
2000
0000
3000
0000
,
0020
0000
0030
0000
,
2000
0000
3000
0000
,
0200
0000
0300
0000
,
0002
0000
0003
0000
,
0020
0000
0030
0000
,
2000
0000
0000
3000
;

//---------------dance-single - Copied from----------------
#NOTES:
     dance-single:
     Copied from:
     Medium:
     6:
     0.472,0.525,0.304,0.394,0.000:
0000
0000
0000
0000
,
0000
0000
0000
0000
,
0000
0000
0000
0000
,
0200
0000
0002
0303
,
1010
0000
0101
0000
,
1001
0000
0011
0000
,
1000
0000
0100
0000
1000
0100
0010
0000
,
1000
0000
0100
0000
1000
0100
0010
0000
,
1100
0000
0101
0000
,
0011
0000
1010
0000
,
0001
0100
0010
0100
,
0002
0000
0000
0000
,
0000
0000
0003
0000
,
1000
0000
0001
0000
0100
0001
0010
0000
,
0001
1000
0200
1300
,
1000
0010
0100
0010
,
0100
0001
0010
0000
0100
1000
0010
0000
,
0100
0010
0100
0001
,
0020
0001
0001
0130
,
1000
0100
0010
0000
0001
0010
0100
0000
,
0010
0000
0001
1000
0001
0000
0100
0000
,
0010
1000
0100
1000
,
0010
1000
2000
3010
,
0100
0001
1000
0000
0100
1000
0001
0000
,
0010
0001
0100
0010
1000
0000
0100
0000
,
1000
0100
0001
0000
0001
0100
1000
0000
,
0020
0130
2000
0000
,
3001
0000
0100
0000
0001
1000
0100
0000
,
1000
0100
0001
0100
,
1000
0001
2000
0000
0000
3001
0000
0000
,
0101
0000
0000
1100
0000
0000
0010
0100
,
0010
0001
0200
0000
0000
0301
0000
0000
,
1010
0000
0000
1100
0000
0000
1000
0001
,
1000
0010
0002
0000
0000
0013
0000
0000
,
1001
0000
0000
0110
0000
0000
0001
0100
,
0001
0010
0200
0000
0000
1300
0000
0000
,
0110
0000
0000
0101
0000
0000
1000
0100
,
0010
0001
0200
0000
0310
2000
0000
3100
,
0020
0000
0031
0200
0000
0310
1000
0100
,
0010
0100
2000
0000
3001
0020
0000
0031
,
0200
0000
0310
2000
0000
3100
0001
0100
,
1000
0010
0020
0000
0130
0002
0000
1003
,
0200
0000
0310
0200
0000
1300
0001
0100
,
0001
0010
0200
0000
1300
0020
0000
1030
,
0002
0000
0013
0200
0000
1300
0010
0100
,
0001
1001
1000
0010
,
0101
0000
1100
0000
0010
0000
0100
0010
,
0100
0001
1000
1100
,
0101
0000
0110
0000
0010
0100
0001
0000
,
1000
0100
0010
0100
,
0001
0000
0100
0000
0010
0100
1000
0001
,
0010
0001
0100
0010
,
0100
0001
0100
0000
1000
0100
1000
0000
,
0101
1100
0010
0100
,
0010
0000
1100
0000
0010
0100
0010
0000
,
0001
0100
0010
1001
,
0110
0000
0101
0000
1000
0100
0010
0001
,
0100
0010
1100
0010
,
0011
0000
0011
0000
1000
0000
0100
1000
,
0010
0000
0100
0000
0001
0100
0001
0000
,
1000
0000
0101
0000
1001
0000
0100
0010
,
0200
0000
0002
0300
0000
0000
0010
0010
,
0203
0000
0320
0000
0000
1000
1000
0100
,
2030
0000
0002
0000
3000
0100
0100
0000
,
1000
0100
2003
0100
,
3020
0000
2000
0000
3000
0001
0031
0000
,
0200
0000
0302
0000
0000
1000
0203
0000
,
0320
0000
0200
0000
0030
0001
0301
0000
,
2010
0000
0100
0000
0001
0001
0020
0000
,
3030
0000
0000
0000
;

//---------------dance-single - Copied from ----------------
#NOTES:
     dance-single:
     Copied from:
     Hard:
     9:
     0.639,0.679,0.394,0.260,0.022: // measure 1
0000
0000
0000
0000
,  // measure 2
0000
0000
0000
0000
,  // measure 3
0000
0000
0000
0000
,  // measure 4
0020
0000
0200
0330
,  // measure 5
1001
0100
0110
1000
,  // measure 6
1100
0010
0101
0010
,  // measure 7
0100
0001
0100
1000
0100
0010
0100
0001
,  // measure 8
1000
0100
0010
0001
1000
0100
0010
0001
,  // measure 9
1100
0010
0101
0010
,  // measure 10
1001
0010
0011
0010
,  // measure 11
0200
0302
2003
3200
,  // measure 12
2300
0000
0000
0000
,  // measure 13
0000
0000
3000
0000
,  // measure 14
0010
0100
0001
0100
0010
1000
0100
0010
,  // measure 15
0001
0101
1000
1100
,  // measure 16
0010
0100
0010
0100
0001
0100
1000
0100
,  // measure 17
0010
1001
0100
0011
,  // measure 18
0010
0001
1000
0100
1000
0001
0100
0010
,  // measure 19
0100
0011
0100
0110
,  // measure 20
0010
1000
0001
1000
0010
0100
0010
0100
,  // measure 21
0001
0100
1000
0100
0001
1000
0100
0000
,  // measure 22
1000
0010
0100
0001
0100
0001
0010
0100
,  // measure 23
1000
0101
1000
1100
,  // measure 24
0001
1000
0010
0001
0010
1000
0100
1000
,  // measure 25
0001
0110
1000
0101
,  // measure 26
1000
0100
0010
0100
1000
0010
1000
0001
,  // measure 27
0100
0101
0010
1010
,  // measure 28
0100
0001
0100
0010
1000
0100
0001
0100
,  // measure 29
1000
0010
0100
0001
1000
0001
1000
0000
,  // measure 30
0001
0010
0001
0000
1000
0000
0100
0000
0001
0000
1000
0000
0010
0000
0001
0000
,  // measure 31
1000
0100
0001
1000
0010
0001
1000
0001
,  // measure 32
1000
0100
1000
0000
0001
0000
0010
0000
1000
0000
0001
0000
0100
0000
1000
0000
,  // measure 33
0001
0010
1000
0001
0100
1000
0001
1000
,  // measure 34
0001
0100
0001
0000
1100
0000
0010
0000
0000
0000
0101
0000
1000
0000
0000
0000
,  // measure 35
0110
0001
0000
1100
0010
0000
0100
0010
,  // measure 36
0100
1000
0100
0000
1001
0000
0001
0000
0000
0000
0110
0000
1000
0000
0000
0000
,  // measure 37
1100
1000
0000
0101
0010
0000
0001
0100
,  // measure 38
0010
0100
0011
1000
0100
1010
0100
0001
,  // measure 39
0011
0100
1000
1010
0100
0001
1000
0100
,  // measure 40
1000
0010
0110
0001
0100
1001
0100
1000
,  // measure 41
1010
0100
0001
0011
0100
0010
0001
0100
,  // measure 42
0010
1000
0010
0000
0200
0000
0001
0000
0310
0000
2000
0000
0100
0000
3010
0000
,  // measure 43
2000
0001
3001
0020
0001
0130
0010
0001
,  // measure 44
0100
0100
0020
1000
0130
0002
0010
0103
,  // measure 45
0020
0100
1030
0200
1000
1300
0010
0100
,  // measure 46
0001
0010
0001
0100
0010
1000
0100
0001
,  // measure 47
0100
1000
0010
0000
0101
0000
1100
0000
,  // measure 48
0100
0010
0100
0001
0100
1000
0010
0100
,  // measure 49
0001
0010
0100
0000
1001
0000
1001
0000
,  // measure 50
0001
1000
0100
1000
0010
0100
0001
0100
,  // measure 51
1000
0100
0001
0000
0110
0000
0011
0000
,  // measure 52
1000
0100
0010
0100
1000
0100
0010
0001
,  // measure 53
0100
0010
1000
0000
0101
0000
0110
0000
,  // measure 54
0010
0100
0001
1000
0100
0001
0010
1000
,  // measure 55
0001
0100
0010
0100
0001
0010
0100
1000
,  // measure 56
0100
0010
1000
0010
0001
0100
0010
0100
,  // measure 57
0001
0100
1000
0100
0010
0100
0001
1000
,  // measure 58
0010
1000
0001
0010
0001
1000
0100
1000
,  // measure 59
0010
0100
0001
0010
0100
1000
0010
0100
,  // measure 60
0010
0100
0001
1000
0100
0010
0100
1000
,  // measure 61
0001
0100
0001
1000
0100
0010
0100
1000
,  // measure 62
0002
0000
0200
0000
0003
0001
0010
0310
,  // measure 63
2000
0000
0200
0000
3000
1000
0010
1300
,  // measure 64
0002
0000
0020
0000
0003
0001
0001
0130
,  // measure 65
0100
1000
0010
0100
0001
1000
0100
0001
,  // measure 66
0200
0000
2000
0000
0300
0010
0100
3001
,  // measure 67
0200
0000
0020
0000
0300
1000
1000
0031
,  // measure 68
0200
0000
0002
0000
0300
1000
0100
0013
,  // measure 69
0001
1000
0001
0100
1000
0020
0200
0000
,  // measure 70
0330
0000
0000
0000
;
