#TITLE:Fly Away to India;
#SUBTITLE:(Chandrayaan-7 Mix);
#ARTIST:baby weapon feat. Kajil;
#TITLETRANSLIT:;
#SUBTITLETRANSLIT:;
#ARTISTTRANSLIT:;
#GENRE:;
#CREDIT:;
#MENUCOLOR:#00FF00;
#NEWMETERSYSTEM:NO;
#BANNER:Fly Away to India (Chandrayaan-7 Mix)-bn.png;
#BACKGROUND:Fly Away to India (Chandrayaan-7 Mix)-bg.png;
#LYRICSPATH:;
#CDTITLE:PROJECT VIRIDIAN-cdtitle.png;
#MUSIC:Fly Away to India (Chandrayaan-7 Mix).mp3;
#OFFSET:-0.420;
#SAMPLESTART:58.160;
#SAMPLELENGTH:14.560;
#SELECTABLE:YES;
#LISTSORT:;
#BPMS:0.000=132.980;
#STOPS:160.000=0.900
;
#BGCHANGES:;
#ATTACKS:;

//---------------dance-single - ----------------
#NOTES:
     dance-single:
     :
     Easy:
     3:
     0.222,0.252,0.056,0.160,0.000:
0000
0000
0000
0000
,
0000
0000
0000
0000
,
0000
0000
0000
0000
,
0200
0000
0000
0300
,
1000
0000
0001
0000
,
0000
0100
0010
0100
,
1000
0000
0001
0000
,
0000
0010
0100
0010
,
0100
0000
0001
0000
,
0000
0010
0001
0010
,
1000
0000
0010
0000
,
0000
0100
1000
0100
,
0001
0000
0100
0000
,
0000
0010
0001
1000
,
0010
0000
1000
0000
,
0000
0001
0001
1001
,
0100
0000
0100
0000
,
0010
1000
0100
0000
,
0002
0000
0203
0000
,
0301
0000
1000
0000
,
0100
1000
0010
0000
,
1000
0100
0001
0000
,
0200
0000
0320
0000
,
0032
0000
0000
1003
,
1001
0010
0100
0001
,
1000
0000
0100
0000
,
2000
0000
0020
3030
,
0010
0010
0010
0010
,
0100
0001
1000
0000
,
0001
0000
0010
0000
,
0002
2003
3020
0200
,
0000
0000
0000
0330
,
1001
0010
0100
0001
,
0000
1000
0100
0010
,
0100
0100
0010
0000
,
0001
1000
0001
1000
,
0010
0110
0001
1000
,
0100
1000
1000
0010
,
0100
0000
0001
0000
,
0010
0001
1000
0010
,
1001
0010
0010
0010
,
0200
0000
0000
0300
,
0001
0001
0001
0000
,
1000
1000
1000
0000
,
0010
0000
0100
0000
,
0010
0100
0010
0100
,
0001
0100
1000
0000
,
1000
0010
0001
0000
,
0010
0100
0001
0000
,
2000
0100
0010
3001
,
0100
0001
1000
0000
,
0010
1000
0100
0000
,
0010
0100
0010
0000
,
0002
0010
0100
1003
,
0010
0010
0100
0010
,
1000
0100
0010
0000
,
0001
0100
0001
1000
,
0220
0000
0000
0330
,
0001
0001
0001
0001
,
1000
1000
1000
1000
,
0000
0010
0100
0010
,
2002
0000
0000
3003
,
0020
0000
0000
0030
;

//---------------dance-single - Copied from----------------
#NOTES:
     dance-single:
     Copied from:
     Beginner:
     1:
     0.112,0.174,0.024,0.112,0.000:
0000
0000
0000
0000
,
0000
0000
0000
0000
,
0000
0000
0000
0000
,
0000
0000
0000
0000
,
1000
0000
0100
0000
,
0001
0000
0000
0000
,
0001
0000
0010
0000
,
1000
0000
0000
0000
,
0100
0000
0100
0000
,
0020
0000
0030
0000
,
0001
0000
0001
0000
,
0020
0000
0030
0000
,
1000
0000
1000
0000
,
0200
0000
0300
0000
,
0010
0000
0010
0000
,
0000
0000
0000
0000
,
1001
0000
0000
0000
,
0010
0000
0000
0000
,
2000
0000
3000
0000
,
0002
0000
0003
0000
,
0100
0000
0000
0000
,
0010
0000
0000
0000
,
0002
0000
0003
0000
,
0200
0000
0300
0000
,
0110
0000
0000
0000
,
0010
0000
0000
0000
,
1000
0000
1000
0000
,
2000
0000
0000
0000
,
3000
0000
0000
0000
,
0010
0000
0000
0000
,
0001
0000
0001
0000
,
2002
0000
3003
0000
,
0100
0100
0000
0000
,
0010
0000
0000
0000
,
0001
0000
0000
0000
,
0100
0000
0100
0000
,
0010
0010
0000
0000
,
1000
0000
0001
0000
,
0100
0000
0100
0000
,
0020
0000
0000
0000
,
0030
0000
0000
0000
,
0200
0000
0300
0000
,
0100
0000
0000
0000
,
0100
0000
0000
0000
,
0100
0000
0100
0000
,
0200
0000
0300
0000
,
0001
0000
0100
0000
,
1000
0000
0000
0000
,
1000
0000
0010
0000
,
0001
0000
0000
0000
,
1000
0000
0100
0000
,
0001
0000
0000
0000
,
0001
0000
0010
0000
,
1000
0000
0000
0000
,
0010
0000
0010
0000
,
0010
0000
0010
0000
,
0100
0000
0100
0000
,
0200
0000
0300
0000
,
0001
0000
0010
0000
,
0100
0000
1000
0000
,
1000
0000
0100
0000
,
0010
0000
0001
0000
,
0010
0000
0000
0000
;

//---------------dance-single - Copied from----------------
#NOTES:
     dance-single:
     Copied from:
     Medium:
     6:
     0.387,0.398,0.192,0.152,0.000:
0000
0000
0000
0000
,
0000
0000
0000
0000
,
0000
0000
0000
0000
,
2002
0000
0000
3003
,
0001
0000
0000
0100
0000
0000
0010
1000
,
0000
0100
1000
0000
0001
0001
1000
0000
,
0100
0000
0000
1000
0000
0000
0010
0100
,
0000
0001
1000
0000
0100
0010
0001
0000
,
0100
0000
0001
0100
0000
0000
0010
1000
,
0000
0000
0100
1000
0000
0010
0100
0000
,
0001
0000
1000
0100
0000
0000
0010
0001
,
0000
0000
0100
0001
0000
1000
0010
0000
,
0100
0000
0001
0010
0000
0000
0100
1000
,
0000
0000
0010
0100
0000
0001
1000
0000
,
0001
0000
0100
0001
0000
0000
1000
0100
,
0000
0010
0100
0010
0100
0010
1001
0000
,
1001
0000
0010
0100
0001
0000
1000
0000
,
0020
0000
1000
0130
0000
0100
0010
0000
,
0100
0000
0001
1000
0100
0000
0110
0000
,
1000
0000
0100
0010
0001
0000
0100
0000
,
0001
0100
0010
1000
,
0001
0100
1000
0000
0100
0000
0010
0000
,
1000
0000
0001
1000
0100
0000
0010
0000
,
2002
0000
3003
0110
,
0001
0100
1000
0100
0010
0000
0100
0001
,
1000
0000
0100
0000
1000
0000
0010
1000
,
0200
0000
0300
0010
0002
0000
0003
0100
,
0010
0100
0010
0000
1100
0000
0011
0000
,
0100
0000
0010
0100
0001
0000
1000
0100
,
1000
0010
0100
0001
,
1000
0100
0010
0000
0100
0010
0001
0000
,
0100
0001
0100
0001
1000
0010
1000
0000
,
0101
0000
1100
0000
0010
0000
0100
0001
,
0010
0200
0000
2300
0000
3020
0000
0130
,
0001
0000
0100
0000
0001
1000
0100
0010
,
0000
0010
0000
0001
0000
0001
0000
0100
,
1001
0000
0110
0000
0001
0000
0100
0001
,
0000
0020
0000
0032
0000
2003
0000
3100
,
1000
0000
0010
0000
0100
0001
0100
0010
,
0000
0010
0000
0100
0000
0100
0000
0001
,
1100
1000
0001
0100
,
0010
0100
0010
0100
0001
0100
0001
0000
,
1000
0100
1000
0020
,
0130
0001
0100
0001
,
1001
1000
1100
1000
,
0110
0101
1100
0110
,
0010
0100
0001
0000
1000
0010
0100
0000
,
0001
0010
0100
0010
0001
0000
1000
0000
,
0010
0000
1000
0100
0010
0000
0100
0000
,
0101
0011
1010
1100
,
0001
0100
1000
0000
0100
0010
1000
0000
,
1000
0100
0001
0000
0100
0010
0001
0000
,
0100
0010
0100
0000
0001
0010
0100
0000
,
0002
0023
0230
2300
,
3010
0100
0010
0000
1000
0100
1000
0000
,
0001
0100
0001
1000
0100
0000
1000
0000
,
0010
0100
0001
0010
0100
0000
0100
0000
,
2000
0000
0001
0000
0100
0100
3100
0000
,
0010
0100
0010
0001
0010
0001
0010
0000
,
0100
1000
0100
1000
0010
1000
0010
0000
,
0100
0001
1000
0010
,
1000
0100
0010
0001
0010
0100
1000
0000
,
0011
0000
0000
0000
;

//---------------dance-single - Copied from ----------------
#NOTES:
     dance-single:
     Copied from:
     Hard:
     8:
     0.501,0.558,0.160,0.184,0.172: // measure 1
0000
0000
0000
0000
,  // measure 2
0000
0000
0000
0000
,  // measure 3
0000
0000
0000
0000
,  // measure 4
0010
0100
0001
0100
0010
1000
0100
0000
,  // measure 5
1000
0000
0100
0010
0100
0000
0010
0001
,  // measure 6
0000
0100
0001
1000
0010
0010
0100
0000
,  // measure 7
0001
0000
0100
0001
0000
1000
0100
1000
,  // measure 8
0000
0010
0100
0001
0010
0100
0110
0000
,  // measure 9
1000
0000
0100
1000
0010
0000
0100
0001
,  // measure 10
0000
0010
0001
0001
0100
0010
0010
0000
,  // measure 11
1000
0000
0001
0100
0010
0000
1000
0001
,  // measure 12
0000
1000
0100
0100
1000
0010
0010
0000
,  // measure 13
0100
0000
0001
0100
1000
0000
0100
0010
,  // measure 14
1000
0000
0010
0010
0001
0010
0010
0000
,  // measure 15
0100
0000
0001
1000
0010
0000
0100
0001
,  // measure 16
0000
1000
0001
0100
0010
0000
0110
0000
,  // measure 17
0001
0000
0100
0001
1000
0000
0100
1000
,  // measure 18
0010
0100
0001
0000
1000
0100
0001
0000
,  // measure 19
0200
0000
0310
0001
0200
0010
0310
0000
,  // measure 20
0020
0000
1030
0100
0020
0100
0130
0000
,  // measure 21
0001
0100
1000
0100
0001
1000
0100
0000
,  // measure 22
1000
0010
0100
0001
0000
0001
0100
0000
,  // measure 23
0002
0000
1003
0100
0002
0100
0103
0000
,  // measure 24
2002
0000
3003
0110
,  // measure 25
1001
0001
0100
0001
1000
0000
1000
0100
,  // measure 26
0020
0001
0031
0200
0000
0310
0100
0000
,  // measure 27
0110
0000
1000
0001
0101
0000
1000
0000
,  // measure 28
0001
0010
0001
0100
0010
1000
0100
1000
,  // measure 29
0010
0100
0001
0000
1000
0000
0100
1000
,  // measure 30
0010
0100
0001
0000
1000
0000
0010
0000
,  // measure 31
0110
0101
1010
0110
,  // measure 32
0100
0000
0000
0100
0000
0000
0001
0000
0000
0001
0000
0000
1000
0000
0000
0100
0000
0010
0001
0000
0000
1000
0000
0000
,  // measure 33
0110
0000
1001
0000
0100
0000
0010
0200
,  // measure 34
0000
0000
0301
1000
0001
0000
1000
0100
1000
0000
0010
0100
0010
0000
0200
0000
,  // measure 35
0000
0001
0001
0000
0010
0000
0001
0302
,  // measure 36
0000
0000
2003
0000
0000
0000
3200
0000
0000
0000
0310
0000
0001
0010
0100
0000
,  // measure 37
1001
1000
0110
0000
0101
0000
1000
0020
,  // measure 38
0000
0000
0130
0001
0010
0000
0100
1000
0001
0000
0100
0010
1000
0000
0002
0000
,  // measure 39
0000
0010
0010
0000
1000
0000
0103
0002
,  // measure 40
0010
0023
0100
0230
1000
2300
0001
3010
,  // measure 41
1001
0000
0000
0010
0100
0000
0000
0000
0001
0000
0000
1000
0100
0000
0000
0000
,  // measure 42
1000
0100
1000
0010
0100
0001
0010
0001
,  // measure 43
1000
0000
0000
0000
0100
0000
0000
0000
0010
0000
0000
0010
0001
0000
0000
0000
,  // measure 44
0001
0000
0000
0010
0000
0000
0100
0000
0000
1000
0100
0010
,  // measure 45
0001
0000
0000
0001
0100
0000
0000
0000
0010
0000
1000
0000
1000
0000
0000
0000
,  // measure 46
0001
0010
0001
0100
0010
1000
0100
1000
,  // measure 47
0010
0100
0001
0010
0001
0000
1000
0000
,  // measure 48
0010
1000
0100
1000
0010
0100
0001
0000
,  // measure 49
1000
0100
1000
1000
0010
0000
0100
0000
,  // measure 50
0001
0000
0000
0001
0010
0000
0000
0010
0100
0000
0000
0100
1000
0000
0000
0000
,  // measure 51
0001
0010
0001
1000
0100
0000
1000
0000
,  // measure 52
0010
0100
0001
0100
1000
0100
0010
0000
,  // measure 53
0100
0001
1000
0100
0010
0000
0001
1000
,  // measure 54
1000
0100
1000
0010
0100
0001
0010
0001
,  // measure 55
0100
0000
0000
1000
0100
0000
0000
0001
0100
0000
0000
1000
0010
0000
0000
0001
,  // measure 56
0010
0000
0001
0000
0100
0000
0010
0000
1000
0001
0000
0100
0000
0100
0000
0010
,  // measure 57
1000
0000
0001
0000
0100
0000
0001
0000
0010
0100
0000
1000
0000
0000
0001
0000
,  // measure 58
1000
0100
1000
0010
0100
0001
0010
0001
,  // measure 59
1000
0100
0000
0100
0010
0000
0010
0001
0000
0100
0001
0000
1000
0100
0000
1000
,  // measure 60
0010
0000
0010
0100
0000
0001
0100
0000
0010
0100
0000
0001
1000
0000
0100
1000
,  // measure 61
0000
0000
1001
0000
0000
0101
0000
0000
1000
0000
0100
0000
1000
0010
0000
0100
,  // measure 62
0001
0000
0000
1000
0010
1000
0001
0000
0000
0100
0000
0000
0001
0000
0000
0010
0000
0000
0100
0000
0000
1000
0000
0000
,  // measure 63
2002
0000
0000
0000
,  // measure 64
0000
3003
0000
0000
;
