#TITLE:Fear Not;
#SUBTITLE:;
#ARTIST:FRAY;
#TITLETRANSLIT:;
#SUBTITLETRANSLIT:;
#ARTISTTRANSLIT:;
#GENRE:;
#CREDIT:;
#MENUCOLOR:#3333FF;
#NEWMETERSYSTEM:NO;
#BANNER:Fear Not-bn.png;
#BACKGROUND:Fear Not-bg.png;
#LYRICSPATH:;
#CDTITLE:;
#MUSIC:Fear Not.mp3;
#OFFSET:-0.020;
#SAMPLESTART:105.860;
#SAMPLELENGTH:13.800;
#SELECTABLE:YES;
#LISTSORT:;
#BPMS:0.000=140.000;
#STOPS:;
#BGCHANGES:;
#ATTACKS:;

//---------------dance-single - ----------------
#NOTES:
     dance-single:
     :
     Easy:
     4:
     0.250,0.315,0.015,0.194,0.000:
0000
0000
0000
0000
,
0000
0000
0000
0000
,
0000
0000
0000
0000
,
0000
0000
0000
0000
,
0010
0100
0010
0000
,
0001
0100
0001
0000
,
0100
0000
0100
0000
,
0020
0000
0000
0100
,
0130
0000
0000
0100
,
0010
1000
0000
1000
,
0100
0000
0000
0100
,
0010
0001
0100
0001
,
1000
0000
0000
1000
,
0010
1000
0000
0001
,
0100
0000
0100
0001
,
1000
0000
1000
0100
,
0020
0001
0032
0000
,
0203
0010
0320
0000
,
1030
0000
1000
0100
,
1000
0000
0010
0100
,
0020
1000
0000
1000
,
0000
0100
0000
0130
,
0200
0000
0000
0000
,
0310
0000
0000
0000
,
1000
0001
0100
0001
,
1000
0000
2000
0000
,
3010
0100
0010
1000
,
0001
0000
0020
0000
,
0031
0010
0100
1000
,
0010
0000
2000
0000
,
3100
1000
0001
0100
,
0002
0000
2003
0000
,
3010
0010
0010
0010
,
0010
0010
0010
0010
,
1000
1000
1000
1000
,
1000
1000
1000
1000
,
0002
0000
0000
0000
,
2003
0000
0000
0000
,
3020
0000
0000
0000
,
0230
0000
0000
0301
,
1001
0001
0100
0000
,
1000
0010
0100
0000
,
0001
0010
0001
0100
,
0020
0000
0000
0030
,
1000
0100
1000
0000
,
0010
0100
0001
0000
,
1000
0100
0010
0001
,
0002
0000
1000
1000
,
1003
0000
1000
1000
,
0010
0000
0010
0010
,
0100
0000
0001
0100
,
0001
0001
0010
0000
,
0100
0000
1000
0001
,
0100
0000
0100
0100
,
0010
0000
1000
0000
,
0001
0000
0100
0000
,
0002
0000
2003
0000
,
3200
0000
0310
0001
,
0100
0000
0000
0010
,
0010
0000
0100
0001
,
1000
0000
0001
0000
,
0100
0010
0001
1000
,
0110
0010
0100
0001
,
1000
0100
1000
0010
,
0100
0001
0010
0100
,
1000
0010
0100
0000
,
1000
0100
0010
0001
,
0100
0010
0100
0001
,
1000
0010
0100
0001
,
1000
0100
0010
0001
,
2000
0000
3020
0000
,
0230
0000
0302
0000
,
1003
0100
0010
0001
,
0100
0010
1000
0100
,
1000
0000
0001
0000
,
1000
0000
0010
1000
,
0200
0000
0000
0300
;

//---------------dance-single - Copied from----------------
#NOTES:
     dance-single:
     Copied from:
     Beginner:
     1:
     0.107,0.142,0.000,0.090,0.000:
0000
0000
0000
0000
,
0000
0000
0000
0000
,
0000
0000
0000
0000
,
0000
0000
0000
0000
,
2000
0000
0000
0000
,
0000
0000
3000
0000
,
0002
0000
0000
0000
,
0000
0000
0003
0000
,
0100
0000
0000
0010
,
0010
0000
0000
1000
,
1000
0000
0000
0001
,
0001
0000
0000
0000
,
0010
0000
0000
0001
,
0001
0000
0000
0100
,
0100
0000
0000
1000
,
1000
0000
0000
0000
,
0010
0000
0010
0000
,
0010
0000
0000
0000
,
1000
0000
1000
0000
,
1000
0000
0000
0000
,
0002
0000
0000
0000
,
0003
0000
0000
0000
,
0200
0000
0000
0000
,
0300
0000
0000
1000
,
1000
0000
0000
0000
,
0100
0000
0000
0000
,
0010
0000
0000
0000
,
0001
0000
0000
0000
,
1000
0000
0000
0000
,
0010
0000
0000
0000
,
1000
0000
0000
0000
,
0100
0000
0000
0000
,
0002
0000
0003
0000
,
0200
0000
0300
0000
,
0020
0000
0030
0000
,
2000
0000
3000
0000
,
0100
0000
0000
0000
,
0000
0000
0000
0000
,
0010
0000
0000
0000
,
0000
0000
0000
0000
,
0001
0000
0100
0000
,
0001
0000
0000
0000
,
1000
0000
0010
0000
,
1000
0000
0000
0000
,
0100
0000
0010
0000
,
0100
0000
0000
0000
,
1000
0000
0001
0000
,
1000
0000
0000
0000
,
0010
0000
0000
0000
,
0100
0000
0000
0000
,
0001
0000
0000
0000
,
1000
0000
0000
0000
,
0100
0000
0000
0000
,
0010
0000
0000
0000
,
1000
0000
0000
0000
,
0001
0000
0000
0000
,
0100
0000
0100
0000
,
0100
0000
0000
0000
,
0010
0000
0000
0000
,
0010
0000
0000
0000
,
0002
0000
0003
0000
,
2000
0000
3000
0000
,
0100
0000
0010
0000
,
0100
0000
0010
0000
,
0001
0000
1000
0000
,
0001
0000
1000
0000
,
0100
0000
1000
0000
,
0100
0000
1000
0000
,
0001
0000
0100
0000
,
0001
0000
0100
0000
,
0020
0000
0000
0000
,
0030
0000
0000
0000
,
0200
0000
0000
0000
,
0300
0000
0000
0000
,
1000
0000
0000
0000
,
0001
0000
1000
0000
,
0001
0000
0000
0000
;

//---------------dance-single - Copied from----------------
#NOTES:
     dance-single:
     Copied from:
     Medium:
     6:
     0.373,0.401,0.097,0.097,0.000:
0000
0000
0000
0000
,
0000
0000
0000
0000
,
0000
0000
0000
0000
,
0000
0000
0000
0000
,
0020
1000
0100
1000
,
2030
0001
0100
0001
,
3020
0100
1000
0100
,
2030
0100
0001
3100
,
1001
0000
0010
0000
0100
0000
0001
0010
,
0100
0000
1000
0000
0010
0000
0100
0010
,
0100
0000
0001
0000
1000
0000
0001
0010
,
0001
1000
0010
0100
,
0100
0000
0010
0000
1000
0000
0100
1000
,
0100
0000
1000
0000
0001
0000
0100
0010
,
0100
0000
0001
0000
1000
0000
0001
0010
,
0100
0000
0010
0000
0001
0000
1000
0001
,
1000
1000
0100
0100
,
0010
0010
0001
0001
,
0100
0000
0001
0000
0010
0000
0100
0010
,
0001
0000
1000
0000
0010
0000
1000
0100
,
0010
0100
0010
0001
,
0100
0000
0010
0000
0100
0000
0001
1000
,
0001
0000
0100
0000
,
0020
0000
0030
1001
,
0100
1000
0100
0010
,
1000
0000
0001
0000
0100
0001
0100
0010
,
1000
0100
1000
0001
,
0010
0000
0001
0000
1000
0100
0010
0001
,
0100
0010
0100
0001
,
1000
0000
0010
0000
0100
0001
0100
0010
,
1000
0100
1000
0010
,
0100
0001
1000
1000
,
1001
0010
0010
0010
,
0010
0010
0010
0010
,
0100
0100
0100
0100
,
0100
0100
0100
0100
,
0002
0000
0000
0000
,
2003
0000
0000
0000
,
3200
0000
0000
0000
,
0320
0000
0000
0000
0000
0000
0031
1000
,
0100
0010
0100
0010
,
0001
0100
0010
0000
1000
0000
0001
0000
,
0100
0001
1000
0000
0100
0000
1000
0000
,
0010
0000
0010
0000
0100
0000
0001
0010
,
0001
0000
1000
0000
0100
0000
1000
0010
,
0100
0000
0001
0000
1000
0000
0010
0100
,
0010
0100
0010
1000
,
0001
0100
0011
0011
,
1001
0000
0100
0000
0010
0000
1000
0100
,
0010
0000
0100
0000
0001
0000
1000
0010
,
0100
0000
0001
0000
0100
0000
0001
1000
,
0001
0010
0100
0010
,
0110
0000
0001
0000
1000
0000
0100
0010
,
0100
0000
0001
0000
1000
0000
0010
1000
,
0100
0000
1000
0000
0001
0000
0100
0001
,
0010
0001
0001
0001
,
1001
0100
1001
0010
,
1001
0000
0100
0000
1000
0010
0100
0001
,
0010
0100
1000
0010
,
1000
0001
0100
0010
,
2000
0000
0100
0000
,
3002
0000
0103
1001
,
0110
0000
0010
0100
0010
0000
1000
0100
,
0010
0000
0001
0100
0010
0000
1000
0001
,
0100
0000
0010
0000
1000
0000
0100
1000
,
0001
0000
0100
0010
0100
0001
0010
0100
,
1000
0000
0010
0100
0010
0000
0100
0001
,
1000
0000
0001
0010
0100
0000
0010
0001
,
1000
0000
0100
1000
0010
0000
0100
0010
,
0100
0000
0001
1000
0100
0000
1000
0010
,
0001
0000
1000
0100
0001
0000
0100
0010
,
0100
0000
0001
0100
0001
0000
1000
0100
,
1000
0000
0010
0000
0100
0000
0001
1000
,
0001
0000
0100
0000
0010
1000
0100
0010
,
0001
1000
0100
1000
,
0010
0100
0001
1000
,
0022
0000
0000
0033
;

//---------------dance-single - Copied from ----------------
#NOTES:
     dance-single:
     Copied from:
     Hard:
     9:
     0.531,0.656,0.119,0.090,0.295: // measure 1
0000
0000
0000
0000
,  // measure 2
0000
0000
0000
0000
,  // measure 3
0000
0000
0000
0000
,  // measure 4
0000
0000
0000
0000
,  // measure 5
1001
0000
0000
0000
0001
0000
0100
0000
0000
0000
0010
0000
0000
0010
0000
0000
,  // measure 6
0100
0000
0000
0000
0001
0000
1000
0000
0000
0000
0100
0000
0000
0010
0000
0000
,  // measure 7
0001
0000
0000
0000
1000
0000
0100
0000
0000
0000
1000
0000
0000
1000
0000
0000
,  // measure 8
0001
0000
0100
0001
1000
0000
0110
0000
,  // measure 9
1001
0000
0100
0000
0010
0100
0001
1000
,  // measure 10
0100
0000
0000
1000
0100
0000
1000
0000
0010
0000
0100
0000
0001
0000
1000
0000
,  // measure 11
0010
0000
0000
0100
0010
0000
0000
0000
0100
0000
0001
0000
0010
0000
0100
0000
,  // measure 12
1000
0000
0010
0000
0100
0000
0001
0010
,  // measure 13
0100
0000
1000
0000
0001
0010
0001
0100
,  // measure 14
0010
0000
0000
1000
0010
0000
0000
0000
0100
0000
0001
0000
0000
0010
0000
0000
,  // measure 15
1000
0000
0010
0000
0001
0000
0100
0001
,  // measure 16
1000
0000
0100
0000
1000
0010
0100
0010
,  // measure 17
0100
0000
0001
0010
0100
0000
1001
0000
,  // measure 18
0100
0000
1000
0100
0010
0000
1001
0000
,  // measure 19
0110
0000
0000
0000
0010
0000
0000
0000
0010
0000
1000
0000
0000
0001
0100
0000
,  // measure 20
0001
0000
0100
0000
0100
0000
0100
0010
,  // measure 21
0100
0001
1000
0001
,  // measure 22
0100
0000
0001
0000
0100
0001
0010
0100
,  // measure 23
1000
1000
0100
1000
,  // measure 24
1010
0000
0000
0001
0000
1000
0110
0000
,  // measure 25
0100
0000
0000
0010
0100
0000
0000
0001
0100
0000
0000
0010
0100
0000
0010
0000
,  // measure 26
1000
0000
0000
0000
0000
0000
0100
0000
0000
0000
0000
0000
0010
0000
0000
0000
0000
0000
0000
0000
0000
0001
0000
0000
1000
0000
0000
0100
0000
0000
1000
0000
0000
0100
0000
0000
0010
0000
0000
0000
0001
0000
0000
0000
0010
0000
0000
0000
,  // measure 27
0100
0000
0000
1000
0010
0000
0000
0001
0010
0000
0000
1000
0010
0000
0100
0000
,  // measure 28
0001
0000
0000
0000
0000
0000
0010
0000
0000
0000
0000
0000
0001
0000
0000
0000
0000
0000
0100
0000
0000
0000
0000
0000
0010
0000
0000
0100
0000
0000
0010
0000
0000
0100
0000
0000
0001
0000
0000
0000
1000
0000
0000
0000
0001
0000
0000
0000
,  // measure 29
0100
0000
0010
0000
0100
0001
0100
0000
0010
0000
1000
0000
0100
0000
0000
0000
,  // measure 30
1000
0000
0000
0010
0000
0000
0100
0000
0000
0001
0000
0000
1000
0000
0100
0000
0010
0000
0100
0000
1000
0000
0100
0000
,  // measure 31
0001
0000
1000
0000
0010
0000
0100
0001
0100
0010
0000
1000
0100
0000
1000
0000
,  // measure 32
0010
0100
0020
0130
,  // measure 33
1000
0000
0001
0000
0000
0100
0000
0000
0010
0000
0000
1000
0000
0000
0100
0000
,  // measure 34
0000
0000
0010
0000
0000
0010
0000
0000
0001
0000
0000
0100
0000
0000
0010
0000
,  // measure 35
0000
0000
1000
0000
0000
0100
0000
0000
0010
0000
0000
0001
0000
0000
0100
0000
,  // measure 36
0000
0000
0001
0000
0000
0001
0000
0000
1000
0000
0000
0001
0000
0000
0010
0000
,  // measure 37
0200
0000
1000
0000
0000
1000
0000
0000
1000
0000
0000
0010
0000
0000
1300
0000
,  // measure 38
2000
0000
0001
0000
0000
0010
0000
0000
0010
0000
0000
0001
0000
0000
3100
0000
,  // measure 39
0020
0000
0001
0000
0000
0100
0000
0000
0100
0000
0000
0100
0000
0000
0031
0000
,  // measure 40
0002
0000
1000
0000
0000
0100
0000
0000
1000
0000
0000
0100
0000
0000
0013
0000
,  // measure 41
0001
1000
0100
0000
1000
0010
0100
0001
,  // measure 42
0100
0000
0010
0000
1000
0000
0000
0101
0000
0000
1001
0000
0000
0000
0100
0000
,  // measure 43
0010
0000
0100
0000
0001
0000
1000
0000
0100
0000
0000
1000
0000
0000
1000
0000
,  // measure 44
0100
0010
0001
0100
0001
0000
0100
0000
,  // measure 45
0010
1000
0010
0000
0100
0001
1000
0100
,  // measure 46
0010
0000
0001
0000
0100
0000
0000
1001
0000
0000
0110
0000
0000
0000
1000
0000
,  // measure 47
0001
0100
0010
1000
0100
0010
0001
0100
,  // measure 48
0020
0000
2030
0000
3002
0000
0103
0010
,  // measure 49
0100
0000
0001
0100
0000
0010
1000
0100
,  // measure 50
0000
0000
1001
0000
0000
0000
0100
0000
0000
0000
1000
0000
0000
0100
0000
0000
,  // measure 51
0011
0000
0000
1100
0000
0010
0001
1000
,  // measure 52
0000
0000
0100
0000
0000
0000
0010
0000
0000
0000
0100
0000
0000
0010
0000
0000
,  // measure 53
0010
0000
0001
0100
0000
0010
1000
0010
,  // measure 54
0000
1001
0000
1000
0100
0001
0100
1000
,  // measure 55
0000
0010
0000
0100
0001
0000
0100
0001
,  // measure 56
1000
0000
0010
1000
0100
0000
1000
0100
,  // measure 57
0001
0000
1000
0010
0001
0000
1000
0100
,  // measure 58
0001
0100
2000
3002
,  // measure 59
0013
0000
0100
0000
1000
0000
0001
0100
,  // measure 60
0001
0000
0100
0010
0100
0000
0010
0000
,  // measure 61
1000
0000
0000
1000
0100
0000
0000
0000
0010
0000
0000
0010
0001
0000
0000
0000
,  // measure 62
0200
0010
0010
0301
,  // measure 63
1000
0000
0100
0010
0001
0000
0100
0000
0010
0000
1000
0000
0001
0000
0100
0001
,  // measure 64
1000
0000
0010
1000
0100
0000
0010
0000
0100
0000
0001
0000
0100
0000
1000
0000
,  // measure 65
0001
0000
0100
0001
0010
0000
0100
1000
0001
0000
0100
0000
0001
0000
1000
0000
,  // measure 66
0010
0000
0100
0010
0100
0000
0010
0100
0010
0000
1000
0000
0100
0001
0100
1000
,  // measure 67
0010
0000
0100
0001
0100
0000
0010
0100
0010
0000
1000
0000
0100
0000
1000
0000
,  // measure 68
0001
0000
0010
0100
1000
0000
0001
0010
0100
0000
1000
0000
0010
0000
0100
0000
,  // measure 69
0001
0000
0100
0010
1000
0000
0001
0010
0001
0000
0100
0000
0010
0000
1000
0000
,  // measure 70
0100
0000
1000
0100
0010
0000
0100
0010
0001
0000
0100
0000
0010
1000
0010
1000
,  // measure 71
0001
0100
0010
0100
1000
0000
0100
0010
,  // measure 72
1000
0000
0001
0010
0100
1000
0010
0000
,  // measure 73
0100
0000
0000
0000
0001
0000
0100
0000
0001
0000
0000
0000
1000
0000
0100
1000
,  // measure 74
0100
0000
0010
0000
0001
0100
0010
1000
,  // measure 75
0100
0000
0000
0100
0010
0000
0000
0001
0100
0000
0000
0010
1000
0000
0000
1000
,  // measure 76
0100
0000
0000
0000
1000
0000
0000
0000
0010
0000
0000
0000
1000
0000
0000
0001
,  // measure 77
0200
0000
0300
0000
;
