#TITLE:End of Summer;
#SUBTITLE:;
#ARTIST:FlamingFirebolt;
#TITLETRANSLIT:;
#SUBTITLETRANSLIT:;
#ARTISTTRANSLIT:;
#GENRE:;
#CREDIT:;
#MENUCOLOR:#3333FF;
#NEWMETERSYSTEM:NO;
#BANNER:End of Summer-bn.png;
#BACKGROUND:End of Summer-bg.png;
#LYRICSPATH:;
#CDTITLE:;
#MUSIC:End of Summer.mp3;
#OFFSET:-1.560;
#SAMPLESTART:28.540;
#SAMPLELENGTH:12.000;
#SELECTABLE:YES;
#LISTSORT:;
#BPMS:0.000=160.000;
#STOPS:;
#BGCHANGES:;
#ATTACKS:;

//---------------dance-single - ----------------
#NOTES:
     dance-single:
     :
     Easy:
     4:
     0.289,0.321,0.027,0.189,0.000: // measure 1
0000
0000
0000
0000
,  // measure 2
0020
0000
0000
0000
,  // measure 3
0230
0000
0000
0000
,  // measure 4
0302
0000
0000
0000
,  // measure 5
2003
0000
0000
0000
,  // measure 6
3002
0000
1000
0000
,  // measure 7
0023
0000
0001
0000
,  // measure 8
0230
0000
1000
0000
,  // measure 9
2300
0000
0010
0000
,  // measure 10
3001
0000
1000
0100
,  // measure 11
2000
0010
0000
3010
,  // measure 12
0100
0001
1000
0000
,  // measure 13
0100
1000
0001
0000
,  // measure 14
0100
0000
0010
0100
,  // measure 15
0002
0010
0000
0013
,  // measure 16
0100
1000
0001
0000
,  // measure 17
0100
0001
1000
0000
,  // measure 18
0100
0100
0100
0100
,  // measure 19
1001
0100
0001
0010
,  // measure 20
0200
1000
1000
0300
,  // measure 21
0010
0100
1000
0000
,  // measure 22
0001
0010
0100
0000
,  // measure 23
0100
0001
0100
0010
,  // measure 24
2000
0100
0100
3000
,  // measure 25
0001
1000
0100
0000
,  // measure 26
1000
0001
0100
0000
,  // measure 27
0100
0010
0100
0001
,  // measure 28
0002
0100
0100
0003
,  // measure 29
1000
0100
0001
0000
,  // measure 30
0001
0100
1000
0000
,  // measure 31
0100
0010
1000
0100
,  // measure 32
0200
0010
0010
0300
,  // measure 33
0010
0001
0100
0000
,  // measure 34
0010
1000
0100
0000
,  // measure 35
1000
1000
1000
1000
,  // measure 36
0001
0100
0000
0100
,  // measure 37
0000
0010
0000
0010
,  // measure 38
0000
1000
0000
1000
,  // measure 39
0000
0001
0000
0001
,  // measure 40
0100
0001
0000
1000
,  // measure 41
0000
0100
0000
0010
,  // measure 42
0000
0100
0000
0001
,  // measure 43
0000
1000
0000
0010
,  // measure 44
0200
0000
0000
0300
,  // measure 45
0010
0100
0001
1000
,  // measure 46
0100
1000
0010
0000
,  // measure 47
0100
0001
0001
0010
,  // measure 48
0010
0100
0010
0000
,  // measure 49
0001
1000
0100
0001
,  // measure 50
0100
1000
0001
0000
,  // measure 51
0100
0010
0100
0010
,  // measure 52
1000
1000
0001
0001
,  // measure 53
0110
0010
0100
0001
,  // measure 54
0200
0001
0001
0300
,  // measure 55
0010
1000
0100
0000
,  // measure 56
0010
0001
0100
0000
,  // measure 57
0010
0001
0100
0001
,  // measure 58
2000
0001
0001
3000
,  // measure 59
0100
0010
0001
0000
,  // measure 60
1000
0100
0010
0000
,  // measure 61
0001
0010
0100
1000
,  // measure 62
0020
1000
1000
0030
,  // measure 63
0100
0010
0100
0000
,  // measure 64
0001
1000
0001
0000
,  // measure 65
0100
0001
1000
0001
,  // measure 66
0200
0010
0010
0300
,  // measure 67
0001
0100
1000
0000
,  // measure 68
1000
0100
0001
0000
,  // measure 69
0010
0010
0010
0010
,  // measure 70
2002
0000
0000
0000
,  // measure 71
0000
0000
0000
0000
,  // measure 72
0000
3003
0000
0000
;

//---------------dance-single - Copied from----------------
#NOTES:
     dance-single:
     Copied from:
     Beginner:
     2:
     0.158,0.217,0.009,0.135,0.000: // measure 1
0000
0000
0000
0000
,  // measure 2
2000
0000
3000
0000
,  // measure 3
0200
0000
0300
0000
,  // measure 4
0020
0000
0030
0000
,  // measure 5
0002
0000
0003
0000
,  // measure 6
0000
0100
0000
0100
,  // measure 7
0000
0100
0000
0100
,  // measure 8
0000
0100
0000
0100
,  // measure 9
0000
0100
0000
0100
,  // measure 10
0200
0000
0300
0000
,  // measure 11
0020
0000
0030
0000
,  // measure 12
0002
0000
0003
0000
,  // measure 13
2000
0000
3000
0000
,  // measure 14
0020
0000
0030
0000
,  // measure 15
0200
0000
0300
0000
,  // measure 16
0020
0000
0030
0000
,  // measure 17
2000
0000
3000
0000
,  // measure 18
0001
0001
0001
0001
,  // measure 19
0001
0000
0100
0000
,  // measure 20
0001
0000
0000
0000
,  // measure 21
1000
0000
0010
0000
,  // measure 22
1000
0000
0010
0000
,  // measure 23
0100
0000
0010
0000
,  // measure 24
0010
0000
0000
0000
,  // measure 25
0001
0000
0100
0000
,  // measure 26
1000
0000
0100
0000
,  // measure 27
0001
0000
0010
0000
,  // measure 28
0010
0000
0000
0000
,  // measure 29
0100
0000
1000
0000
,  // measure 30
0100
0000
0010
0000
,  // measure 31
0100
0000
0010
0000
,  // measure 32
0001
0000
0000
0000
,  // measure 33
0100
0000
0010
0000
,  // measure 34
1000
0000
0001
0000
,  // measure 35
0100
0100
0100
0100
,  // measure 36
0100
0000
0000
0000
,  // measure 37
0000
0000
0000
0000
,  // measure 38
0010
0000
0000
0000
,  // measure 39
0000
0000
0000
0000
,  // measure 40
1000
0000
0001
0000
,  // measure 41
1000
0000
0000
0000
,  // measure 42
0001
0000
1000
0000
,  // measure 43
0001
0000
0000
0000
,  // measure 44
0220
0000
0330
0000
,  // measure 45
0010
0000
0000
0000
,  // measure 46
1000
0000
0001
0000
,  // measure 47
0100
0000
0000
0000
,  // measure 48
0010
0000
0001
0000
,  // measure 49
1000
0000
0000
0000
,  // measure 50
0100
0000
0010
0000
,  // measure 51
0001
0000
0000
0000
,  // measure 52
0100
0000
0001
0000
,  // measure 53
0010
0000
0010
0000
,  // measure 54
0100
0000
0000
0000
,  // measure 55
1000
0000
0001
0000
,  // measure 56
0010
0000
0100
0000
,  // measure 57
1000
0000
0010
0000
,  // measure 58
1000
0000
0000
0000
,  // measure 59
0010
0000
0100
0000
,  // measure 60
0001
0000
0001
0000
,  // measure 61
1000
0000
0100
0000
,  // measure 62
1000
0000
0000
0000
,  // measure 63
0001
0000
0100
0000
,  // measure 64
0001
0000
0010
0000
,  // measure 65
1000
0000
0010
0000
,  // measure 66
0001
0000
0000
0000
,  // measure 67
1000
0000
0001
0000
,  // measure 68
1000
0000
0001
0000
,  // measure 69
0200
0000
0300
0000
,  // measure 70
0001
0000
0000
0000
;

//---------------dance-single - Copied from----------------
#NOTES:
     dance-single:
     Copied from:
     Medium:
     6:
     0.419,0.417,0.063,0.090,0.054: // measure 1
0000
0000
0000
0000
,  // measure 2
0010
0000
0010
0000
,  // measure 3
1000
0000
1000
0000
,  // measure 4
0001
0000
0001
0000
,  // measure 5
0010
0000
0010
0000
,  // measure 6
0200
1000
0000
1000
,  // measure 7
2300
0010
0000
0010
,  // measure 8
3002
0100
0000
0100
,  // measure 9
0023
0100
0000
0130
,  // measure 10
0110
0000
0100
0000
1000
0100
1000
0000
,  // measure 11
0001
0100
0010
0100
,  // measure 12
0001
0000
1000
0001
0000
1000
0000
0010
,  // measure 13
0000
0100
0000
0010
0000
0100
0000
0000
,  // measure 14
0001
0000
0010
0000
0001
0010
0100
0000
,  // measure 15
2000
0100
0000
0100
,  // measure 16
3010
0000
0100
0010
0000
0100
0000
0001
,  // measure 17
0000
0100
0000
0001
0000
0100
0000
0000
,  // measure 18
0001
0001
1001
1001
,  // measure 19
0010
0000
0100
0000
0010
0100
1000
0000
,  // measure 20
0100
0000
0010
0000
1000
0001
1000
0000
,  // measure 21
0100
0000
1000
0100
0000
0010
0000
0001
,  // measure 22
0100
0001
0100
0000
0010
1000
0010
0000
,  // measure 23
0100
0000
0001
0000
1000
0100
0010
0000
,  // measure 24
0001
0000
0100
0000
0010
1000
0100
0000
,  // measure 25
1000
0000
0010
0100
0000
0001
0000
1000
,  // measure 26
0100
1000
0010
0000
0100
0001
0010
0000
,  // measure 27
0001
0000
1000
0000
0100
0010
0001
1000
,  // measure 28
0100
0000
1000
0000
0010
1000
0010
0000
,  // measure 29
0100
0000
0010
1000
0000
0100
0000
1000
,  // measure 30
0100
0010
0001
0000
0100
0010
0100
0000
,  // measure 31
1001
0000
0100
0000
0010
0100
1000
0001
,  // measure 32
0100
0000
0010
0000
0100
0001
0100
0000
,  // measure 33
0010
0000
1000
0100
0000
1000
0000
0010
,  // measure 34
0100
0010
0100
0000
0001
0010
0001
0000
,  // measure 35
1000
1000
0001
0001
,  // measure 36
0110
0010
0100
0010
,  // measure 37
0100
0010
1000
0010
,  // measure 38
0100
0001
0100
0001
,  // measure 39
0010
0001
1000
0100
,  // measure 40
0010
0100
0010
0100
,  // measure 41
0010
0001
1000
0010
,  // measure 42
0100
0001
0100
0001
,  // measure 43
1000
0010
0100
0001
,  // measure 44
0022
0000
0000
0033
,  // measure 45
0010
0100
0001
0100
,  // measure 46
0001
0000
0000
0000
1000
0000
0000
0010
0100
0000
0000
0001
0100
0000
0000
0000
,  // measure 47
0010
1000
0001
1000
,  // measure 48
0100
0000
0000
0000
1000
0000
0000
1000
0100
0000
0000
0010
0100
0000
0000
0000
,  // measure 49
0010
0100
0001
0010
,  // measure 50
0001
0000
0000
0000
1000
0000
0000
0010
0100
0000
0000
0010
0100
0000
0000
0000
,  // measure 51
0010
0100
0001
1000
,  // measure 52
0100
0000
0000
0000
1000
0000
0000
1000
0100
0000
0000
0010
0001
0000
0000
0000
,  // measure 53
0110
0000
0010
0000
0001
0100
0001
2000
,  // measure 54
0000
0010
0000
3010
,  // measure 55
0100
0000
0010
0100
0000
0001
0000
0100
,  // measure 56
0010
1000
0100
0000
0010
0001
0010
0000
,  // measure 57
0001
0000
0100
0000
0001
1000
0100
0020
,  // measure 58
0000
0001
0000
0031
,  // measure 59
0100
0000
0001
0010
0000
0001
0000
1000
,  // measure 60
0100
0010
0100
0000
0010
0100
1000
0000
,  // measure 61
0010
0000
0001
0000
0100
0001
0100
0010
,  // measure 62
1000
0000
0000
0001
1000
0000
0000
0000
1000
0000
0000
0001
1000
0000
0000
0000
,  // measure 63
1000
0000
0010
0100
0000
0001
0000
1000
,  // measure 64
0100
0001
0100
0000
1000
0010
0100
0000
,  // measure 65
0001
0000
0100
0000
0010
0100
0001
0100
,  // measure 66
0001
0000
0000
1000
0100
0000
0000
0000
1000
0000
0000
1000
0100
0000
0000
0000
,  // measure 67
1000
0000
0001
0010
0000
0100
0000
1000
,  // measure 68
0100
0010
0001
0000
0100
0001
1000
0000
,  // measure 69
0010
0010
0010
0010
,  // measure 70
0200
0000
0000
0000
,  // measure 71
0000
0000
0000
0000
,  // measure 72
0000
0300
0000
0000
;

//---------------dance-single - Copied from ----------------
#NOTES:
     dance-single:
     Copied from:
     Hard:
     8:
     0.548,0.577,0.180,0.027,0.077: // measure 1
0000
0000
0000
0000
,  // measure 2
1000
0000
0001
0000
0000
0100
0000
0000
1000
0000
0000
0000
0000
0000
0000
0000
,  // measure 3
0001
0000
1000
0000
0000
0100
0000
0000
0001
0000
0000
0000
0000
0000
0000
0000
,  // measure 4
0100
0000
0010
0000
0000
1000
0000
0000
0100
0000
0000
0000
0000
0000
0000
0000
,  // measure 5
0010
0000
0100
0000
0000
0001
0000
0000
0010
0000
0000
0000
0000
0000
0000
0000
,  // measure 6
1000
1000
0001
0001
,  // measure 7
0010
0010
0001
0001
,  // measure 8
1000
1000
0100
0100
,  // measure 9
0010
0010
0010
0010
,  // measure 10
1001
0000
0001
0000
0100
0010
1000
0100
,  // measure 11
0000
1000
0000
1000
,  // measure 12
0010
0000
0100
0001
0000
1000
0000
0010
,  // measure 13
0000
0010
0000
0100
0000
0100
0000
0000
,  // measure 14
0001
0000
0100
0000
0010
0100
0001
1000
,  // measure 15
0000
0010
0000
0010
,  // measure 16
1000
0000
0100
1000
0000
0001
0000
0010
,  // measure 17
0000
0100
0000
0100
0000
1000
0000
0000
,  // measure 18
0010
0000
0000
0000
0010
0000
0000
0000
0001
0100
0001
0000
1000
0100
1000
0000
,  // measure 19
0110
0000
0100
0000
0001
0100
1000
0100
,  // measure 20
0001
0010
0100
0000
0010
0100
1000
0010
,  // measure 21
0100
0000
0010
0100
0001
0100
0000
0010
,  // measure 22
1000
0100
1000
0010
0100
0001
0010
0000
,  // measure 23
0011
0000
0100
0000
0010
0100
1000
0010
,  // measure 24
0100
0001
1000
0000
0100
1000
0010
0000
,  // measure 25
0100
0000
0010
0100
0001
0100
0010
1000
,  // measure 26
0100
0010
0001
0000
0100
0010
0001
0000
,  // measure 27
1001
0000
0010
0000
0001
0010
0100
0010
,  // measure 28
0001
1000
0010
0000
0100
1000
0001
0000
,  // measure 29
0010
0000
0001
0100
0010
0100
0000
0010
,  // measure 30
1000
0010
0100
0001
0010
0100
1000
0000
,  // measure 31
0011
0000
0100
0000
1000
0010
1000
0100
,  // measure 32
1000
0001
0100
0000
0001
1000
0100
0000
,  // measure 33
0010
0000
0100
1000
0010
0100
0001
0000
,  // measure 34
1000
0100
0010
0001
0010
0001
0100
0000
,  // measure 35
0011
1100
0101
1010
,  // measure 36
0010
0000
0100
0000
0010
0000
0100
0010
,  // measure 37
1000
0000
0100
0000
1000
0000
0010
1000
,  // measure 38
0100
0000
0010
0000
0100
0000
0100
0010
,  // measure 39
0001
0000
0000
0000
0100
0000
0000
0000
0001
0000
0000
0010
0001
0000
0100
0000
,  // measure 40
0010
1000
0010
0000
0010
1000
0001
0000
,  // measure 41
0010
1000
0010
0000
0010
1000
0001
0000
,  // measure 42
0010
1000
0010
0000
0010
1000
0001
0000
,  // measure 43
0010
0000
1000
0000
0010
0000
0000
0000
0010
0000
1000
0000
0001
0100
0000
0100
,  // measure 44
0020
0000
0000
0000
0030
0000
0000
0000
0001
0100
0001
0000
1000
0010
1000
0000
,  // measure 45
0001
0100
1000
0100
0001
0010
1000
0010
,  // measure 46
0001
0100
0010
1000
0100
0010
0001
1000
,  // measure 47
0010
0100
0001
1000
0010
0100
1000
0100
,  // measure 48
0001
0010
0100
1000
0010
0100
0001
0000
,  // measure 49
1000
0100
0001
0100
1000
0010
0001
0010
,  // measure 50
1000
0100
0010
0001
1000
0010
0100
0001
,  // measure 51
1000
0010
0001
0010
0100
0001
0010
0100
,  // measure 52
1000
0000
0010
0000
0100
0000
0001
0000
0100
0000
1000
0000
0100
0010
0000
0100
,  // measure 53
0001
0000
0100
0000
1000
0100
0100
0010
,  // measure 54
0100
0000
1100
0000
0010
0100
0101
0000
,  // measure 55
0010
0000
0001
0100
0010
0100
0000
0010
,  // measure 56
1000
0100
0001
0010
1000
0010
0100
0000
,  // measure 57
0101
0000
0010
0000
0100
0010
1000
0100
,  // measure 58
1000
0000
0101
0000
0010
0100
1001
0000
,  // measure 59
0100
0010
0100
0001
0000
0100
0010
1000
,  // measure 60
0100
0000
0001
0000
0100
0000
1000
0000
0010
0000
0100
0000
0001
1000
0000
1000
,  // measure 61
0100
0000
0010
0000
0100
1000
0010
0100
,  // measure 62
0001
0000
0110
0000
0010
0001
1100
0000
,  // measure 63
0010
0100
1000
0010
0000
0100
0001
0100
,  // measure 64
0010
1000
0100
0010
0001
0100
0010
0000
,  // measure 65
1001
0000
1000
0000
0100
0001
0100
1000
,  // measure 66
0010
0000
0110
0000
1000
0001
1100
0000
,  // measure 67
0010
0100
0001
1000
0000
0100
0010
0001
,  // measure 68
1000
0000
0010
0000
0100
0000
0001
0000
0010
0000
0100
0000
1000
0100
0000
0010
,  // measure 69
0001
0010
0100
1000
,  // measure 70
2002
0000
0000
0000
,  // measure 71
0000
0000
0000
0000
,  // measure 72
0000
3003
0000
0000
;
