#TITLE:Eh, Eh (Nothing Else I Can Say);
#SUBTITLE:;
#ARTIST:Lady Gaga;
#TITLETRANSLIT:;
#SUBTITLETRANSLIT:;
#ARTISTTRANSLIT:;
#GENRE:;
#CREDIT:;
#MENUCOLOR:#FFFF99;
#NEWMETERSYSTEM:NO;
#BANNER:Eh, Eh (Nothing Else I Can Say)-bn.png;
#BACKGROUND:Eh, Eh (Nothing Else I Can Say)-bg.png;
#LYRICSPATH:Eh, Eh (Nothing Else I Can Say).lrc;
#CDTITLE:PROJECT VIRIDIAN-cdtitle.png;
#MUSIC:Eh, Eh (Nothing Else I Can Say).mp3;
#OFFSET:-0.180;
#SAMPLESTART:47.100;
#SAMPLELENGTH:13.000;
#SELECTABLE:YES;
#LISTSORT:;
#BPMS:0.000=94.000;
#STOPS:;
#BGCHANGES:;
#ATTACKS:;

//---------------dance-single - ----------------
#NOTES:
     dance-single:
     :
     Easy:
     2:
     0.136,0.155,0.017,0.120,0.000: // measure 1
0000
0000
0000
0000
,  // measure 2
1000
0000
0001
0000
,  // measure 3
1000
0000
0010
0010
,  // measure 4
0100
0000
0010
1000
,  // measure 5
0001
0000
0010
0000
,  // measure 6
0001
0000
1000
0000
,  // measure 7
0100
0000
1000
0000
,  // measure 8
0010
0000
0001
0000
,  // measure 9
0010
0000
1000
0000
,  // measure 10
0001
0000
0001
0000
,  // measure 11
1000
0000
1000
0000
,  // measure 12
0200
0300
0020
0030
,  // measure 13
0100
0000
0100
0000
,  // measure 14
1000
0000
0001
0000
,  // measure 15
2000
3000
0200
0300
,  // measure 16
0020
0000
0001
0030
,  // measure 17
0002
0000
0100
0003
,  // measure 18
2000
0000
0000
3000
,  // measure 19
0001
0000
1000
0000
,  // measure 20
0110
0000
0010
0000
,  // measure 21
1000
0000
0100
0100
,  // measure 22
0010
0000
0001
0000
,  // measure 23
1000
0000
0001
0010
,  // measure 24
0001
0000
0100
0000
,  // measure 25
1000
0000
0100
0010
,  // measure 26
0100
0000
0001
0000
,  // measure 27
0010
0000
0000
0000
,  // measure 28
0100
0000
0100
0000
,  // measure 29
1000
0000
1000
0000
,  // measure 30
0002
0003
0200
0300
,  // measure 31
0010
0000
0010
0000
,  // measure 32
0001
0000
1000
0000
,  // measure 33
0200
0300
2000
3000
,  // measure 34
0200
0000
0010
0300
,  // measure 35
0002
0000
1000
0003
,  // measure 36
0200
0000
0000
0300
,  // measure 37
0001
0000
1000
0000
,  // measure 38
0110
0000
0001
0000
,  // measure 39
1000
0000
0010
1000
,  // measure 40
0010
0000
0100
0000
,  // measure 41
0100
0000
0001
0010
,  // measure 42
0100
0000
0100
0000
,  // measure 43
1000
0000
0010
1000
,  // measure 44
0001
0000
0010
0000
,  // measure 45
0010
0000
0100
0100
,  // measure 46
0100
0000
0000
0000
;

//---------------dance-single - Copied from----------------
#NOTES:
     dance-single:
     Copied from:
     Beginner:
     1:
     0.085,0.097,0.000,0.060,0.000:
0000
0000
0000
0000
,
1000
0000
0100
0000
,
0001
0000
0000
0000
,
0001
0000
0100
0000
,
1000
0000
0000
0000
,
1000
0000
0010
0000
,
0001
0000
0000
0000
,
0001
0000
0100
0000
,
1000
0000
0000
0000
,
0010
0000
0000
0000
,
0100
0000
1000
0000
,
0001
0000
0000
0000
,
1000
0000
0000
0000
,
0001
0000
0100
0000
,
0001
0000
0000
0000
,
2000
0000
3000
0000
,
0002
0000
0003
0000
,
0020
0000
0030
0000
,
0100
0000
0000
0000
,
1000
0000
1000
0000
,
1000
0000
0000
0000
,
0001
0000
0001
0000
,
0001
0000
0000
0000
,
0010
0000
0010
0000
,
0010
0000
0000
0000
,
0100
0000
0100
0000
,
0100
0000
0000
0000
,
1000
0000
0000
0000
,
1000
0000
0010
0000
,
1000
0000
0000
0000
,
0001
0000
0000
0000
,
0001
0000
0100
0000
,
0001
0000
0000
0000
,
0200
0000
0300
0000
,
2000
0000
3000
0000
,
0020
0000
0030
0000
,
0001
0000
1000
0000
,
0001
0000
0001
0000
,
0001
0000
0000
0000
,
0100
0000
0100
0000
,
0100
0000
0000
0000
,
0010
0000
0010
0000
,
0010
0000
0000
0000
,
1000
0000
1000
0000
,
1000
0000
0020
0000
,
0030
0000
0000
0000
;

//---------------dance-single - Copied from----------------
#NOTES:
     dance-single:
     Copied from:
     Medium:
     4:
     0.244,0.213,0.000,0.034,0.000:
0000
0000
0000
0000
,
0000
0100
0100
0000
0000
1000
1000
0000
,
0000
0010
0010
0000
0000
0100
0001
0100
,
0000
0010
0010
0000
0000
1000
1000
0000
,
0000
0100
0100
0000
0000
0010
0100
1000
,
0000
0001
0001
0000
0000
0010
0010
0000
,
0000
1000
1000
0000
0000
0010
0100
0010
,
0000
1000
1000
0000
0000
0001
0001
0000
,
0000
0010
0010
0000
0000
0100
0010
0001
,
0100
0100
0010
0000
,
1000
0000
0100
0000
0001
0000
0100
0001
,
2000
0010
0000
3010
,
0100
0000
0010
0000
1000
0000
0100
0010
,
0100
0000
1000
0000
0001
0000
0100
0001
,
0020
0001
0000
0031
,
0010
0100
1000
1000
,
0100
0010
0001
0100
,
0001
1000
0010
0000
0000
0000
0000
0100
,
0010
0000
1000
0100
,
0001
1000
0001
0000
1000
0000
0100
0000
,
1000
0010
1000
0000
0010
0000
0100
0000
,
0001
0100
0001
0000
0010
0000
0100
0000
,
1000
0100
1000
0000
0010
0000
0100
0000
,
0001
0010
0001
0000
0100
0000
0010
0000
,
0100
0010
1000
0000
0100
0000
1000
0000
,
0001
0010
0001
0000
1000
0000
1000
0000
,
0010
0100
0010
0000
1000
0000
0100
0000
,
0010
0000
0010
0000
,
0001
0000
0100
0000
0010
0000
0100
0010
,
2000
0001
0000
3001
,
0010
0000
0100
0000
0010
1000
0010
0000
,
0100
0000
0001
0000
0010
0001
0010
0000
,
0200
1000
0000
1300
,
0100
0010
0100
1000
,
0001
0100
0001
0010
,
0100
1000
0010
0000
0000
0000
0000
0100
,
0001
0000
1000
0001
,
0100
0010
1000
0000
0100
0000
0001
0000
,
0010
0001
1000
0000
0100
0000
1000
0000
,
0010
0100
0010
0000
1000
0000
0001
0000
,
0100
0001
0100
0000
0010
0000
1000
0000
,
0100
1000
0001
0000
0010
0000
0001
0000
,
0100
0010
1000
0000
0001
0000
0100
0000
,
0001
0010
0100
0000
1000
0000
0010
0000
,
0100
0001
1000
0000
0010
0000
0100
0100
,
0100
0000
0000
0000
;

//---------------dance-single - Copied from----------------
#NOTES:
     dance-single:
     Copied from:
     Hard:
     5:
     0.301,0.252,0.017,0.069,0.000:
0000
0000
0000
0000
,
0000
0010
0000
1000
0000
0001
0100
0001
,
0000
0010
0000
0100
0000
0010
0100
1000
,
0000
0001
0000
1000
0000
0010
0100
0010
,
0000
1000
0000
0100
0000
1000
0001
1000
,
0000
0010
0000
0100
0000
0001
0100
0001
,
0000
0010
0000
0001
0000
1000
0010
1000
,
0000
0100
0000
0100
0000
1000
0100
1000
,
0000
0010
0000
0100
0000
0010
0100
0001
,
0010
0000
0010
0000
0100
0000
1000
0100
,
0100
0000
1000
0000
0010
0000
0100
0001
,
0020
0000
0000
0100
0230
0000
0000
1000
,
1300
0010
1000
0000
0001
0000
0100
0010
,
1000
0000
0100
0010
0100
0000
0010
0001
,
0020
0000
0000
0001
0032
0000
0000
0100
,
0103
0000
0010
0000
0100
0010
0010
0000
,
0100
0010
1000
0001
0100
0000
0100
0000
,
0010
1000
1000
0000
0001
0000
1000
0001
,
0100
0000
0000
0000
0010
0000
0100
0010
,
1001
0000
0100
0001
0100
0000
0010
1000
,
0010
0000
0100
0000
0010
1000
0001
0000
,
0100
0000
0001
0010
0001
0000
1000
0100
,
1000
0000
0010
0000
0100
0001
0010
0100
,
1000
0000
0001
0100
0001
0000
1000
0100
,
1000
0000
0010
0000
0100
0010
0100
0001
,
1000
0000
0001
0100
0001
0000
1000
0100
,
1000
0010
0100
0001
,
1000
0000
1000
0000
0100
1000
0100
0000
,
0010
0000
0100
0000
0010
0000
0001
0100
,
0020
0000
0000
1000
2030
0000
0000
0100
,
3100
0010
0001
0000
0100
0000
0001
0000
,
1000
0010
1000
0000
0010
0000
0100
0010
,
0200
0000
0000
0001
0302
0000
0000
1000
,
1003
0000
0001
0000
0100
0001
0001
0000
,
1000
0000
0100
0000
1000
0100
0100
0000
,
1000
0010
0100
0000
0001
0000
1000
0001
,
0100
0000
0010
0000
0100
0000
0010
0100
,
1001
0000
0100
1000
0001
0000
0010
0001
,
0100
0000
0010
0000
1000
0100
1000
0001
,
1000
0000
0100
0010
0100
0000
0001
0010
,
0001
0000
1000
0000
0100
0010
0010
0100
,
1000
0000
0010
0100
0010
0000
1000
0100
,
1000
0000
0001
0000
0100
1000
0010
0100
,
0001
0000
1000
0001
1000
0000
0010
0100
,
0010
0000
0001
0000
1000
0100
1000
0010
,
0100
0000
0000
0000
;
