#TITLE:Detektive;
#SUBTITLE:;
#ARTIST:Blümchen;
#TITLETRANSLIT:;
#SUBTITLETRANSLIT:;
#ARTISTTRANSLIT:Blumchen;
#GENRE:;
#CREDIT:;
#MENUCOLOR:#CC6666;
#NEWMETERSYSTEM:NO;
#BANNER:Detektive-bn.png;
#BACKGROUND:Detektive-bg.png;
#LYRICSPATH:;
#CDTITLE:PROJECT VIRIDIAN-cdtitle.png;
#MUSIC:Detektive.mp3;
#OFFSET:0.000;
#SAMPLESTART:63.920;
#SAMPLELENGTH:12.700;
#SELECTABLE:YES;
#LISTSORT:;
#BPMS:0.000=152.020;
#STOPS:;
#BGCHANGES:;
#ATTACKS:;

//---------------dance-single - ----------------
#NOTES:
     dance-single:
     :
     Easy:
     3:
     0.258,0.276,0.067,0.000,0.000:
0000
0000
0000
0000
,
0110
0000
0001
0000
,
1000
0000
0000
0001
,
0100
0000
0010
0000
,
1000
0000
0100
0100
,
0010
0000
0001
0000
,
1000
0000
0000
0010
,
1000
0000
0001
0000
,
0010
0000
0000
0000
,
0110
0000
0100
0000
,
0010
0000
0100
1000
,
0001
0000
0010
0000
,
0001
0000
0100
0010
,
1000
0000
0010
0000
,
0100
0000
0001
0001
,
0010
0000
0100
0000
,
1000
0000
0100
0100
,
1001
1000
0100
0000
,
0001
0001
0100
0000
,
0010
0100
0001
0000
,
1000
0001
1000
0010
,
0010
0000
0100
0000
,
0010
0100
0001
0000
,
1000
0010
0100
0001
,
1000
0000
0001
0000
,
1001
0000
0010
0000
,
0010
0000
0010
0000
,
0010
1000
0000
0001
,
0000
1000
0001
0010
,
0100
1000
0100
0000
,
0010
0001
0010
0000
,
0001
0100
0001
1000
,
0000
0001
0000
1000
,
0100
0100
1000
0000
,
0010
0100
0010
0000
,
0100
0001
0000
0010
,
0000
0100
0000
1000
,
0010
1000
0001
0000
,
0010
0001
1000
0000
,
0011
0000
1100
0000
,
1001
0000
0010
0010
,
1000
0100
1000
0001
,
0010
0000
0001
0000
,
0001
0100
0001
1000
,
0010
0000
0010
0000
,
1000
0010
0100
0010
,
1000
0000
0100
0000
,
1000
0100
0010
0001
,
0010
0000
0001
0000
,
0100
0001
0100
1000
,
0100
0000
0010
0000
,
1000
0010
0100
0001
,
0010
0000
0100
0000
,
0010
0001
1000
0010
,
1000
0000
0001
0000
,
0010
0100
1000
0001
,
0010
0000
0000
0010
,
0001
1000
0001
0100
,
0010
1000
1000
0000
,
0100
1000
0001
0010
,
0001
0100
0010
0000
,
1000
0001
1000
0010
,
0100
0001
0010
0000
,
0100
0100
1000
1000
,
0001
0000
1000
0010
,
0011
0001
0001
0000
,
1000
1000
0010
0000
,
0010
0010
0100
0000
,
0010
1000
0001
0100
,
0001
0001
1000
0000
,
1000
1000
0010
0000
,
0100
0100
0010
0000
,
0001
0001
1000
0001
,
0100
0000
0000
0000
;

//---------------dance-single - Copied from----------------
#NOTES:
     dance-single:
     Copied from:
     Beginner:
     1:
     0.101,0.153,0.000,0.050,0.000:
0000
0000
0000
0000
,
0010
0000
0000
0000
,
0000
0000
0000
0000
,
0100
0000
0000
0000
,
0000
0000
0000
0000
,
1000
0000
0000
0000
,
0000
0000
0000
0000
,
0001
0000
0000
0000
,
0000
0000
0100
0100
,
0100
0000
0000
0000
,
0010
0000
0000
0000
,
1000
0000
0000
0000
,
0001
0000
0000
0000
,
0010
0000
0000
0000
,
1000
0000
0000
0000
,
0010
0000
0000
0000
,
0001
0000
0000
1000
,
2000
0000
3000
0000
,
0020
0000
0030
0000
,
0100
0000
0100
0000
,
0001
0000
0000
0000
,
0020
0000
0030
0000
,
0002
0000
0003
0000
,
0010
0000
1000
0000
,
0010
0000
0000
0000
,
0200
0000
0000
0000
,
0000
0000
0300
0000
,
0000
0010
0000
0010
,
0000
0010
0000
0000
,
0001
0000
0000
0000
,
1000
0000
0000
0000
,
0100
0000
0000
1000
,
0000
0100
0000
0000
,
0010
0000
0000
0000
,
0100
0000
0000
0000
,
0000
1000
0000
1000
,
0000
0001
0000
0000
,
0001
0000
0000
0000
,
0010
0000
0000
0000
,
0002
0000
0000
0000
,
0000
0000
0003
0000
,
1000
0000
0000
0000
,
0100
0000
0000
0000
,
0010
0000
0000
0000
,
1000
0000
0000
0000
,
0010
0000
0000
0000
,
0001
0000
0000
0000
,
0001
0000
0000
0000
,
0100
0000
0000
0000
,
1000
0000
0000
0000
,
0010
0000
0000
0000
,
0001
0000
0000
0000
,
0010
0000
0000
0000
,
0100
0000
0000
0000
,
1000
0000
0000
0000
,
0010
0000
0000
0000
,
0001
0000
0000
0000
,
0100
0000
0000
0000
,
0010
0000
0000
0000
,
1000
0000
0000
0000
,
0100
0000
0000
0000
,
0001
0000
0000
0000
,
0010
0000
0000
0000
,
0001
0000
0000
0000
,
0100
0000
0000
1000
,
1000
0000
0000
0000
,
0010
0000
0000
0000
,
0001
0000
0000
0000
,
0100
0000
0000
0010
,
0010
0000
0000
0000
,
0100
0000
0000
0000
,
1000
0000
0000
0000
,
0010
0000
0000
0001
,
0001
0000
0000
0000
;

//---------------dance-single - Copied from----------------
#NOTES:
     dance-single:
     Copied from:
     Medium:
     6:
     0.396,0.429,0.159,0.042,0.000:
0000
0000
0000
0000
,
0110
0001
0100
0001
,
1000
0000
0100
0000
,
1000
1000
0100
0010
,
0001
0000
0100
0000
,
0010
0100
0001
1000
,
0010
0000
0100
0000
,
0010
1000
0100
1000
,
0100
0000
0010
0000
,
0001
0100
0000
0001
0000
1000
0000
0100
,
0000
1000
0010
0000
0100
0000
0100
0000
,
0010
0100
0000
0001
0000
0100
0000
1000
,
0000
0100
0010
0000
1000
0000
0100
0010
,
0000
0100
0000
0010
0000
0001
0000
0010
,
0000
0001
0100
0000
0001
0000
0001
0000
,
1000
0100
0000
1000
0000
0010
0000
0100
,
0000
0010
0010
0010
0010
0000
0110
0000
,
0110
0000
0010
0000
1000
0000
0000
0001
,
0000
0100
0001
0000
0001
0000
0000
1000
,
0000
0100
1000
0000
1000
0000
0000
0010
,
0000
0100
0010
0000
1000
0000
0001
0100
,
0001
0000
1000
0000
0100
0000
0000
0010
,
0000
0100
1000
0000
0001
0000
0000
0100
,
0000
0001
0010
0000
0001
0000
0000
0100
,
0000
0010
1000
0000
0010
0000
0100
0001
,
0100
0010
0000
0010
,
0000
0100
0000
0110
,
1000
0000
0100
1000
0000
0000
0100
0001
,
0000
0000
0010
0100
0000
0000
0010
0000
,
0100
0001
1000
0100
,
1000
0001
0001
0010
,
0100
0000
0010
0100
1000
0000
0010
0100
,
0000
0000
0010
0100
0000
0000
0001
0000
,
0100
0001
1000
0100
,
1000
0010
0100
0001
,
1000
0000
0100
1000
0000
0000
0001
0100
,
0000
0000
0010
0001
0000
0000
1000
0100
,
1000
0000
0010
0000
0100
0000
0001
0100
,
1000
0000
1000
0100
0001
0000
1000
0000
,
0002
0000
0000
0203
0000
0000
0320
0000
,
0000
1030
0100
1000
0010
0000
0010
0000
,
0100
0101
0010
1001
,
0100
1010
0001
0011
,
0100
1001
0100
1100
,
1000
0000
0101
0000
0010
0000
1000
0001
,
0000
0100
0000
0010
0000
1000
0000
1000
,
0010
0000
0100
0010
0100
0001
1000
0000
,
0001
0000
1000
0100
0000
0010
0000
0100
,
0000
1000
0001
0100
0002
0000
2003
0000
,
3100
0011
1000
1100
,
0010
0110
1000
0101
,
1000
0110
0010
1010
,
0100
0000
1001
0000
0010
0000
0001
1000
,
0000
0001
0000
0100
0000
0010
0000
0010
,
0000
1000
0100
0000
0010
0000
0010
0000
,
0001
0000
0010
0100
0000
1000
0000
0001
,
0000
1000
0100
0010
0100
1000
0001
0100
,
0000
0010
0000
0100
0000
0001
0000
1000
,
0000
0100
1000
0000
0010
0000
0010
0000
,
0100
0001
0000
0001
0000
1000
0000
1000
,
0000
0100
1000
0000
0010
0000
0100
0001
,
0000
0010
0000
0100
0000
1000
0000
0010
,
0000
0100
0010
0000
1000
0000
0001
0100
,
0001
0000
1000
0100
0000
1000
0000
0010
,
0000
0100
0100
0100
0100
0000
0001
0000
,
1001
0000
0010
0000
0010
0000
0000
0100
,
0000
0010
0100
0000
0100
0000
0000
0001
,
0000
1000
0001
0000
0001
0000
0000
0010
,
0000
0100
1000
0000
1000
0000
0001
1000
,
0001
0000
0100
0000
0100
0000
0000
0010
,
0000
0100
0010
0000
0010
0000
0000
1000
,
0000
0001
1000
0000
1000
0000
0000
0001
,
0000
0100
0001
0000
0001
0000
1000
1000
,
1000
0000
0000
0000
;

//---------------dance-single - Copied from ----------------
#NOTES:
     dance-single:
     Copied from:
     Hard:
     7:
     0.531,0.459,0.260,0.185,0.000: // measure 1
0000
0000
0000
0000
,  // measure 2
0020
0100
0000
1000
0000
0100
0000
0001
,  // measure 3
0000
0100
0000
0000
1000
0000
1030
0100
,  // measure 4
0020
0001
0000
0100
0000
1000
0000
0100
,  // measure 5
0000
0000
0000
0000
0001
0000
0130
1000
,  // measure 6
0002
0010
0000
0100
0000
1000
0000
0100
,  // measure 7
0000
1000
0000
0000
0010
0000
0013
0100
,  // measure 8
2000
0000
0000
0001
0000
0001
0000
3010
,  // measure 9
0000
1000
0100
0001
0100
1000
0001
0100
,  // measure 10
1001
0001
0000
1000
0000
0100
0000
1000
,  // measure 11
0000
0100
1000
0010
0100
0010
0100
0001
,  // measure 12
0000
0001
0000
0010
0000
0100
0000
1000
,  // measure 13
0000
0010
0100
0010
1000
0100
0010
0001
,  // measure 14
1001
0010
0000
0100
0000
0010
0000
0001
,  // measure 15
0000
0001
0100
0000
0010
1000
0010
0100
,  // measure 16
0001
0000
1000
0100
0000
1000
0000
0010
,  // measure 17
0000
0100
0100
0100
0100
0000
0010
0100
,  // measure 18
0010
1000
0001
0000
0101
0000
1000
0100
,  // measure 19
0000
0001
0100
0000
0010
0000
1000
0010
,  // measure 20
0000
0001
0010
0000
0001
0000
1000
0100
,  // measure 21
0000
0001
0100
0000
0010
0000
1000
0100
,  // measure 22
1000
0001
0001
0000
0010
0000
0001
0100
,  // measure 23
0000
1000
0100
0000
1000
0000
0010
1000
,  // measure 24
0000
0010
0001
0000
0010
0000
0100
0010
,  // measure 25
0000
0010
0100
0000
0010
0000
1000
0100
,  // measure 26
1000
0000
1000
0100
0000
0100
0000
1000
,  // measure 27
0000
1000
0000
0001
0010
0000
0001
0100
,  // measure 28
0010
2100
3010
0102
,  // measure 29
0013
0000
2001
0000
3100
0000
0010
0100
,  // measure 30
0001
0000
1000
0100
0010
0000
0100
1000
,  // measure 31
0010
0000
0100
0010
0001
0010
0100
1000
,  // measure 32
0001
0000
0100
0001
0100
0000
1010
0000
,  // measure 33
0000
0000
0101
0000
0000
0000
1000
0001
,  // measure 34
1000
0000
0100
0010
0100
0001
0100
0010
,  // measure 35
0100
0000
0010
1000
0100
0000
0010
0001
,  // measure 36
0100
0120
0130
1002
,  // measure 37
0103
0000
0201
0000
0310
0000
1000
0001
,  // measure 38
1000
0000
0100
0010
0001
0000
0010
0100
,  // measure 39
1000
0100
0010
0000
1001
0000
0010
0000
,  // measure 40
2100
0000
0000
3002
0000
0000
0203
0000
,  // measure 41
0300
0010
0100
0001
1000
0100
0010
0001
,  // measure 42
0100
0010
0100
0000
0001
0100
0010
0000
,  // measure 43
1000
0100
0010
0000
0001
0100
0010
0100
,  // measure 44
0001
1000
0100
0000
1000
0010
0100
0000
,  // measure 45
0010
0100
0010
0000
1000
0100
0010
0001
,  // measure 46
0010
0100
1000
0000
0010
0100
0001
0000
,  // measure 47
0010
0001
0100
0000
0010
1000
0100
1000
,  // measure 48
0010
0100
0010
1000
0000
0001
0000
2001
,  // measure 49
0000
0010
0010
0000
0100
0000
3001
0100
,  // measure 50
0010
0100
0001
1000
0100
0010
0001
0200
,  // measure 51
0000
0320
0000
0030
1000
0000
0100
1000
,  // measure 52
0010
0100
1000
0100
0010
2000
0000
3002
,  // measure 53
0000
0003
0100
0000
0011
0000
1000
0100
,  // measure 54
0010
0100
1000
0001
0010
0100
0010
0002
,  // measure 55
0000
0203
0000
0300
0010
0000
0100
0010
,  // measure 56
1000
0010
0100
0001
0010
0002
0000
0023
,  // measure 57
0000
0031
0100
1000
0100
0001
1000
0100
,  // measure 58
0000
0110
0000
0010
0000
0011
0000
1001
,  // measure 59
0000
1100
0000
1000
0010
0100
0001
0100
,  // measure 60
0000
0110
0000
1010
0000
0101
0000
1001
,  // measure 61
0000
1000
0100
0001
0100
1000
0001
0100
,  // measure 62
0000
0011
0000
0100
0000
1010
0000
1001
,  // measure 63
0000
0101
0000
0010
0100
0001
0100
1000
,  // measure 64
0000
1001
0000
0101
0000
0011
0000
1100
,  // measure 65
0000
0010
0010
0010
0010
0000
0001
0010
,  // measure 66
0001
0100
0010
0000
0010
0000
1000
0100
,  // measure 67
0000
0010
0001
0000
0100
0000
0010
0100
,  // measure 68
0000
0001
1000
0000
0100
0000
1000
0010
,  // measure 69
0000
0100
0001
0000
1000
0000
0100
1000
,  // measure 70
0100
0010
0100
0000
0100
0000
1000
0010
,  // measure 71
0000
0100
0001
0000
0010
0000
0100
0010
,  // measure 72
0000
0100
1000
0000
0100
0000
0010
0001
,  // measure 73
0000
1000
0010
0000
0100
0000
0001
1000
,  // measure 74
0001
0000
0000
0000
;
