#TITLE:Dealer;
#SUBTITLE:;
#ARTIST:S3RL;
#TITLETRANSLIT:;
#SUBTITLETRANSLIT:;
#ARTISTTRANSLIT:;
#GENRE:;
#CREDIT:;
#MENUCOLOR:#CC6666;
#NEWMETERSYSTEM:NO;
#BANNER:Dealer-bn.png;
#BACKGROUND:Dealer-bg.png;
#LYRICSPATH:;
#CDTITLE:PROJECT VIRIDIAN-cdtitle.png;
#MUSIC:Dealer.mp3;
#OFFSET:-0.020;
#SAMPLESTART:32.360;
#SAMPLELENGTH:11.200;
#SELECTABLE:YES;
#LISTSORT:;
#BPMS:0.000=178.000;
#STOPS:;
#BGCHANGES:;
#ATTACKS:;

//---------------dance-single - ----------------
#NOTES:
     dance-single:
     :
     Easy:
     4:
     0.331,0.369,0.084,0.067,0.000: // measure 1
0000
0000
0000
0000
,  // measure 2
0000
0000
0000
0000
,  // measure 3
0000
0000
0000
0000
,  // measure 4
0000
0000
0000
0000
,  // measure 5
0000
0000
0000
0000
,  // measure 6
0000
0000
0000
0000
,  // measure 7
0000
0000
0000
0000
,  // measure 8
0000
0000
0000
0000
,  // measure 9
0010
0000
0010
0000
,  // measure 10
1000
0001
1000
0000
,  // measure 11
0100
0000
0100
0000
,  // measure 12
0001
1000
0001
0000
,  // measure 13
0100
0000
1000
0000
,  // measure 14
0100
0000
0001
0000
,  // measure 15
0000
0010
0010
0010
,  // measure 16
0000
0100
0100
0100
,  // measure 17
1001
0001
0100
1000
,  // measure 18
0100
0010
1000
0000
,  // measure 19
1000
0100
0001
0100
,  // measure 20
1000
0010
0100
0000
,  // measure 21
0001
0001
0010
0010
,  // measure 22
0100
1000
0001
0000
,  // measure 23
0000
1000
1000
1000
,  // measure 24
0000
0001
0001
0001
,  // measure 25
1001
0001
0010
0100
,  // measure 26
1000
0100
0010
0000
,  // measure 27
1000
0100
1000
0010
,  // measure 28
0100
0001
0010
0000
,  // measure 29
0001
0001
1000
1000
,  // measure 30
0100
1000
0010
0000
,  // measure 31
0000
1000
1000
1000
,  // measure 32
0110
0000
0110
0000
,  // measure 33
1001
0100
0010
1000
,  // measure 34
0100
1000
0001
0000
,  // measure 35
0010
0010
0100
1000
,  // measure 36
0100
0010
0001
0000
,  // measure 37
0100
0010
1000
0001
,  // measure 38
0010
0100
1000
0000
,  // measure 39
0001
0010
0001
1000
,  // measure 40
0100
0000
1001
0000
,  // measure 41
1000
0100
1000
0010
,  // measure 42
0100
0001
1000
0000
,  // measure 43
0001
0010
0001
1000
,  // measure 44
0100
1000
0010
0000
,  // measure 45
0200
0000
0320
0000
,  // measure 46
2030
0000
3001
0100
,  // measure 47
0002
0000
0100
0003
,  // measure 48
2000
0000
0010
3001
,  // measure 49
1000
0010
0100
0001
,  // measure 50
1000
0001
0010
0000
,  // measure 51
0100
1000
0010
1000
,  // measure 52
0001
0100
0001
0000
,  // measure 53
1000
1000
0010
0010
,  // measure 54
0100
0001
0100
0000
,  // measure 55
0000
0010
0010
0010
,  // measure 56
2000
0000
3001
0000
,  // measure 57
0110
0001
1000
0001
,  // measure 58
0010
0100
1000
0010
,  // measure 59
0100
0001
1000
0001
,  // measure 60
0010
0000
0010
0000
,  // measure 61
0100
1000
0100
0010
,  // measure 62
0001
1000
0001
0100
,  // measure 63
0010
1000
0001
1000
,  // measure 64
0010
0000
1000
0000
,  // measure 65
0001
0010
0001
1000
,  // measure 66
0100
1000
0001
0010
,  // measure 67
0100
1000
0010
0100
,  // measure 68
0001
0000
0100
0000
,  // measure 69
0010
0010
1000
0010
,  // measure 70
0100
0001
0010
0100
,  // measure 71
1000
0001
0010
0001
,  // measure 72
1001
0000
1001
0000
,  // measure 73
0010
0100
0010
1000
,  // measure 74
0100
0010
0100
0000
,  // measure 75
1000
0001
1000
0001
,  // measure 76
0010
0100
1000
0000
,  // measure 77
0010
0010
1000
1000
,  // measure 78
0100
0010
0001
0000
,  // measure 79
0000
0100
0100
0100
,  // measure 80
0000
0001
0001
0001
,  // measure 81
1000
0100
0001
0100
,  // measure 82
1000
0010
0001
0010
,  // measure 83
1000
0001
0100
0001
,  // measure 84
1000
0010
1000
0001
,  // measure 85
0100
0001
0100
0010
,  // measure 86
1000
0001
1000
0000
,  // measure 87
0220
0000
0000
0000
,  // measure 88
0000
0000
0330
0000
;

//---------------dance-single - Copied from----------------
#NOTES:
     dance-single:
     Copied from:
     Beginner:
     2:
     0.132,0.220,0.008,0.008,0.000:
0000
0000
0000
0000
,
0000
0000
0000
0000
,
0000
0000
0000
0000
,
0000
0000
0000
0000
,
0000
0000
0000
0000
,
0000
0000
0000
0000
,
0000
0000
0000
0000
,
0000
0000
0000
0000
,
1000
0000
0100
0000
,
1000
0000
0000
0000
,
0001
0000
0100
0000
,
0001
0000
0000
0000
,
0010
0000
0000
0000
,
0100
0000
0000
0000
,
0000
1000
1000
0000
,
0000
0001
0001
0000
,
0010
0000
0100
0000
,
0010
0000
0000
0000
,
1000
0000
0001
0000
,
1000
0000
0000
0000
,
0001
0000
0000
0000
,
0010
0000
0000
0000
,
0000
0100
0100
0000
,
0000
1000
1000
0000
,
0010
0000
1000
0000
,
0010
0000
0000
0000
,
0100
0000
0001
0000
,
0100
0000
0000
0000
,
0010
0000
0000
0000
,
0100
0000
0000
0000
,
0000
0001
0001
0000
,
1000
0000
0100
0000
,
0010
0000
0000
0000
,
0100
0000
0000
0000
,
1000
0000
0000
0000
,
0001
0000
0001
0000
,
0010
0000
0000
0000
,
0100
0000
0000
0000
,
0010
0000
0000
0000
,
0001
0000
1000
0000
,
1000
0000
0000
0000
,
0010
0000
0000
0000
,
0100
0000
0000
0000
,
0010
0000
0000
0000
,
1000
0000
0000
0000
,
0001
0000
0000
0000
,
0010
0000
0010
0000
,
0100
0000
0000
0000
,
0010
0000
0001
0000
,
1000
0000
0000
0000
,
0010
0000
1000
0000
,
0001
0000
0000
0000
,
0100
0000
0000
0000
,
1000
0000
0000
0000
,
0000
0001
0001
0000
,
1000
0000
0001
0000
,
0110
0000
0000
0000
,
0010
0000
0010
0000
,
0100
0000
0000
0000
,
0001
0000
1000
0000
,
0001
0000
0000
0000
,
1000
0000
0010
0000
,
1000
0000
0000
0000
,
0100
0000
0000
0000
,
0010
0000
0000
0000
,
0010
0000
0000
0000
,
1000
0000
0000
0000
,
0001
0000
1000
0000
,
0001
0000
0000
0000
,
0010
0000
0001
0000
,
0010
0000
0000
0000
,
0100
0000
0100
0000
,
0100
0000
1000
0000
,
0010
0000
0000
0000
,
0001
0000
0100
0000
,
0001
0000
0000
0000
,
1000
0000
0000
0000
,
0010
0000
0000
0000
,
0000
0100
0100
0000
,
0000
0010
0010
0000
,
1000
0000
0000
0000
,
0001
0000
0000
0000
,
0100
0000
0000
0000
,
0001
0000
0000
0000
,
1000
0000
0000
0000
,
0010
0000
0000
0000
,
0200
0000
0000
0000
,
0300
0000
0000
0000
;

//---------------dance-single - Copied from----------------
#NOTES:
     dance-single:
     Copied from:
     Medium:
     7:
     0.463,0.627,0.135,0.051,0.000:
0000
0000
0000
0000
,
0000
0000
0000
0000
,
0000
0000
0000
0000
,
0000
0000
0000
0000
,
0000
0000
0000
0000
,
0000
0000
0000
0000
,
0000
0000
0000
0000
,
0000
0000
0000
0000
,
0010
0000
0010
0000
,
0100
0010
0100
0000
,
0001
0100
1000
0100
,
0001
1000
0001
0000
,
1000
0000
0100
0000
,
1000
0100
1000
0000
,
0000
0010
0010
0100
,
0000
0100
0100
0010
,
1001
0000
0001
0000
0100
0001
0100
0000
,
0010
1000
0100
0000
,
1000
0000
0100
0000
1000
0100
1000
0000
,
0010
0000
0100
0001
0001
0000
0000
0000
,
0010
0001
0010
0000
0100
1000
0100
0000
,
1001
1001
0110
0000
,
0000
0001
0100
1000
,
0000
1000
0100
0001
,
1000
0000
0001
0000
0100
0001
0100
0000
,
0010
1000
0100
0000
,
1000
0000
0100
0000
0010
0100
0010
0000
,
0001
0000
1000
0001
0010
0000
0000
0000
,
0010
0100
0010
0000
0001
1000
0001
0000
,
0101
0101
1010
0000
,
0000
0001
0001
0100
,
1010
0001
0101
1000
,
0110
0000
0010
0000
0100
0010
0000
0010
,
0000
0100
0001
0000
1000
0100
1000
0000
,
0001
0000
0100
0000
0001
1000
0000
0100
,
0000
0010
0001
0010
0001
1000
0100
0000
,
1000
0000
0010
0000
0100
0001
0000
0001
,
0000
0100
0010
0000
0100
0001
0100
0000
,
0010
0000
1000
0000
0010
1000
0000
1000
,
0000
0100
0010
0001
2000
0000
0000
0000
,
3001
0000
0100
0000
0010
0100
0000
0001
,
0000
0100
0010
0000
1000
0100
0010
0000
,
0100
0000
0100
0000
0010
0100
0000
1000
,
0000
0001
0100
0001
1000
0100
0010
0000
,
0100
0000
0010
0100
0000
0001
0100
0000
,
1000
0100
0000
0010
0100
0000
0100
0000
,
2000
3002
0203
0320
,
1030
0100
0010
0001
1000
0100
0010
0001
,
0100
0000
0100
0000
0001
0100
0001
0000
,
1000
0000
0100
0000
1000
0100
0010
0000
,
0100
0000
0100
0000
0010
0100
0010
0000
,
1000
0000
0100
1000
0001
0000
0000
0000
,
0010
0001
0010
0000
0100
1000
0100
0000
,
0011
0011
1010
0000
,
0000
1000
1000
0001
,
0100
0010
0100
0010
1000
0000
0000
0000
,
1001
0000
0100
0000
0010
0100
0000
0000
,
0001
0000
1000
0000
0100
0010
0000
0001
,
0100
0000
0010
0000
1000
0010
0000
0000
,
0100
0000
0001
0000
0100
0000
0001
0010
,
0100
0000
0100
0000
0010
1000
0000
0000
,
0010
0000
0001
0000
0100
0001
0000
0100
,
0010
0000
1000
0000
0001
0100
0000
0000
,
0010
0000
0010
0000
1000
0000
1000
0001
,
0010
0000
0100
0000
0010
1000
0010
0000
,
0100
0000
0001
0000
1000
0001
0100
0010
,
0100
0000
0001
0000
1000
0100
0010
0000
,
0100
0000
0100
0000
1000
0000
0010
1000
,
0010
0000
0100
0000
0001
0010
0100
0000
,
1000
0000
1000
0000
0001
0100
0001
0010
,
0100
0000
1000
0000
0010
0100
0010
0000
,
1010
0100
0011
0100
,
1000
0000
1000
0000
0001
0100
0001
0000
,
1000
0000
0100
0010
0001
0100
0010
0000
,
0100
0000
0100
0000
0010
1000
0010
0000
,
0100
0000
0001
1000
0001
0010
0001
0000
,
1000
0100
0010
0000
0001
0010
0100
0000
,
1000
0000
1000
0000
0001
0100
0001
0000
,
0000
0000
1000
0100
0010
0001
0100
0000
,
0001
0000
1000
0001
0100
0001
1000
0100
,
0001
0000
0100
0000
1000
0010
0100
0000
,
0001
0000
0100
0000
0001
0100
1000
0100
,
0001
0000
1000
0000
0100
1000
0010
0000
,
0100
0000
0100
0000
0010
0100
0001
1000
,
0100
0000
0010
0000
0001
0010
0100
1000
,
0001
0000
0100
0000
0010
1000
0000
1000
,
0002
0000
0000
0000
,
0000
0000
0003
0000
;

//---------------dance-single - Copied from----------------
#NOTES:
     dance-single:
     Copied from:
     Hard:
     9:
     0.645,0.658,0.261,0.160,0.000:
0000
0000
0000
0000
,
0000
0000
0000
0000
,
0000
0000
0000
0000
,
0000
0000
0000
0000
,
0000
0000
0000
0000
,
0000
0000
0000
0000
,
0000
0000
0000
0000
,
0000
0000
0000
0000
,
1000
0100
0010
0001
,
0100
0000
0010
0000
0100
0100
0100
0000
,
0001
0100
1000
0100
,
0001
0000
1000
0001
1000
0000
0000
0000
,
0100
0100
0010
0000
0010
0010
0001
0000
,
0010
0000
0001
0000
0100
0001
0100
0000
,
0000
0000
0010
1000
0010
1000
0001
0100
,
0000
0000
0001
0010
0001
0010
0100
1000
,
0001
0000
0101
0000
1000
0100
1000
0000
,
0010
0000
0100
0010
0100
0001
1000
0000
,
0100
0000
1100
0000
1000
0010
0100
0000
,
0001
0000
0100
0010
0100
0010
1000
0000
,
0100
0010
0001
0000
0010
0100
1000
0000
,
0010
0000
0100
0001
0100
0010
1000
0000
,
0100
0000
1000
0100
1000
0100
0010
0001
,
0100
0000
0001
0100
0001
0100
0010
1000
,
0100
0000
1100
0000
1000
0010
0100
0000
,
0001
0000
0011
0001
1000
0100
0010
0000
,
0010
0000
1010
0000
0100
0010
0001
0000
,
0100
0000
0010
0100
0001
1000
0100
0000
,
0001
0100
1000
0000
1000
0100
0001
0000
,
1000
0000
1100
0010
0100
0001
1000
0000
,
0010
0000
0100
0001
1000
0100
0010
0001
,
0202
0303
2020
3030
,
1001
0000
1010
0000
0100
0010
0100
0010
,
0100
0001
0100
1000
0010
0100
0001
0000
,
1100
0000
1001
0000
0100
0001
0100
1000
,
0100
0010
1000
0100
0010
0001
0010
0000
,
0101
0000
0110
0000
0001
0100
1000
0100
,
0010
1000
0100
0001
0100
0010
0100
0000
,
1100
0000
0011
0000
0100
0001
0100
0010
,
0100
0001
1000
0010
0200
0000
0001
0000
,
0310
0100
0010
1000
0010
0001
0010
1000
,
0100
0010
0001
1000
0100
0000
1001
0000
,
0001
0100
0001
1000
0100
1000
0010
0100
,
1000
0100
0010
1000
0100
0000
1001
0000
,
0020
0000
0130
0002
0000
0103
0020
0000
,
1030
0200
0000
0301
0200
0000
1300
0000
,
0010
0100
0010
0100
0001
0100
0001
0010
,
0100
1000
0100
0010
0001
1000
0100
0010
,
0001
0000
0101
0000
0010
0100
0010
0000
,
1000
0000
1100
1000
0001
0100
0001
0000
,
1010
0000
0001
0000
0100
0010
0100
0000
,
0100
0000
0010
1000
0100
1000
0001
0000
,
1000
0100
1000
0000
0100
1000
0100
0000
,
0010
0000
0010
0100
0010
1000
0001
0000
,
0100
0000
0001
0100
0001
1000
0100
0010
,
0002
0000
0010
0010
0013
0000
0010
0000
,
1001
0000
0100
0000
0010
0100
1000
0001
,
0100
0000
0010
0000
0100
0001
0100
1000
,
0100
0010
1000
0100
0010
0001
0100
0001
,
0010
0000
0010
0000
0100
0000
1000
1000
,
0010
0100
0010
0000
1000
0100
0010
0001
,
0100
0000
0100
0000
0001
0100
1000
0100
,
0001
0000
0010
0000
0100
1000
0010
0100
,
0001
0000
0001
0000
1000
0000
0100
0010
,
0001
1000
0100
1000
0010
0100
1000
0100
,
0001
0010
0100
1000
0001
0010
0100
0010
,
0001
0100
0010
0100
0001
0100
1000
0100
,
0010
1000
0100
0010
0100
0010
1000
0001
,
0100
0010
1000
0100
0001
0100
1000
0010
,
0001
0010
1000
0100
0010
0001
0100
0010
,
0100
0001
1000
0100
0010
0001
1000
0100
,
2200
3300
0022
0033
,
0101
0000
1010
0000
0100
0010
0100
0000
,
0010
0001
0100
0010
0100
0100
0010
0000
,
1000
0100
0010
0100
1000
0100
0010
0001
,
0100
0010
0100
0001
0100
0010
1000
0000
,
1002
0103
2001
3100
,
0010
0100
0010
1000
0100
0010
0100
0000
,
0010
0001
0100
0010
0100
0001
1000
0001
,
0010
0000
0100
1000
0001
1000
0100
1000
,
0010
0000
0110
0000
0100
0010
0100
0001
,
1000
0100
0010
0100
0001
0010
1000
0100
,
0010
0001
1000
0100
1000
0001
0010
0100
,
1000
0001
0100
0001
0010
0100
1000
0010
,
0100
0000
1001
0000
0010
0100
0010
1000
,
0100
0010
0001
0100
0001
0100
1000
0000
,
0220
0000
0000
0330
;
