#TITLE:D2;
#SUBTITLE:;
#ARTIST:FIRST AID;
#TITLETRANSLIT:;
#SUBTITLETRANSLIT:;
#ARTISTTRANSLIT:;
#GENRE:;
#CREDIT:;
#MENUCOLOR:;
#NEWMETERSYSTEM:NO;
#BANNER:D2-bn.png;
#BACKGROUND:D2-bg.png;
#LYRICSPATH:;
#CDTITLE:;
#MUSIC:D2.mp3;
#OFFSET:-0.240;
#SAMPLESTART:57.340;
#SAMPLELENGTH:12.000;
#SELECTABLE:YES;
#LISTSORT:;
#DISPLAYBPM:*;
#BPMS:0.000=89.000,4.000=178.000,20.000=356.000,180.000=178.000,212.000=356.000,244.000=89.000,246.000=178.000,250.000=356.000,258.000=712.000,274.000=356.000,418.000=178.000,450.000=356.000,538.000=89.000;
#STOPS:538.000=0.674
;
#BGCHANGES:;
#ATTACKS:;

//---------------dance-single - ----------------
#NOTES:
     dance-single:
     :
     Easy:
     6:
     0.461,0.900,0.258,0.355,0.000:
0100
0010
0100
0010
,
2002
0000
0000
0000
,
0000
0000
0000
0000
,
0000
0000
0000
0000
,
0000
0000
0000
3003
,
0010
0000
0100
0000
,
0001
0100
1000
0000
,
0100
0000
0001
0000
,
1000
0000
0010
1000
,
0010
0000
0100
0000
,
0001
1000
0001
0000
,
1000
0000
0100
0000
,
0010
0000
0001
0100
,
0010
0000
1000
0000
,
0001
1000
0001
0000
,
1000
0000
0100
0000
,
0010
0000
0100
0010
,
0001
0000
0100
0000
,
0010
0100
0010
0000
,
1000
0000
0001
0000
,
0100
0001
0100
0001
,
1000
0000
0100
0000
,
1000
0010
0100
0000
,
0001
0000
1000
0000
,
0100
0000
0010
0100
,
0010
0000
0001
0000
,
1000
0001
0100
0000
,
0010
0000
0100
0000
,
0010
0000
1000
0100
,
1000
0000
0001
0000
,
0100
0001
0010
0000
,
0100
0000
1000
0000
,
0001
0000
1000
0100
,
1000
0000
0010
0000
,
0100
0001
0100
0000
,
0001
0000
0010
0000
,
0001
0100
0001
1000
,
0100
0000
1000
0000
,
0000
1000
0000
0000
,
0001
0000
0000
0001
,
0000
0000
0010
0000
,
0010
0000
0100
0000
,
0000
0001
0000
0000
,
1000
0000
0000
0100
,
0000
0000
1000
0000
,
0001
0001
1000
1000
,
1010
0101
1001
0000
,
0100
0100
0010
0010
,
0011
1100
1001
0100
,
1000
1000
0010
0010
,
0101
1010
1001
0100
,
0020
0130
0200
1300
,
1001
0011
1001
0000
,
2000
0000
0000
3200
,
0000
0000
0320
0000
,
0031
0000
0002
0000
,
0000
0203
0000
0000
,
0320
0000
1030
0000
,
0200
0000
0000
0320
,
0000
0000
2030
0000
,
3001
0000
1000
0000
,
2002
0000
0000
0000
,
0000
0000
0000
0000
,
0000
0000
0000
0000
,
0000
0000
0000
0000
,
0000
0000
0000
0000
,
0000
0000
0000
0000
,
0000
0000
0000
0000
,
3003
0000
1001
0000
,
1000
0000
0001
0100
,
0001
0000
1000
0000
,
0010
0000
0100
0000
,
0010
1000
0010
0000
,
0100
0000
0001
0010
,
0100
0000
1000
0000
,
0010
0000
0100
0000
,
0001
1000
0001
0000
,
0010
0000
0100
0001
,
0010
0000
0100
0000
,
1000
0000
0010
0000
,
1000
0100
1000
0000
,
0010
0000
1000
0100
,
0010
0000
0100
0000
,
0001
0000
0100
1000
,
0010
0100
0001
0000
,
1000
0000
0010
1000
,
0001
0000
0100
0000
,
0001
0000
0001
0000
,
0010
0001
0100
0000
,
0010
0000
0001
0010
,
0100
0000
0010
0000
,
0100
0000
1000
0000
,
0010
1000
0010
0000
,
0100
0000
0001
1000
,
0100
0000
1000
0000
,
0010
0000
0100
0000
,
0001
0010
0001
0000
,
1000
0000
0010
1000
,
0100
0000
1000
0000
,
0001
0000
0010
0010
,
0001
0001
0100
0000
,
0001
0000
0000
0101
,
0000
0000
1000
0000
,
0000
1100
0000
0000
,
0010
0000
0100
0100
,
0001
0001
1100
1001
,
0011
0000
1000
1000
,
0010
0010
1100
0101
,
0011
1000
0001
0001
,
0010
0010
0110
1100
,
1100
0001
2000
3100
,
0002
0103
0010
0100
,
1000
0001
2000
0000
,
0000
3002
0000
0000
,
0023
0000
0031
0000
,
0200
0000
0000
0320
,
0000
0000
2030
0000
,
3010
0000
0200
0000
,
0000
0302
0000
0000
,
2003
0000
3010
0000
,
0200
0000
0000
0302
,
0000
0000
0023
0000
,
0130
0000
2000
0000
,
0000
3200
0000
0000
,
0320
0000
0031
0000
,
0002
0000
0000
0023
,
0000
0000
0230
0000
,
1300
0000
0002
0000
,
0000
0203
0000
0000
,
0320
0000
0130
0000
,
0100
0000
2002
0000
,
0000
0000
0000
0000
,
0000
0000
0000
0000
,
0000
0000
0000
0000
,
0000
0000
0000
0000
0000
0000
0000
0000
0000
0000
0000
0000
0000
0000
0000
0000
0000
3003
0000
0000
0000
0000
0000
0000
1100
0000
0000
0000
0000
0000
0000
0000
,
0101
0000
0000
0000
;

//---------------dance-single - Copied from----------------
#NOTES:
     dance-single:
     Copied from:
     Beginner:
     3:
     0.162,0.300,0.000,0.044,0.000:
0000
0000
0000
0000
,
0002
0000
0000
0000
,
0000
0000
0000
0000
,
0000
0000
0000
0000
,
0003
0000
0000
0000
,
1000
0000
0000
0000
,
0000
0000
0000
0000
,
0100
0000
0000
0000
,
0000
0000
0000
0000
,
0010
0000
0000
0000
,
0000
0000
0000
0000
,
0001
0000
0000
0000
,
0000
0000
0000
0000
,
0100
0000
0000
0000
,
0000
0000
0000
0000
,
1000
0000
0000
0000
,
0000
0000
0000
0000
,
0010
0000
0000
0000
,
0000
0000
0000
0000
,
0001
0000
0000
0000
,
0100
0000
0000
0000
,
0100
0000
0000
0000
,
0000
0000
0000
0000
,
1000
0000
0000
0000
,
0000
0000
0000
0000
,
0010
0000
0000
0000
,
0000
0000
0000
0000
,
0001
0000
0000
0000
,
0000
0000
0000
0000
,
0010
0000
0000
0000
,
0000
0000
0000
0000
,
0100
0000
0000
0000
,
0000
0000
0000
0000
,
1000
0000
0000
0000
,
0000
0000
0000
0000
,
0100
0000
0000
0000
,
0001
0000
0000
0000
,
0010
0000
0000
0000
,
0000
0000
0000
0000
,
0000
0000
0000
0000
,
0000
0000
1000
0000
,
1000
0000
0000
0000
,
0000
0000
0000
0000
,
0000
0000
0000
0000
,
0000
0000
0001
0000
,
0001
0000
0100
0000
,
0010
0000
0010
0000
,
1000
0000
0100
0000
,
0001
0000
0100
0000
,
1000
0000
0010
0000
,
0100
0000
0001
0000
,
2000
0000
3000
0000
,
0002
0000
0003
0000
,
0100
0000
0000
0100
,
0000
0000
0100
0000
,
0000
0000
0010
0000
,
0000
0010
0000
0000
,
0010
0000
0000
0000
,
1000
0000
0000
1000
,
0000
0000
1000
0000
,
1000
0000
0000
0000
,
0200
0000
0000
0000
,
0000
0000
0000
0000
,
0000
0000
0000
0000
,
0000
0000
0000
0000
,
0000
0000
0000
0000
,
0000
0000
0000
0000
,
0000
0000
0300
0000
,
0000
0000
0100
0000
,
0000
0000
0010
0000
,
0000
0000
1000
0000
,
0000
0000
0001
0000
,
0000
0000
0010
0000
,
0000
0000
0001
0000
,
0000
0000
1000
0000
,
0000
0000
0100
0000
,
0000
0000
1000
0000
,
0000
0000
1000
0000
,
0000
0000
0010
0000
,
0000
0000
0100
0000
,
0000
0000
0001
0000
,
0000
0000
0001
0000
,
0000
0000
0010
0000
,
0000
0000
0001
0000
,
0000
0000
1000
0000
,
0000
0000
1000
0000
,
0000
0000
0100
0000
,
0000
0000
1000
0000
,
0000
0000
0010
0000
,
0000
0000
0100
0000
,
0000
0000
0001
0000
,
0000
0000
0001
0000
,
0000
0000
0010
0000
,
0000
0000
0001
0000
,
0000
0000
0100
0000
,
0000
0000
1000
0000
,
0000
0000
1000
0000
,
0000
0000
0010
0000
,
0000
0000
0100
0000
,
0000
0000
0001
0000
,
0000
0000
1000
0000
,
0000
0000
0000
0000
,
0000
0000
0000
0000
,
0000
0000
0000
0000
,
1000
0000
1000
0000
,
0001
0000
0100
0000
,
0001
0000
0010
0000
,
0010
0000
0001
0000
,
0100
0000
0010
0000
,
1000
0000
0100
0000
,
1000
0000
0001
0000
,
0100
0000
0010
0000
,
0010
0000
0100
0000
,
0000
0100
0000
0000
,
0100
0000
0000
0000
,
0001
0000
0000
0001
,
0000
0000
0001
0000
,
0000
0000
1000
0000
,
0000
1000
0000
0000
,
1000
0000
0000
0000
,
0010
0000
0000
0010
,
0000
0000
0010
0000
,
0000
0000
0100
0000
,
0000
0100
0000
0000
,
0100
0000
0000
0000
,
1000
0000
0000
1000
,
0000
0000
1000
0000
,
0000
0000
0010
0000
,
0000
0010
0000
0000
,
0010
0000
0010
0000
,
0000
0000
0020
0000
,
0000
0000
0000
0000
,
0000
0000
0000
0000
,
0000
0000
0000
0000
,
0000
0000
0030
0100
,
0100
0000
0000
0000
;

//---------------dance-single - Copied from----------------
#NOTES:
     dance-single:
     Copied from:
     Medium:
     8:
     0.564,1.000,0.293,0.124,0.111:
1000
0100
0010
0001
,
0220
0000
0000
0000
,
0000
0000
0000
0000
,
0000
0000
0000
0000
,
0000
0000
0000
0330
,
0001
0000
0100
0000
,
0001
1000
0100
0000
,
1000
0000
0010
0000
,
0100
0010
0100
0000
,
0001
0100
1000
0000
,
1000
0100
0001
0000
,
1000
0000
0100
0000
,
1000
0010
0100
0000
,
0001
0000
1000
0100
,
0001
0100
1000
0000
,
0010
0000
0100
0000
,
0001
0010
0100
0000
,
0010
0000
0001
0000
,
1000
0100
1000
0000
,
0010
0000
0100
0000
,
0001
0010
0100
1000
,
0001
0000
0100
0000
,
0001
1000
0100
0000
,
1000
0010
0100
0000
,
0010
0100
0001
0000
,
1000
0000
0100
0000
,
1000
0100
0010
0000
,
0100
0010
0001
0000
,
1000
0000
0001
0100
,
0001
0000
0001
0000
,
0100
0001
1000
0000
,
0100
1000
0010
0000
,
1000
0000
0100
0000
,
0001
0100
1000
0000
,
0001
0010
1000
0000
,
0010
0000
0001
0000
,
0100
0001
1000
0100
,
0010
0000
1001
0000
,
0000
0110
0000
0000
,
1001
0000
0000
0101
,
0000
0000
1000
0000
,
1000
0000
1010
0000
,
0000
1001
0000
0000
,
0011
0000
0000
1001
,
0000
0000
0100
0000
,
0010
0010
1000
1000
,
0001
0000
1000
0100
0000
0010
0100
0000
0000
0001
0000
0000
,
1000
0000
1000
0000
1000
0000
0100
0000
0100
0000
0100
0000
,
0010
0000
0000
0001
0000
0000
0100
0000
0001
1000
0000
0000
,
0100
0110
0010
1001
,
0100
0011
0001
1010
,
1000
0000
0100
0000
0001
0000
1000
0000
0010
0000
0001
0000
,
0100
0100
0010
0010
,
0100
0001
0100
0010
,
1000
0010
0100
0001
,
2000
0000
3100
0010
,
0001
1000
0100
0010
,
0100
1000
0002
0000
,
0103
0010
0100
0001
,
1000
0001
1000
0100
,
0010
0001
0010
0000
,
2002
0000
0000
0000
,
0000
0000
0000
0000
,
0000
0000
0000
0000
,
0000
0000
0000
0000
,
0000
0000
0000
0000
,
0000
0000
0000
0000
,
0000
0000
0000
0000
,
3003
0000
1001
0000
,
0100
0000
0010
0100
,
1000
0100
0010
0000
,
1000
0000
0001
0100
,
0001
1000
0001
0010
,
0100
0010
0001
0000
,
1000
0100
1000
0000
,
0010
0000
0100
0001
,
1000
0100
0010
0100
,
0001
0100
1000
0010
,
0100
0000
0001
0100
,
1000
0000
0010
0100
,
0001
0000
1000
0100
,
0010
0100
1000
0001
,
0100
0000
0001
1000
,
0100
0010
0100
1000
,
0100
0000
1001
0000
,
1000
0100
1000
0001
,
0100
0000
0010
0100
,
0001
0100
1000
0100
,
0010
0000
1000
0001
,
0010
0001
1000
0100
,
0010
0000
0100
1000
,
0100
0010
0001
0010
,
0100
1000
0001
0100
,
0001
0000
0100
0010
,
0100
1000
0100
0000
,
0001
0000
1000
0001
,
1000
0010
0100
0001
,
0100
0000
0010
1000
,
0010
0000
1000
0100
,
0010
0100
1000
0100
,
0010
0001
1000
0000
,
0101
0000
0000
1010
,
0000
0000
1001
0000
,
0000
0011
0000
0000
,
0100
0000
0000
0000
0000
0000
0010
0000
1000
0001
0000
0000
,
0100
0000
0001
1000
0000
0000
0010
0000
0000
0110
0000
0000
,
0110
0000
0000
1000
0000
0000
0001
0000
0010
0000
0100
0000
,
1000
0000
0100
0000
0010
0000
0001
0000
1000
0100
0000
0000
,
1100
1000
0110
0101
,
0110
0011
1010
1100
,
0101
0000
0000
1001
0000
0000
0010
0000
0010
0000
0100
0000
,
0010
0000
1000
0000
1000
0000
0001
0100
0001
0000
1000
0000
,
1000
0010
0100
0010
,
1000
0100
0001
0100
,
1000
0001
0200
0000
,
0310
0100
0001
0010
,
0010
0100
1000
0010
,
2000
0000
3100
0001
,
0100
1000
0100
0010
,
0100
1000
0002
0000
,
0013
0100
0001
0100
,
1000
0010
0100
0001
,
2000
0000
3001
0100
,
0001
1000
0100
1000
,
0010
0100
0020
0000
,
1030
0100
1000
0001
,
0100
0001
0010
0100
,
0020
0000
0130
1000
,
0100
1000
0001
1000
,
0010
0100
0001
0100
,
1000
0100
0002
0000
,
0000
0000
0000
0000
,
0000
0000
2000
0000
,
0000
0000
0000
0000
,
0000
0000
0000
0000
0000
0000
0000
0000
0000
0000
0000
0000
0000
0000
0000
0000
0000
0000
0000
0000
0000
0000
0000
0000
0000
0000
0000
0000
0000
0000
0000
0000
0000
3003
0000
0000
0000
0000
0000
0000
0000
0000
0000
0000
0000
0000
0000
0000
0011
0000
0000
0000
0000
0000
0000
0000
0000
0000
0000
0000
0000
0000
0000
0000
,
1010
0000
0000
0000
;

//---------------dance-single - Copied from ----------------
#NOTES:
     dance-single:
     Copied from:
     Hard:
     10:
     0.759,1.000,0.231,0.249,0.284: // measure 1
1010
0101
1001
0110
,  // measure 2
2002
0000
0000
0000
,  // measure 3
0000
0000
0000
0000
,  // measure 4
0000
0000
0000
0000
,  // measure 5
0000
0000
0000
3003
,  // measure 6
1000
0100
0001
0100
,  // measure 7
1000
0010
0100
0001
,  // measure 8
0100
0010
1000
0010
,  // measure 9
0100
0001
0020
0100
,  // measure 10
0130
1000
0100
1000
,  // measure 11
0010
0100
0001
0100
,  // measure 12
1000
0010
0001
1000
,  // measure 13
0100
0010
0002
0100
,  // measure 14
0103
0010
1000
0100
,  // measure 15
1000
0001
0100
0010
,  // measure 16
1000
0010
0001
0010
,  // measure 17
0100
0001
2000
0001
,  // measure 18
3001
0100
0001
1000
,  // measure 19
0010
0100
0010
1000
,  // measure 20
0100
0001
0010
1000
,  // measure 21
0001
0100
0010
1000
,  // measure 22
1001
0000
0100
0010
,  // measure 23
0001
0100
0010
1000
,  // measure 24
0001
0100
1000
0100
,  // measure 25
0001
1000
0200
1000
,  // measure 26
1300
0010
0100
0001
,  // measure 27
0010
0001
1000
0010
,  // measure 28
0100
0001
1000
0100
,  // measure 29
1000
0001
0020
0100
,  // measure 30
0130
1000
0001
0100
,  // measure 31
0010
0010
0100
0001
,  // measure 32
1000
0100
1000
0100
,  // measure 33
0010
0001
2000
0100
,  // measure 34
3100
0010
0001
0100
,  // measure 35
0001
1000
0010
0100
,  // measure 36
0010
1000
0010
0000
0100
0001
0100
0000
,  // measure 37
0010
1000
0001
0100
,  // measure 38
0020
1000
1000
0000
,  // measure 39
0000
0001
0000
0000
,  // measure 40
0100
0000
0000
1000
,  // measure 41
0000
0000
0001
0000
,  // measure 42
1000
0000
0001
0000
,  // measure 43
0000
0100
0000
0000
,  // measure 44
1000
0000
0000
0001
,  // measure 45
0000
0000
1030
0000
,  // measure 46
0001
0100
0001
0000
1000
0000
0100
1000
0100
0000
1000
0000
,  // measure 47
0010
0100
0010
0000
0100
0000
0100
0000
0000
0010
0000
0000
,  // measure 48
0101
0000
1000
0000
0001
0000
1100
0000
0010
0000
0100
0000
,  // measure 49
0001
0100
1000
0000
0100
0000
0001
0000
0000
1000
0000
0000
,  // measure 50
0100
1000
0100
0000
0010
0000
0100
0010
0100
0000
0001
0000
,  // measure 51
0100
1000
0100
0000
1000
0000
0010
0000
0000
0100
0000
0000
,  // measure 52
0101
0000
0110
0000
1001
0000
1100
0000
0110
0000
1001
0000
,  // measure 53
0100
0010
0100
0000
0001
0000
1000
0000
0000
0100
0000
0000
,  // measure 54
1000
0001
1000
0001
1000
0000
0010
0100
,  // measure 55
0010
0100
0010
0000
0001
0100
0001
0100
,  // measure 56
0002
0000
0000
0000
1003
0100
1000
0100
,  // measure 57
1000
0000
0010
0100
0010
0100
0010
0000
,  // measure 58
0100
0001
0100
0001
0200
0000
0000
0000
,  // measure 59
0301
0010
0001
0010
0001
0000
1000
0100
,  // measure 60
1000
0100
1000
0000
0001
1000
0001
1000
,  // measure 61
0001
0100
1000
0100
0001
0000
1000
0000
,  // measure 62
0220
0000
0000
0000
,  // measure 63
0000
0000
0000
0000
,  // measure 64
0000
0000
0000
0000
,  // measure 65
0000
0000
0000
0000
,  // measure 66
0000
0000
0000
0000
,  // measure 67
0000
0000
0000
0000
,  // measure 68
0000
0000
0000
0000
,  // measure 69
0330
0000
0001
0100
,  // measure 70
0010
1000
0100
0001
,  // measure 71
0100
1000
0010
0100
,  // measure 72
0001
1000
0001
0010
,  // measure 73
0001
0100
0010
0100
,  // measure 74
1000
0100
0010
0100
,  // measure 75
0100
0001
1000
0100
,  // measure 76
0010
0100
1000
0001
,  // measure 77
0010
0001
0100
0010
,  // measure 78
1000
0100
0001
0100
,  // measure 79
1000
0010
0100
0001
,  // measure 80
0001
0010
1000
0010
,  // measure 81
0001
0100
0010
1000
,  // measure 82
0001
1000
0100
1000
,  // measure 83
0010
0100
0001
1000
,  // measure 84
0100
1000
0001
0010
,  // measure 85
0100
1000
1001
0000
,  // measure 86
0010
0100
0001
0100
,  // measure 87
1000
0100
0010
1000
,  // measure 88
0100
0001
0010
0001
,  // measure 89
0100
1000
0010
0100
,  // measure 90
0001
1000
0100
0010
,  // measure 91
0100
0001
0100
1000
,  // measure 92
0010
0100
0001
1000
,  // measure 93
0001
0001
0100
1000
,  // measure 94
0100
0010
1000
0100
,  // measure 95
0001
0100
0010
0100
,  // measure 96
1000
0010
0001
1000
,  // measure 97
0100
0001
0100
1000
,  // measure 98
0010
0100
0001
0010
,  // measure 99
0001
0000
0100
0000
0010
1000
0010
0000
,  // measure 100
0100
0001
0100
0000
0010
0000
1000
0000
,  // measure 101
0001
1000
0200
1000
,  // measure 102
1000
0000
0000
0010
,  // measure 103
0000
0000
1000
0000
,  // measure 104
0000
0001
0000
0000
,  // measure 105
1300
0000
0000
0000
0000
0000
1000
0100
1000
0000
0001
0000
,  // measure 106
0100
0001
0100
0000
0010
0000
0100
0010
1000
0000
0100
0000
,  // measure 107
1000
0000
0000
0100
0000
0000
0110
0000
0100
0000
0001
0000
,  // measure 108
1100
0000
0010
0000
0100
0000
0001
0100
0001
0000
1000
0000
,  // measure 109
0100
0000
0000
1000
0000
0000
0010
0100
0001
0000
1000
0000
,  // measure 110
0100
1000
0001
0000
0100
0000
0001
0100
0010
0000
1000
0000
,  // measure 111
0100
0000
0000
0010
0000
0000
0110
0000
1001
0000
0011
0000
,  // measure 112
1001
0000
1100
0000
1001
0000
0010
0100
0010
0000
1000
0000
,  // measure 113
0100
0010
0001
0100
,  // measure 114
0001
1000
0010
0100
,  // measure 115
0010
1000
0010
1000
0020
0000
0000
0000
,  // measure 116
0130
0001
1000
0100
,  // measure 117
0001
0000
0100
0000
1000
0010
1000
0010
,  // measure 118
2000
0000
3100
0010
,  // measure 119
0001
0100
0010
1000
,  // measure 120
0001
0100
0001
0100
0002
0000
0000
0000
,  // measure 121
1003
0100
0001
0100
,  // measure 122
1000
0000
0001
0000
0100
0010
0100
0010
,  // measure 123
0200
0000
0000
0000
0301
0010
0001
0010
,  // measure 124
0001
0000
1000
0010
1000
0010
1000
0000
,  // measure 125
0100
0010
0100
0010
0200
0000
0000
0000
,  // measure 126
1300
0100
1000
0100
1000
0000
0010
0100
,  // measure 127
0010
0100
0010
0000
1000
0001
1000
0001
,  // measure 128
2000
0000
0000
0000
3010
0100
0010
0100
,  // measure 129
0010
0000
1000
0100
1000
0100
1000
0000
,  // measure 130
0001
1000
0001
1000
0010
0100
0010
0100
,  // measure 131
0001
0100
1000
0100
0002
0000
0000
0000
,  // measure 132
0200
0003
2000
0300
,  // measure 133
0200
3000
0020
0300
,  // measure 134
2000
0030
0002
3000
,  // measure 135
0020
0000
0000
0000
0000
0000
0000
0000
0000
0000
0000
0000
0000
0000
0000
0000
0000
0000
0000
0000
0000
0000
0000
0000
0000
0000
0000
0000
0000
0000
0000
0000
0000
0033
0000
0000
0000
0000
0000
0000
0000
0000
0000
0000
0000
0000
0000
0000
1100
0000
0000
0000
0000
0000
0000
0000
0000
0000
0000
0000
0000
0000
0000
0000
,  // measure 136
0011
0000
0000
0000
;
