#TITLE:BOOM BOOM;
#SUBTITLE:(B4 ZA BEAT Mix);
#ARTIST:PAUL LEKAKIS;
#TITLETRANSLIT:;
#SUBTITLETRANSLIT:;
#ARTISTTRANSLIT:;
#GENRE:;
#CREDIT:;
#MENUCOLOR:#CC6666;
#NEWMETERSYSTEM:NO;
#BANNER:BOOM BOOM (B4 ZA BEAT Mix)-bn.png;
#BACKGROUND:BOOM BOOM (B4 ZA BEAT Mix)-bg.png;
#LYRICSPATH:;
#CDTITLE:PROJECT VIRIDIAN-cdtitle.png;
#MUSIC:BOOM BOOM (B4 ZA BEAT Mix).mp3;
#OFFSET:-0.020;
#SAMPLESTART:88.440;
#SAMPLELENGTH:12.000;
#SELECTABLE:YES;
#LISTSORT:;
#BPMS:0.000=160.100;
#STOPS:;
#BGCHANGES:;
#ATTACKS:;

//---------------dance-single - ----------------
#NOTES:
     dance-single:
     :
     Easy:
     4:
     0.316,0.332,0.133,0.116,0.000:
0000
0000
0000
0000
,
1000
0100
0001
0000
,
0200
0000
0300
0000
,
1000
0001
0100
0000
,
0001
0010
0001
0001
,
0100
0000
0100
0010
,
1000
1000
0100
0000
,
1000
0100
0001
0000
,
0100
1000
0010
0000
,
0100
0001
0100
0000
,
0001
0010
0000
0000
,
1001
0000
1001
0000
,
0010
0100
0010
0000
,
0100
0001
0010
0100
,
1000
0000
1000
0100
,
1001
0000
1001
0000
,
0001
1000
0100
0000
,
1000
0001
0010
0100
,
0020
0000
0030
0000
,
0001
0100
1000
0000
,
0100
0010
1000
0000
,
0001
0100
0001
1000
,
0100
0100
0000
0010
,
0001
1000
0100
0000
,
1000
0010
0100
0001
,
1000
0000
1000
0100
,
0010
0100
0000
0000
,
0001
0100
0002
0000
,
1003
0100
2000
0000
,
3010
0100
0020
0000
,
0130
0010
0200
0000
,
0302
0000
0013
0100
,
2000
0000
3100
0010
,
0101
0000
1000
0000
,
1100
1000
0010
0000
,
0100
0010
0100
0001
,
1000
0000
0020
0030
,
0100
0001
1000
0100
,
1000
0000
0002
0003
,
0010
0001
0100
0010
,
1000
0000
2000
3000
,
0001
0100
0010
1000
,
0001
0000
0200
0300
,
0110
0110
0110
0000
,
0001
0100
0001
0000
,
1000
0100
0010
0100
,
0001
0000
0100
1000
,
0010
0100
0001
0000
,
1000
0001
0100
0001
,
0010
0010
0100
0000
,
0010
0001
0100
0000
,
0010
0001
1000
0000
,
0010
1000
0100
0000
,
1000
0001
0100
0001
,
0010
0000
0010
0001
,
0100
0100
0010
0000
,
1000
0100
1000
0010
,
0100
0001
1000
0000
,
0001
0100
0000
0000
,
1001
1001
1001
0000
,
1000
0100
1000
0000
,
0001
0100
0001
0000
,
1000
0100
1000
0000
,
1001
0110
1001
0000
,
1000
0100
0010
0000
,
0100
0001
0100
1000
,
0010
0000
0000
0100
,
0010
0100
0001
0000
,
0100
0001
1000
0100
,
1000
0000
1000
1000
,
0100
0010
0010
0000
,
0001
1000
0100
0000
,
0010
0001
1000
0001
,
0100
0000
0001
0100
,
0020
0000
0000
0000
0000
0030
0000
0000
;

//---------------dance-single - Copied from----------------
#NOTES:
     dance-single:
     Copied from:
     Beginner:
     1:
     0.107,0.164,0.009,0.036,0.000:
0000
0000
0000
0000
,
0000
0000
0000
0000
,
0000
0000
0000
0000
,
0001
0000
0000
0000
,
0100
0000
0000
0000
,
1000
0000
0000
0000
,
0010
0000
0000
0000
,
0100
0000
0000
0000
,
0001
0000
0000
0000
,
1000
0000
0000
0000
,
0000
0000
0000
0000
,
0010
0010
0010
0000
,
0000
0000
0000
0000
,
1000
0000
0000
0000
,
0001
0000
0000
0000
,
0100
0100
0100
0000
,
0000
0000
0000
0000
,
0010
0000
0000
0000
,
1000
0000
0000
0000
,
0001
0000
0000
0000
,
0100
0000
0000
0000
,
1000
0000
0000
0000
,
0010
0000
0000
0000
,
0001
0000
0000
0000
,
1000
0000
0000
0000
,
0010
0000
0000
0000
,
0100
0000
0000
0000
,
0001
0000
0000
0000
,
0001
0000
0000
0000
,
1000
0000
0000
0000
,
1000
0000
0000
0000
,
0002
0000
0003
0000
,
2000
0000
3000
0000
,
0020
0000
0030
0000
,
0200
0000
0300
0000
,
0001
0000
0001
0000
,
0001
0000
0000
0000
,
1000
0000
1000
0000
,
1000
0000
0000
0000
,
0100
0000
0100
0000
,
0100
0000
0000
0000
,
0010
0000
0010
0000
,
0010
0000
0000
0000
,
1001
0000
0000
0000
,
0010
0000
0000
0000
,
0001
0000
0000
0000
,
1000
0000
0000
0000
,
0001
0000
0000
0000
,
1000
0000
0000
0000
,
0100
0000
0000
0000
,
0010
0000
0000
0000
,
0001
0000
0000
0000
,
0100
0000
0000
0000
,
1000
0000
0000
0000
,
0010
0000
0000
0000
,
0001
0000
0000
0000
,
0100
0000
0000
0000
,
0010
0000
0000
0000
,
1000
0000
0000
0000
,
1000
1000
1000
0000
,
0000
0000
0000
0000
,
0001
0000
0000
0000
,
0100
0000
0000
0000
,
0001
0001
0001
0000
,
0000
0000
0000
0000
,
1000
0000
0000
0000
,
0010
0000
0000
0000
,
0100
0000
0000
0000
,
0001
0000
0000
0000
,
0010
0000
0000
0000
,
0001
0000
0000
0000
,
1000
0000
0000
0000
,
0100
0000
0000
0000
,
0010
0000
0000
0000
,
1000
0000
0000
0000
;

//---------------dance-single - Copied from----------------
#NOTES:
     dance-single:
     Copied from:
     Medium:
     7:
     0.575,0.533,0.133,0.133,0.000:
0000
0000
0000
0000
,
0000
0000
0000
0000
,
0000
0000
0000
0000
0010
1000
0001
0100
,
0001
0000
0010
0001
0000
0100
0010
0000
,
1000
0100
0010
0100
0010
0001
0100
0000
,
0001
0000
1000
0100
0000
0001
0100
0000
,
0001
1000
0100
0010
0001
1000
0001
0000
,
0100
0000
0001
0000
1000
0100
1000
0000
,
0010
0100
0001
0010
0100
1000
0010
0000
,
0100
0001
0100
0010
0000
1000
0100
0000
,
1000
0010
0100
0001
0000
1001
0000
0000
,
0010
0100
0010
0100
0001
0000
0100
0000
,
0001
0010
0100
1000
0000
0010
0100
0000
,
1000
0100
0010
0001
0010
0100
1000
0000
,
0001
0010
0100
1000
0100
0010
0001
0000
,
0100
0001
0100
0010
0100
0000
0001
0000
,
0100
0010
1000
0100
0000
0010
0001
0000
,
0100
0001
0010
0100
0010
0001
1000
0000
,
0010
0100
1000
0001
0000
0000
1000
0000
,
0001
0000
0100
0000
0010
1000
0100
0000
,
0001
0100
1000
0100
0001
0010
0100
0000
,
0010
0100
0001
1000
0000
0100
1000
0000
,
0010
1000
0010
0100
0000
0100
0001
0000
,
1000
0100
0001
0100
1000
0010
0100
0000
,
0001
0010
0001
0100
0001
0100
0010
0000
,
0010
0100
0001
0100
0000
0100
0010
0000
,
1000
0100
0010
0001
0000
1001
0000
0000
,
0010
0100
0010
0000
0100
0000
0001
0000
,
1000
0100
0010
0000
0002
0000
0103
0000
,
1000
0100
1000
0000
0010
0100
0010
0000
,
0001
0100
0010
0000
2000
0000
3010
0000
,
0100
0001
0100
0000
0002
0000
2003
0000
,
3010
0100
0001
0000
2000
0000
3200
0000
,
0310
0100
0010
0001
0000
0001
0000
0100
,
0001
0100
0010
1000
0000
0000
0100
0000
,
0010
0100
0001
0000
1000
0100
0010
0000
,
0100
0010
0002
0203
,
0310
0100
0010
0000
1000
0001
1000
0000
,
0001
0010
0100
0000
2000
0000
3020
0000
,
0130
0001
1000
0000
0100
1000
0010
0000
,
0100
0001
0020
0032
,
0103
0001
1000
0000
0100
1000
0010
0000
,
1000
0100
0010
0001
0200
0000
0301
0000
,
1001
0000
1010
0000
0101
0000
1000
0100
,
0001
0100
1000
0000
0010
0000
0100
0001
,
0100
0000
0010
1000
0000
1000
0100
0010
,
0001
0000
0100
0001
0000
0010
0100
0000
,
1100
0000
0110
0000
0011
0000
0001
0100
,
0010
1000
0100
1000
0000
0010
1000
0000
,
0100
0000
0010
0001
0000
0001
0100
0000
,
0010
1000
0100
1000
0000
0001
0100
0010
,
1000
0000
0001
0000
0100
0001
0010
0000
,
0100
1000
0010
0100
0001
0000
1000
0000
,
0001
0010
0100
1000
0000
0010
0100
0001
,
1000
0100
0010
0100
0000
0010
0001
0100
,
0001
0000
1000
0000
0010
0100
0001
0000
,
1000
0100
0010
0100
1000
0000
0010
0000
,
0100
0001
0100
0010
0000
1000
0010
0100
,
0001
0010
0100
1000
0000
0110
0000
0000
,
0101
0000
1001
0000
1010
0000
1000
0001
,
0100
0001
0010
0100
0000
1000
0010
0000
,
0100
0001
0100
0010
0000
0100
0010
0000
,
1000
0100
0010
0001
0000
0001
0010
0100
,
1001
0000
0110
0000
1001
0000
0001
0100
,
0001
1000
0100
0010
0000
0100
0010
0000
,
0001
0000
0100
0001
0000
1000
0010
1000
,
0100
0000
0100
0010
0000
0001
1000
0001
,
0010
0000
0100
0000
1000
0010
0100
0000
,
0001
0100
1000
0100
0001
0000
0010
0000
,
0100
1000
0010
0100
0000
0100
0001
1000
,
0100
0010
0100
0001
0000
0100
1000
0000
,
0010
0000
0100
0000
0001
0100
0001
0000
,
1000
0010
0100
0001
1000
0001
0010
0000
,
0100
1000
0001
1000
0000
0001
0100
0001
,
1000
0001
0100
0002
0000
0020
0000
0033
;

//---------------dance-single - Copied from ----------------
#NOTES:
     dance-single:
     Copied from:
     Hard:
     9:
     0.753,0.666,0.240,0.293,0.267: // measure 1
0000
0000
0000
0000
,  // measure 2
0000
0000
0000
0000
,  // measure 3
0000
0000
0000
0000
,  // measure 4
0001
0000
0000
0000
0100
0000
0000
0010
0000
0100
0000
0010
1000
0000
0001
0000
,  // measure 5
1000
0000
0100
0000
0010
0000
0100
0001
0000
0100
0000
1000
0010
0000
0100
0000
,  // measure 6
0001
0100
0001
1000
0100
1000
0010
0100
,  // measure 7
0001
1000
0100
0010
0000
0001
0100
0010
,  // measure 8
1000
0000
0000
0000
0100
0000
0000
0100
0000
0001
0000
0010
0001
0000
1000
0000
,  // measure 9
0010
0000
0100
0000
0001
0000
0001
0010
0000
0100
0000
1000
0001
0000
0100
0000
,  // measure 10
0010
0100
0001
1000
0000
0100
1000
0010
,  // measure 11
0100
0001
1000
0110
0000
2002
0000
3003
,  // measure 12
0010
0100
0001
1000
0100
0010
0001
0100
,  // measure 13
0010
1000
0001
2000
0010
0000
3100
0100
,  // measure 14
1000
0001
0100
0001
0010
0100
1000
0001
,  // measure 15
1000
1000
0001
0010
0210
0000
0301
0000
,  // measure 16
0001
0100
1000
0100
0001
1000
0100
0010
,  // measure 17
0100
1000
0010
0100
0001
0010
0100
1000
,  // measure 18
0010
0100
0001
0100
0000
0010
1000
0010
,  // measure 19
0100
0001
1000
0100
0000
0010
0010
0010
,  // measure 20
0001
0000
0000
0000
0100
0000
0000
0010
0000
1000
0000
0100
1000
0000
0010
0000
,  // measure 21
0100
0000
0001
0000
1000
0000
0100
0010
0000
0001
0000
0010
0001
0000
0100
0000
,  // measure 22
0001
0100
0010
0200
0000
0310
0100
0001
,  // measure 23
0100
0010
1000
0020
0000
1030
0100
0010
,  // measure 24
0001
0000
0000
0000
1000
0000
0000
0100
0000
0100
0000
0010
0001
0000
1000
0000
,  // measure 25
0100
0000
1000
0000
0010
0000
0100
0010
0000
1000
0000
0100
0010
0000
0001
0000
,  // measure 26
0100
0100
0001
2000
0000
3100
1000
0010
,  // measure 27
0100
0100
0001
1000
0000
2100
0000
3000
,  // measure 28
0001
0100
1000
0100
0001
0010
0100
1000
,  // measure 29
0010
1000
0100
0010
0002
0000
1000
0000
,  // measure 30
0103
0010
0100
0001
1000
0100
0010
0001
,  // measure 31
1000
0000
0001
0000
0100
0000
0010
0000
1000
0000
1000
0100
0000
0000
0001
0000
,  // measure 32
0100
1000
0010
0100
0001
0010
0100
1000
,  // measure 33
0001
0100
0001
1000
0001
0010
0100
1000
,  // measure 34
0010
0010
0100
0002
0100
2000
0000
3003
,  // measure 35
1000
0000
2000
0000
0100
0000
0002
0000
0000
0000
3003
0000
0010
0000
1000
0001
,  // measure 36
0010
0000
0100
0000
1000
0000
0001
0000
0100
0000
0001
0010
0000
0000
0001
0000
,  // measure 37
0100
0000
0010
0000
0100
0000
0001
0000
1100
0000
0000
0011
0000
0000
0100
0000
,  // measure 38
0010
0000
0100
0000
0001
0000
0010
0000
0100
0000
0010
0001
0000
0000
1000
0000
,  // measure 39
0100
0000
0010
0000
0001
0000
0100
0000
1010
0000
0000
0101
0000
0000
0010
0000
,  // measure 40
0100
0000
0001
0000
1000
0000
0010
0000
0100
0000
0100
0010
0000
0000
0010
0000
,  // measure 41
1000
0000
0001
0000
0100
0000
0001
0000
0110
0000
0000
1100
0000
0000
1000
0000
,  // measure 42
0001
0000
0010
0000
0100
0000
1000
0000
0001
0000
0010
0001
0000
0000
1000
0000
,  // measure 43
0010
0000
0100
0000
0100
0000
0100
0000
1001
0000
0000
0110
0000
0000
0000
0000
,  // measure 44
1001
0001
0101
0000
1100
0000
1000
0010
,  // measure 45
0100
0001
0010
0100
1000
0010
0100
0001
,  // measure 46
2000
0100
3100
2000
0010
3010
0100
0001
,  // measure 47
0002
0010
0013
0002
0100
0103
0010
0100
,  // measure 48
0101
0100
0110
0000
1010
0000
0100
0010
,  // measure 49
0100
0001
0010
0100
1000
0010
0100
0010
,  // measure 50
0200
0010
0310
0200
0001
0301
1000
0001
,  // measure 51
0020
0000
0100
0000
0130
0000
0020
0000
0000
0000
0031
0000
0100
0000
0001
1000
,  // measure 52
0010
0000
0000
0000
0100
0000
0000
0001
0000
0010
0000
0001
0010
0000
0100
0000
,  // measure 53
1000
0000
0010
0000
0100
0000
0010
1000
0000
0100
0000
1000
0010
0000
0100
0000
,  // measure 54
0001
0100
1000
0200
0000
0310
0100
0001
,  // measure 55
1000
0100
0010
0002
0000
0013
0001
0100
,  // measure 56
0001
0000
0000
0000
0010
0000
0000
0001
0000
1000
0000
0100
1000
0000
0010
0000
,  // measure 57
0100
0000
0001
0000
0100
0000
0010
1000
0000
0100
0000
0010
0001
0000
0100
0000
,  // measure 58
0001
0010
0100
1000
0010
0100
0001
0010
,  // measure 59
0100
0001
0100
1000
0000
0101
0000
0000
,  // measure 60
0110
1000
1100
0000
1001
0000
0010
0100
,  // measure 61
0001
0100
0010
1000
0100
0010
0001
0100
,  // measure 62
0002
1000
1003
0002
0100
0103
1000
0100
,  // measure 63
2000
0001
3001
2000
0100
3100
0010
0100
,  // measure 64
1001
0010
0110
0000
1001
0000
0001
0100
,  // measure 65
1000
0100
0010
1000
0100
0010
0001
1000
,  // measure 66
0200
0010
0310
0200
1000
1300
0001
0100
,  // measure 67
0020
0000
0100
0000
0130
0000
0020
0000
0000
0000
1030
0000
0100
0000
1000
0100
,  // measure 68
0010
0000
0000
0000
0100
0000
0000
0010
0000
0001
0000
0100
0001
0000
1000
0000
,  // measure 69
0010
0000
0010
0000
0100
0000
0001
0100
0000
0010
0000
1000
0100
0000
1000
0000
,  // measure 70
0001
0001
0100
1000
0100
0010
1000
0100
,  // measure 71
0010
0001
0010
0001
0100
0010
1000
0010
,  // measure 72
0100
0000
0000
0000
0001
0000
0000
1000
0000
0010
0000
0100
0010
0000
1000
0000
,  // measure 73
0001
0000
0100
0000
0001
0000
1000
0001
0000
0100
0000
0010
1000
0000
0010
0000
,  // measure 74
0100
0001
0010
0100
0000
0100
1000
0010
,  // measure 75
1000
0001
0100
0011
0000
2200
0000
3300
;
