#TITLE:will;
#SUBTITLE:;
#ARTIST:NAOKI;
#TITLETRANSLIT:;
#SUBTITLETRANSLIT:;
#ARTISTTRANSLIT:;
#GENRE:Hottest Party;
#CREDIT:;
#BANNER:will-bn.png;
#BACKGROUND:will-bg.png;
#LYRICSPATH:;
#CDTITLE:;
#MUSIC:will.ogg;
#OFFSET:-3.316000;
#SAMPLESTART:45.270000;
#SAMPLELENGTH:13.241379;
#LASTBEATHINT:241.985489;
#SELECTABLE:YES;
#BPMS:0.000000=145.000000
;
#STOPS:
;
#BGCHANGES:;
#KEYSOUNDS:;
#ATTACKS:;

//---------------dance-single - ----------------
#NOTES:
     dance-single:
     :
     Hard:
     8:
     0.481958,0.498346,0.112145,0.149527,0.285036,333.000000,12.000000,16.000000,0.000000,0.000000,0.000000,0.481958,0.498346,0.112145,0.149527,0.285036,333.000000,12.000000,16.000000,0.000000,0.000000,0.000000:
0000
0000
0000
0000
,
0000
0000
0000
0000
,
0000
0000
0000
0000
,
0000
0000
0000
0000
,
1000
0000
0000
0000
0000
0000
0000
0000
0001
0000
0000
0010
0000
0000
0100
0000
,
1000
0000
0000
0000
0000
0000
0000
0000
1000
0000
0000
0100
0000
0000
0010
0000
,
0001
0100
0001
1000
0010
1000
0100
1000
,
0020
0000
0000
0130
0200
0000
0000
0001
,
0002
0000
0000
0000
,
0000
0000
0000
0303
,
1000
0000
0000
0010
0100
0000
0001
0000
0010
0000
0001
0000
1000
0000
0100
0000
,
0001
0000
0101
1100
,
0001
0000
0000
1000
0010
0000
0100
0000
0010
0000
1000
0000
0001
0000
0010
0000
,
0100
0000
0101
1100
,
1010
0000
0000
0010
0100
0000
0001
0000
0100
0000
0010
0000
1000
0000
0001
0000
,
0010
0000
1010
0011
,
1001
0000
0000
0001
1000
0000
0001
0000
0100
0000
0000
0100
0010
0000
1000
0000
,
0002
0000
1003
0010
0001
0000
0010
0000
,
1000
0000
0000
1000
0000
0000
0100
0000
0001
0000
0000
0001
0000
0000
0100
0000
,
0010
0000
0000
0010
0000
0000
0001
0000
0200
0000
0000
0000
0300
0000
0000
0000
,
0010
0000
0000
0010
0000
0000
1000
0000
0100
0000
0000
0100
0000
0000
0001
0000
,
0100
0000
0000
0100
0000
0000
1000
0000
0002
0000
0000
0000
0003
0000
0000
0000
,
0010
0000
0000
0001
0000
0000
0010
0000
0100
0000
0000
1000
0000
0000
0100
0000
,
0010
0000
0000
0010
0000
0000
0000
0000
0001
0000
0000
0100
0000
0000
0010
0000
,
2000
0000
0000
0100
0200
0000
3300
0000
,
0101
0000
0000
0000
0000
0000
1000
0000
0100
0000
0010
0000
0001
1000
0001
1000
,
0001
0000
0100
0010
1000
0010
0100
0001
,
1000
0000
0100
1000
0100
0001
0100
1000
,
0001
0000
0000
0001
0000
0000
0100
0000
1000
0000
0000
1000
0000
0000
0100
0000
,
0001
0000
0000
0001
0000
0000
1000
0000
1001
0000
0000
0000
0010
0001
0010
0001
,
0010
0000
0000
0100
0000
0000
0010
0000
0001
0000
0000
0001
0000
0000
1000
0000
,
0010
0000
0000
0010
0000
0000
0100
0000
1000
0000
0000
1000
0000
0000
0100
0000
,
0001
0000
0000
1000
0000
0000
0100
0000
0010
0000
0000
0001
0000
0000
0010
0000
,
0200
0000
1300
0001
0200
0000
0310
0100
,
0002
0000
0000
0010
0013
0000
0000
0000
,
0100
0000
2000
0000
3002
0000
0103
0001
,
2000
0000
0000
0010
3010
0000
0000
0000
,
0100
0000
0000
0001
0000
0000
0010
0001
1000
0000
0200
0000
0000
0000
0000
0000
,
0310
0000
0000
0100
0000
0000
1000
0000
0001
0000
0000
0010
0000
0000
0100
0000
,
1000
0000
0000
0100
0000
0000
0010
0000
0001
0000
0000
0100
0000
0000
0001
0000
,
0010
0000
0000
0001
0100
0000
0001
0000
0010
0000
0000
0100
1000
0000
0001
0000
,
1000
0000
0010
0000
0100
0000
0010
0000
1000
0001
2000
0000
0000
0000
0000
0000
,
3001
0010
0001
0100
0010
1000
0100
0001
,
0100
0000
1000
0100
0010
0100
1000
0001
,
0100
0000
0000
0100
0001
0000
1000
0000
0100
0000
0000
0100
1000
0000
0001
0000
,
1000
0000
0000
0100
0000
0000
0010
0000
0001
0000
0000
0000
1000
0010
1000
0010
,
1000
0000
0000
0001
0000
0000
0100
0000
0001
0000
0000
0010
0000
0000
1000
0000
,
0010
0000
0000
0001
0000
0000
0100
0000
0010
0000
0000
1000
0000
0000
0010
0000
,
0100
0100
0001
0001
1000
1000
0100
0100
,
1000
0000
0010
0000
0100
0000
0001
0000
1000
0001
1000
0001
1000
0000
0010
0000
,
0110
0000
0100
0001
1000
0001
0010
0100
,
1000
0000
0100
1000
0010
1000
0100
0010
,
0001
0000
0000
0001
0010
0000
1000
0000
0010
0000
0000
0010
0001
0000
0100
0000
,
1000
0000
0000
1000
0100
0000
0001
0000
1000
0000
0000
0000
0110
0000
0000
0000
,
0001
0000
0000
1000
0000
0000
0010
0000
0100
0000
0000
0001
0000
0000
0010
0000
,
0001
0000
0000
1000
0000
0000
0100
0000
1000
0000
0000
0010
0000
0000
0100
0000
,
0001
0010
0001
0010
0100
1000
0100
1000
,
0001
0100
1000
0100
0001
0000
1000
0100
,
1000
0010
1000
0000
0000
0000
0001
0100
0001
0000
0000
0000
0100
0010
0100
0000
,
0000
0000
0001
1000
0001
0000
0000
0000
0000
0000
0000
0000
0000
0000
0000
0000
;

//---------------dance-single - S-STANDARD----------------
#NOTES:
     dance-single:
     DJ OMiY-SSP:
     Medium:
     6:
     0.376488,0.387602,0.177563,0.158873,0.116818,246.000000,19.000000,17.000000,0.000000,0.000000,0.000000,0.376488,0.387602,0.177563,0.158873,0.116818,246.000000,19.000000,17.000000,0.000000,0.000000,0.000000:
0000
0000
0000
0000
,
0000
0000
0000
0000
,
0000
0000
0000
0000
,
0000
0000
0000
0000
,
0001
0000
0001
0000
,
1000
0000
1000
0000
,
0010
1000
0100
0010
,
0001
1000
0100
1000
0020
0000
0000
0100
,
0200
0000
0000
0000
,
0000
0000
0000
0330
,
0001
0000
0000
0100
0000
0000
0001
0000
1000
0000
0000
0000
0100
0000
0000
0000
,
1000
0000
1010
0101
,
1000
0000
0000
0001
0000
0000
0010
0000
0001
0000
0000
0000
0010
0000
0000
0000
,
0100
0000
0011
1100
,
0010
0000
0000
1000
0000
0000
0001
0000
0010
0000
0000
0000
0001
0000
0000
0000
,
1000
0000
0101
1100
,
0010
0000
0000
0010
0000
0000
0100
0000
1000
0000
0000
1000
0000
0000
0001
0000
,
0200
0000
0000
0001
0002
0000
0303
0000
,
0010
0000
0000
0010
0000
0000
0000
0000
0001
0000
0000
0001
0000
0000
0000
0000
,
1000
0000
0000
1000
0000
0000
0001
0000
1000
0000
0000
0000
0000
0000
0000
0000
,
0100
0000
0000
0100
0000
0000
0000
0000
0010
0000
0000
0010
0000
0000
0000
0000
,
0100
0000
0000
0100
0000
0000
1000
0000
0100
0000
0000
0000
0000
0000
0000
0000
,
1000
0010
0100
0000
0001
0010
0100
0000
,
0010
0000
0000
0010
0000
0000
0000
0000
0001
0000
0000
0100
0000
0000
0010
0000
,
2000
0000
0000
0001
3001
0000
0110
0000
,
1001
0000
0000
0001
0001
0010
0100
1000
,
0001
0000
0000
0200
0000
0310
0100
0001
,
1000
0000
0000
0200
0000
0310
0100
1000
,
0001
0000
0000
0001
0000
0000
0000
0000
1000
0000
0000
1000
0000
0000
0000
0000
,
0010
0000
0000
0010
0000
0000
0100
0000
0020
0000
0000
0000
0030
0000
0000
0000
,
1000
0000
0010
1000
0001
0000
0011
0000
,
0100
0000
0001
0010
0100
0000
1010
0000
,
0001
0100
0010
0000
1000
0100
0010
0000
,
0001
0100
0001
1000
0200
0000
0000
0010
,
0020
0330
1001
0000
,
0001
0000
0010
0000
0010
0000
0100
1000
,
0002
0003
0101
0000
,
1000
0000
0000
1000
0000
0000
0001
0000
1000
0000
0000
0000
0000
0000
0000
0000
,
0010
0010
0100
0100
,
0001
0001
1000
1000
,
0010
0000
0000
0010
0100
0000
0000
0000
0100
0000
0000
0100
0001
0000
0000
0000
,
1000
0001
1000
0002
2000
0000
3003
0000
,
1001
0000
0000
1000
1000
0100
0010
0001
,
1000
0000
0000
0002
0000
0013
0001
0000
,
0100
0000
0000
0100
0000
0000
0000
0000
0001
0000
0000
0001
0000
0000
0000
0000
,
0010
0000
0000
0010
0000
0000
0001
0000
0010
0000
0000
0000
0000
0000
0000
0000
,
0100
0000
1000
0100
0010
0000
1100
0000
,
0010
0000
0001
0010
0100
0000
0011
0000
,
1000
0100
1000
0000
0001
0010
0001
0000
,
0100
0010
0100
0001
2000
0001
3001
0000
,
1001
0000
0000
0020
0000
1030
0100
0010
,
0001
0000
0000
0200
0000
0301
0010
0100
,
1000
0000
0000
1000
0000
0000
0000
0000
0001
0000
0000
0001
0000
0000
0000
0000
,
0010
0000
0000
0010
0000
0000
0001
0000
0100
0000
0000
0000
0000
0000
0000
0000
,
0010
0000
1000
0100
0010
0000
1100
0000
,
0100
0000
0001
0010
0100
0000
0011
0000
,
1000
0010
0100
0000
0001
0010
0100
0000
,
0010
0001
0100
0010
1000
0000
0101
0000
,
1000
1000
0000
0001
0001
0000
0010
0010
,
0000
0100
0100
0000
0000
0000
0000
0000
;

//---------------dance-single - S-LIGHT----------------
#NOTES:
     dance-single:
     DJ OMiY-LDP:
     Easy:
     3:
     0.240311,0.249173,0.084109,0.205600,0.000000,149.000000,9.000000,22.000000,0.000000,0.000000,0.000000,0.240311,0.249173,0.084109,0.205600,0.000000,149.000000,9.000000,22.000000,0.000000,0.000000,0.000000:
0000
0000
0000
0000
,
0000
0000
0000
0000
,
0000
0000
0000
0000
,
0000
0000
0000
0000
,
0020
0030
0010
0000
,
0200
0300
0100
0000
,
0001
0000
1000
0000
,
0001
0010
0200
0000
,
2000
0000
0000
0000
,
0000
0000
3300
1100
,
1001
0000
0010
0001
,
0100
0000
0010
0010
,
1000
0000
0001
1000
,
0100
0000
0010
0010
,
0100
0000
0100
0000
,
1001
0000
0010
0001
,
1000
0000
0001
0000
,
1000
0010
1001
0000
,
0010
1000
0100
0010
,
0010
0000
0010
0000
,
0001
0100
0010
1000
,
1000
0000
1000
0000
,
0002
0000
0013
0001
,
2000
0000
3100
0010
,
0100
0000
0100
0000
,
1001
0000
0010
0010
,
0200
0000
0310
1000
,
0002
0000
0013
0000
,
0100
0100
1000
0000
,
1000
0001
0100
0000
,
0010
0000
0010
0100
,
0001
0000
0001
0010
,
1000
0010
0001
1000
,
0100
0000
1000
0000
,
2002
0000
0000
0000
,
3003
0010
0010
0001
,
0200
0000
0310
0000
,
0200
0000
0301
0000
,
1000
0000
1000
0100
,
0001
0000
0001
0100
,
1000
0001
1000
0001
,
1000
0000
2002
0003
,
3010
0000
0100
0001
,
0010
0000
0100
1000
,
0200
0000
0310
0010
,
0200
0000
1300
0001
,
0100
0001
0001
0000
,
1000
0010
0010
0000
,
0200
0300
0002
0003
,
1000
0010
1001
0100
,
1001
0000
0010
0001
,
0100
0000
0010
1000
,
0100
0000
0100
0000
,
0010
0100
1000
0000
,
0001
0000
0001
0100
,
1000
0000
1000
0100
,
0001
0000
0010
0000
,
0100
1000
0001
0000
,
2000
3000
0000
0200
0300
0000
0020
0030
,
0000
0002
0003
0000
0000
0000
0000
0000
;

//---------------dance-single - BEGINNER----------------
#NOTES:
     dance-single:
     DJ OMIY-BEG:
     Beginner:
     2:
     0.162878,0.276275,0.028036,0.177563,0.000000,100.000000,3.000000,19.000000,0.000000,0.000000,0.000000,0.162878,0.276275,0.028036,0.177563,0.000000,100.000000,3.000000,19.000000,0.000000,0.000000,0.000000:
// measure 0
0000
0000
0000
0000
,  // measure 1
0000
0000
0000
0000
,  // measure 2
0000
0000
0000
0000
,  // measure 3
0000
0000
0000
0000
,  // measure 4
2000
0000
3000
0000
,  // measure 5
0002
0000
0003
0000
,  // measure 6
0100
0000
0010
0000
,  // measure 7
1000
1000
1000
0000
,  // measure 8
0002
0000
0000
0000
,  // measure 9
0000
0000
0000
0003
,  // measure 10
0100
0000
0010
0000
,  // measure 11
1000
0000
0001
0001
,  // measure 12
0001
0000
0010
0000
,  // measure 13
0100
0000
1000
1000
,  // measure 14
1000
0000
0001
0000
,  // measure 15
1000
0000
0010
0010
,  // measure 16
0010
0000
0100
0000
,  // measure 17
0002
0000
0003
0000
,  // measure 18
0010
0000
0001
0000
,  // measure 19
1000
0000
0100
0000
,  // measure 20
1000
0000
0010
0000
,  // measure 21
0100
0000
0001
0000
,  // measure 22
0010
0000
0010
0000
,  // measure 23
0100
0000
1000
0000
,  // measure 24
0001
0000
2000
0000
,  // measure 25
3000
0000
0010
0010
,  // measure 26
0010
0000
0100
0000
,  // measure 27
0001
0000
1000
0000
,  // measure 28
0200
0000
0300
0000
,  // measure 29
0020
0000
0030
0000
,  // measure 30
0100
0000
0100
0000
,  // measure 31
1000
0000
0001
0000
,  // measure 32
0010
0000
0001
0000
,  // measure 33
0100
0000
0100
0000
,  // measure 34
0200
0000
0000
0000
,  // measure 35
0300
0000
0010
0000
,  // measure 36
0100
0000
0000
0000
,  // measure 37
0001
0000
1000
0000
,  // measure 38
0100
0000
0100
0000
,  // measure 39
0010
0000
0010
0000
,  // measure 40
0002
0003
2000
3000
,  // measure 41
1001
0000
2002
3003
,  // measure 42
1001
0000
0010
0010
,  // measure 43
0010
0000
0100
0000
,  // measure 44
0001
0000
0001
0000
,  // measure 45
1000
0000
1000
0000
,  // measure 46
0020
0000
0030
0000
,  // measure 47
0200
0000
0300
0000
,  // measure 48
0001
0000
0010
0000
,  // measure 49
0100
0000
2000
0000
,  // measure 50
3000
0000
0010
0010
,  // measure 51
0010
0000
0100
0000
,  // measure 52
0001
0000
0001
0000
,  // measure 53
1000
0000
1000
0000
,  // measure 54
0200
0000
0300
0000
,  // measure 55
0020
0000
0030
0000
,  // measure 56
0001
0000
0010
0000
,  // measure 57
1000
0000
0010
0000
,  // measure 58
0002
0000
0000
0003
0000
0000
2000
0000
,  // measure 59
0000
3000
0000
0000
0000
0000
0000
0000
;

//---------------dance-double - D-HEAVY----------------
#NOTES:
     dance-double:
     DJ OMiY-HDP:
     Hard:
     8:
     0.483293,0.498346,0.140182,0.074764,0.308400,339.000000,15.000000,8.000000,0.000000,0.000000,0.000000,0.483293,0.498346,0.140182,0.074764,0.308400,339.000000,15.000000,8.000000,0.000000,0.000000,0.000000:
00000000
00000000
00000000
00000000
,
00000000
00000000
00000000
00000000
,
00000000
00000000
00000000
00000000
,
00000000
00000000
00000000
00000000
,
10000000
00000000
00000000
00000000
00000000
00000000
00000000
00000000
00010000
00000000
00000000
10000000
00000000
00000000
01000000
00000000
,
00010000
00000000
00000000
00000000
00000000
00000000
00000000
00000000
00001000
00000000
00000000
00000100
00000000
00000000
00000001
00000000
,
00001000
00000000
00000001
00000000
,
00000010
00000001
00000010
00000100
00002000
00000000
00000000
00013000
,
02000000
00000000
00000000
00000000
,
00000000
00000000
00000000
10000000
,
03010000
00000000
00000000
01000000
00000000
00000000
00100000
00000000
01000000
00000000
00000000
01000000
00010000
00000000
10000000
00000000
,
01000000
00000000
00110000
11000000
,
00100000
00000000
00000000
00001000
00000000
00000000
00010000
00000000
00000100
00000000
00000000
00000100
00000010
00000000
00000100
00000000
,
00001000
00000000
00000101
00001010
,
00000001
00000000
00000000
00000001
00000000
00000000
00000010
00000000
00000001
00000000
00000000
00001000
00000100
00000000
00001000
00000000
,
00010000
00000000
01100000
10010000
,
00100000
00000000
00000000
00100000
10000000
00000000
00010000
00000000
00100000
00000000
00000000
00100000
00001000
00000000
00010000
00000000
,
01000000
00000000
00010000
00001000
00000100
00000000
00001001
00000000
,
00000010
00000000
00000000
00000010
00000000
00000000
00000001
00000000
00000100
00000000
00000000
00000100
00000000
00000000
00000010
00000000
,
00001000
00000000
00000000
00001000
00000000
00000000
00000100
00000000
00020000
00000000
00000000
00000000
00100000
00000000
00000000
00000000
,
00031000
00000000
00000000
00001000
00000000
00000000
00100000
00000000
00010000
00000000
00000000
00010000
00000000
00000000
00100000
00000000
,
10000000
00000000
00000000
10000000
00000000
00000000
00100000
00000000
00020000
00000000
00000000
00000000
00001000
00000000
00000000
00000000
,
01030000
00000000
00000000
01000000
00000000
00000000
00100000
00000000
10000000
00000000
00000000
10000000
00000000
00000000
00010000
00000000
,
00100000
00000000
00000000
00001000
00000000
00000000
00000000
00000000
00010000
00000000
00000000
00000100
00000000
00000000
00000010
00000000
,
00000100
00001000
00000100
00001000
00000001
00000100
00000001
00000100
,
00000010
00000000
00000000
00001000
00001000
00000100
00000010
00000100
,
00010000
00000000
00000000
00010000
00001000
00000000
00100000
00000000
01000000
00000000
00100000
00000000
00001000
00000000
00010000
00000000
,
01000000
00000000
00000000
01000000
10000000
00000000
00010000
00000000
01000000
00000000
00100000
00000000
01000000
00000000
00010000
00000000
,
10000000
00000000
00000000
10000000
01000000
00000000
00100000
00000000
00001000
00000000
00000000
00001000
00010000
00000000
00000100
00000000
,
00000010
00000000
00000000
00000100
00000000
00000000
00001000
00000000
00000001
00000000
00000000
00000000
00001000
00000100
00001000
00000100
,
00010000
00000000
00000000
00001000
00000000
00000000
00000100
00000000
00000001
00000000
00000000
00000010
00000000
00000000
00001000
00000000
,
00010000
00000000
00000000
00001000
00000000
00000000
00010000
00000000
01000000
00000000
00000000
10000000
00000000
00000000
00100000
00000000
,
00010000
00001000
00000100
00001000
00000100
00000001
00000100
00000001
,
00000010
00001000
00010000
00001000
00020000
00000000
01030000
10000000
,
11000000
00000000
00000000
00010000
00110000
00000000
00000000
00000000
,
00101000
00000000
00000000
00000000
00010000
00000000
00000000
00001000
00010000
00000000
00000000
00010000
00000100
00000000
00000000
00000100
,
00000010
00000000
00000000
00000001
00001001
00000000
00000000
00000000
,
00000110
00000000
00000000
00001000
00000000
00000000
00010000
00000000
01100000
00000000
00000000
00000000
00000000
00000000
00000000
00000000
,
10000000
00000000
00000000
01000000
00000000
00000000
00010000
00000000
10000000
00000000
00000000
00100000
00000000
00000000
00010000
00000000
,
00001000
00000000
00000000
00000100
00000000
00000000
00000001
00000000
00001000
00000000
00000000
00000010
00000000
00000000
00000001
00000000
,
00000100
00000000
00000000
00000001
00000010
00000000
00000100
00000000
00001000
00000000
00000000
00000010
00010000
00000000
00000100
00000000
,
00001000
00000000
00010000
00000000
00100000
00000000
00010000
00000000
01000000
00100000
02000000
00000000
00000000
00000000
00000000
00000000
,
03001000
00000000
00000000
00001000
00010000
00000000
00001000
00000000
00010000
00000000
00100000
00000000
01000000
00000000
10000000
00000000
,
01000000
00000000
00000000
00010000
01000000
00000000
00001000
00000000
00010000
00000000
00001000
00000000
00100000
00000000
00010000
00000000
,
01000000
00000000
00000000
01000000
00001000
00000000
00010000
00000000
00000100
00000000
00000000
00000100
00000010
00000000
00000100
00000000
,
00001000
00000000
00000000
00000001
00000000
00000000
00000100
00000000
00001000
00000000
00000000
00000000
00001100
00000000
00000000
00000000
,
00000100
00000000
00000000
00000010
00000000
00000000
00000100
00000000
00001000
00000000
00000000
00010000
00000000
00000000
00001000
00000000
,
00000100
00000000
00000000
00010000
00000000
00000000
00001000
00000000
00100000
00000000
00000000
00001000
00000000
00000000
00010000
00000000
,
01000000
10000000
01000000
10000000
00010000
01000000
00010000
01000000
,
00100000
00000000
00010000
00000000
00001000
00000000
00010000
00000000
00000100
00001000
00000100
00001000
00000100
00000000
00000010
00000000
,
00000011
00000000
00000001
00001000
00000001
00000010
00001000
00010000
,
00002000
00000000
00103000
00010000
01000000
00100000
01000000
00010000
,
10000000
00000000
00000000
10000000
01000000
00000000
00100000
00000000
00001000
00000000
00000000
00001000
01000000
00000000
00100000
00000000
,
00010000
00000000
00000000
00010000
00000000
00000000
00001000
00000000
00010000
00000000
00000000
00000000
00001000
00010000
00001000
00010000
,
00000100
00000000
00000000
00000010
00000000
00000000
00000100
00000000
00001000
00000000
00000000
00000001
00000000
00000000
00000010
00000000
,
00001000
00000000
00000000
00010000
00000000
00000000
01000000
00000000
10000000
00000000
00000000
00100000
00000000
00000000
01000000
00000000
,
00010000
00100000
00010000
00100000
00001000
00010000
00001000
00010000
,
00000100
00001000
00010000
00100000
00020000
00000000
10030000
00010000
,
10000000
01000000
10000000
00000000
00000000
00000000
01000000
00010000
01000000
00000000
00000000
00000000
00010000
00001000
00010000
00000000
,
00000000
00000000
00001000
00000100
00001000
00000000
00000000
00000000
00000000
00000000
00000000
00000000
00000000
00000000
00000000
00000000
;

//---------------dance-double - D-STANDARD----------------
#NOTES:
     dance-double:
     DJ OMiY-SDP:
     Medium:
     6:
     0.375153,0.359916,0.140182,0.233636,0.098127,241.000000,15.000000,25.000000,0.000000,0.000000,0.000000,0.375153,0.359916,0.140182,0.233636,0.098127,241.000000,15.000000,25.000000,0.000000,0.000000,0.000000:
00000000
00000000
00000000
00000000
,
00000000
00000000
00000000
00000000
,
00000000
00000000
00000000
00000000
,
00000000
00000000
00000000
00000000
,
00011000
00000000
00000000
00000000
00000000
00000000
00000000
00000000
00010000
00000000
00000000
01000000
00000000
00000000
00010000
00000000
,
00001000
00000000
00000000
00000000
00000000
00000000
00000000
00000000
00001000
00000000
00000000
00000100
00000000
00000000
00001000
00000000
,
00010000
00001000
00010000
00000000
00000100
00001000
00000100
00000000
,
00010000
00001000
00100000
00010000
02000000
00000000
00000000
03100000
,
00200000
00000000
00000000
00000000
,
00000000
00000000
00000000
00300000
,
10010000
00000000
00000000
10000000
00000000
00000000
00010000
00000000
00100000
00000000
00000000
00000000
00001000
00000000
00000000
00000000
,
00010000
00000000
00000200
00000320
,
00000031
00000000
00000000
00000100
00000000
00000000
00000010
00000000
00001000
00000000
00000000
00000000
00000100
00000000
00000000
00000000
,
00010000
00000000
00001000
00001000
,
00000100
00000000
00000000
00000010
00000000
00000000
00000100
00000000
00001000
00000000
00000000
00000000
00010000
00000000
00000000
00000000
,
01100000
00000000
01000000
01000000
,
00010000
00000000
00000000
00010000
00000000
00000000
01000000
00000000
10000000
00000000
00000000
00000000
10000000
00000000
00000000
00000000
,
00110000
00001000
00011000
00000000
,
00000100
00000000
00000000
00000100
00000000
00000000
00000010
00000000
00000001
00000000
00000000
00000000
00001000
00000000
00000000
00000000
,
00000010
00000000
00000000
00000010
00000000
00000000
00010000
00000000
00001000
00000000
00000000
00000000
00000000
00000000
00000000
00000000
,
00100000
00000000
00000000
00100000
00000000
00000000
01000000
00000000
00100000
00000000
00000000
00000000
00010000
00000000
00000000
00000000
,
10000000
00000000
00000000
10000000
00000000
00000000
01000000
00000000
00010000
00000000
00000000
00000000
00000000
00000000
00000000
00000000
,
00001000
00010000
00000100
00000010
,
00000001
00000000
00000000
00000100
00000000
00000000
00000000
00000000
00000010
00000000
00000000
00001000
00000000
00000000
00000100
00000000
,
00020000
00000000
00000000
00001000
00002000
00000000
00000000
00000000
,
00033000
00000000
00000000
00001000
00100000
00010000
01000000
00100000
,
10000000
00000000
00000000
00100000
00000000
01000000
00010000
01000000
,
00010000
00000000
00000000
00100000
00000000
00001000
00010000
00000000
,
00001000
00001100
00000100
00000101
,
00000001
00000000
00000000
00000001
00000000
00000000
00000010
00000000
00002000
00000000
00000000
00000000
00003000
00000000
00000000
00000000
,
00010000
00000000
00000000
00001000
00000000
00000000
00010000
00000000
00100000
00000000
00000000
00000000
00010000
00000000
00000000
00000000
,
00001000
00000000
00000000
00010000
00000000
00000000
00001000
00000000
00000100
00000000
00000000
00000000
00001000
00000000
00000000
00000000
,
00010000
00110000
00100000
10100000
,
10000000
00010000
10000000
00010000
00200000
00000000
00000000
00301000
,
00010000
00000000
00000100
00000000
,
00000010
00000000
00000002
00000000
00000203
00000000
00001300
00010000
,
00002000
00000000
00103000
00000000
,
00010000
00000000
00000000
10000000
00000000
00000000
01000000
00000000
00100000
00000000
00000000
00000000
00000000
00000000
00000000
00000000
,
00002000
00010000
00203000
00010000
,
02300000
10000000
03020000
00001000
,
00030020
00000100
00002030
00000100
,
00003001
00000010
00000100
00001000
00000002
00000000
00000000
00000000
,
00000013
00000000
00000000
00000100
00001000
00000100
00001000
00000100
,
00010000
00000000
00000000
00001000
00000000
00100000
00010000
00000000
,
10000000
10100000
00100000
00110000
,
00010000
00000000
00000000
00001000
00000000
00000000
00010000
00000000
00000100
00000000
00000000
00000000
00000000
00000000
00000000
00000000
,
00000010
00000000
00000000
00000010
00000000
00000000
00000100
00000000
00000010
00000000
00000000
00000000
00000001
00000000
00000000
00000000
,
00001000
00000000
00000000
00001000
00000000
00000000
00000100
00000000
00010000
00000000
00000000
00000000
00001000
00000000
00000000
00000000
,
00200000
00010000
02300000
10000000
,
03100000
00001000
00010000
00001000
00000100
00000000
00000110
00000000
,
00001001
00000000
00000000
00000020
00000000
00000031
00000010
00000100
,
00001000
00000000
00000000
00000100
00000000
00010000
00001000
00000000
,
00100000
00000000
00000000
00100000
00000000
00000000
00001000
00000000
00010000
00000000
00000000
00000000
00011000
00000000
00000000
00000000
,
00001000
00000000
00000000
00001000
00000000
00000000
00010000
00000000
00000100
00000000
00000000
00000000
00000010
00000000
00000001
00000000
,
00000200
00000000
00000300
00000000
00000010
00010000
00001000
00100000
,
00020000
00000000
00030000
00000000
10000000
01000000
00010000
00001000
,
00020000
00000100
00032000
00100000
,
00013000
00001000
00010000
00001000
00100000
00000000
00011000
00000000
,
00000100
00000100
00000000
00010000
00010000
00000000
00001000
00001000
,
00000000
00100000
00100000
00000000
00000000
00000000
00000000
00000000
;

//---------------dance-double - D-LIGHT----------------
#NOTES:
     dance-double:
     DJ OMiY-LDP:
     Easy:
     3:
     0.233636,0.221487,0.009345,0.327091,0.000000,139.000000,1.000000,35.000000,0.000000,0.000000,0.000000,0.233636,0.221487,0.009345,0.327091,0.000000,139.000000,1.000000,35.000000,0.000000,0.000000,0.000000:
00000000
00000000
00000000
00000000
,
00000000
00000000
00000000
00000000
,
00000000
00000000
00000000
00000000
,
00000000
00000000
00000000
00000000
,
00001000
00000000
00001000
00010000
,
00100000
00000000
00100000
00010000
,
00002000
00003000
00020000
00030000
,
00000100
00000010
00000002
00000000
,
00000200
00000000
00000000
00000000
,
00000000
00000000
00000000
00000303
,
00000001
00000000
00000001
00000100
,
00001000
00000000
00010000
00000000
,
00001000
00000000
00001000
00100000
,
00010000
00000000
10000000
10000000
,
01000000
00000000
01000000
10000000
,
00010000
00000000
00100000
00100000
,
00002000
00003000
02000000
03000000
,
00010000
00100000
00001000
00000000
,
00010000
00000100
00000010
00000000
,
00000010
00000100
00001000
00000000
,
00000001
00000010
00001000
00000000
,
00000010
00001000
00010000
00000000
,
00001000
00000000
00100000
00000000
,
00001000
00010000
00001000
00000000
,
00200000
00000000
02000000
00000000
,
03300000
00000000
10000000
10000000
,
00010000
00000000
00100000
00010000
,
01000000
00000000
01000000
00001000
,
00010000
00000000
00000100
00000000
,
00010000
00000000
00000010
00000000
,
00000200
00000300
00000010
00010000
,
00002000
00003000
00000100
00000010
,
00000200
00000300
00000002
00000003
,
00000010
00000100
00020000
00000000
,
00031000
00000000
00000000
00000000
,
00000000
00001000
00001000
00100000
,
02000000
00000000
03000000
00000000
,
10000000
00000000
00010000
00000000
,
02000000
03000000
02000000
03000000
,
00200000
00300000
00200000
00300000
,
10000000
01000000
00100000
00001000
,
00020000
00000000
00002000
00033000
,
00011000
00000000
00010000
00000010
,
00000100
00000000
00000001
00000000
,
00000010
00000000
00000010
00000100
,
00001000
00000000
00001000
00000000
,
00000200
00000300
00010000
00000100
,
00020000
00030000
00001000
00100000
,
02000000
03000000
20000000
30000000
,
00010000
01000000
00020000
00000000
,
00130000
00000000
00001000
00010000
,
00000100
00000000
00000010
00000000
,
00000002
00000003
00002000
00003000
,
00000010
00000100
00000001
00000000
,
00000020
00000030
00000100
00000010
,
00000002
00000003
00000100
00000001
,
00002000
00003000
00000200
00000300
,
00000010
00000100
00010000
00000000
,
00002000
00003000
00000000
00020000
00030000
00000000
00002000
00003000
,
00000000
00020000
00030000
00000000
00000000
00000000
00000000
00000000
;
