#VERSION:0.82;
#TITLE:refrain;
#SUBTITLE:;
#ARTIST:dj TAKA feat. AiMEE;
#TITLETRANSLIT:;
#SUBTITLETRANSLIT:;
#ARTISTTRANSLIT:;
#GENRE:;
#ORIGIN:;
#CREDIT:;
#BANNER:refrain-bn.png;
#BACKGROUND:refrain-bg.png;
#PREVIEWVID:;
#JACKET:refrain-jk.png;
#CDIMAGE:;
#DISCIMAGE:;
#LYRICSPATH:;
#CDTITLE:;
#MUSIC:refrain.ogg;
#OFFSET:-0.005000;
#SAMPLESTART:62.253754;
#SAMPLELENGTH:15.189880;
#SELECTABLE:YES;
#BPMS:0.000=158.000;
#STOPS:;
#DELAYS:;
#WARPS:;
#TIMESIGNATURES:0.000=4=4;
#TICKCOUNTS:0.000=4;
#COMBOS:0.000=1;
#SPEEDS:0.000=1.000=0.000=0;
#SCROLLS:0.000=1.000;
#FAKES:;
#LABELS:0.000=Song Start,
300.000=Song End;
#BGCHANGES:;
#KEYSOUNDS:;
#ATTACKS:
;

//---------------dance-single - S-HEAVY----------------
#NOTEDATA:;
#CHARTNAME:xRGTMx-HSP;
#STEPSTYPE:dance-single;
#DESCRIPTION:S-HEAVY;
#CHARTSTYLE:;
#DIFFICULTY:Hard;
#METER:9;
#RADARVALUES:0.660135,0.738338,0.084478,0.481525,0.232315,480.000000,10.000000,57.000000,0.000000,0.000000,0.000000,0.000000,0.000000,0.660135,0.738338,0.084478,0.481525,0.232315,480.000000,10.000000,57.000000,0.000000,0.000000,0.000000,0.000000,0.000000;
#CREDIT:xRGTMx;
#NOTES:
0000
0000
0000
0000
,
2002
0000
0000
0000
,
0000
0000
0000
0000
,
0000
0000
0000
0000
,
0000
0000
3003
0000
,
1000
0000
1000
0001
0000
0100
0001
0010
,
0001
0000
0001
1000
0000
0010
1000
0100
,
1000
0000
0000
1000
0100
0000
0000
0100
0020
0000
0000
0000
0031
1000
0010
0100
,
0002
0000
0000
0000
0000
0000
0000
0000
0013
0001
0000
0001
0000
0000
0010
0000
,
0100
0000
0000
0100
1000
0000
0001
0000
0100
0000
0000
0100
0001
0000
1000
0000
,
0100
0010
0000
0010
0100
0000
1000
0000
0001
0000
0100
0000
0010
0000
1000
0000
,
0001
0010
1000
1000
0010
0001
1000
0010
,
0100
0000
0001
0100
0001
0000
1000
0000
0001
0000
0010
0000
0100
0000
1000
0000
,
0001
2000
3100
2000
3010
2000
3001
2000
,
3100
0000
0000
0100
0010
0000
0001
0000
1000
0010
1000
0000
0001
0100
0001
0000
,
1000
0100
0001
0010
0001
0100
1000
0010
,
0100
0001
0000
0000
0001
1000
0000
0000
1000
0100
0010
0000
0001
0000
1000
0000
,
0010
0000
0010
1000
0000
0000
0001
0000
0010
0000
0010
0001
0000
0000
1000
0000
,
0010
0000
1000
0100
0000
1000
0001
0000
0100
0000
0001
0000
0010
0000
0001
0000
,
1000
0010
0001
0001
0010
1000
0001
0010
,
0100
0000
1000
0100
1000
0000
0010
0000
1000
0000
0100
0000
0010
0000
0001
0000
,
1000
0002
0013
0002
0103
0002
1003
0002
,
0013
0000
0000
0010
0100
0000
1000
0000
0001
0000
0100
0000
0010
0000
1000
0000
,
0001
0010
1000
0100
1000
0010
0001
0100
,
0010
1000
0000
0000
1000
0100
0000
0000
1000
0001
1000
0000
0010
0000
0100
0000
,
0001
0000
2010
0000
3100
1000
0010
0100
,
0001
0000
1000
0200
0000
0301
0100
1000
,
0001
0100
1000
0100
0010
0100
0001
2000
,
0100
0000
0000
0000
3001
0000
0000
0000
1000
0000
0010
0100
0001
0000
1000
0000
,
0100
0010
0001
2000
0000
0010
0000
3001
,
1000
0000
0001
0010
0001
0100
0010
1000
,
0100
0100
1000
0200
0000
0001
0000
0310
,
0100
1000
0000
0000
1000
0001
0000
0000
0001
0100
0010
0000
1000
0000
0001
0000
,
1000
0210
0301
0120
,
1030
0110
0000
0001
0010
0100
1000
0001
,
0000
1000
0100
0010
0100
1000
0100
0020
,
0000
0032
0000
0203
0000
1300
0010
0000
,
0001
0100
0010
0100
0001
0100
0010
0000
,
1000
0000
0001
0020
0000
2030
0000
3100
,
1000
0000
0010
0001
1000
0000
0010
0000
,
1000
0100
1000
0000
0001
0100
0001
0000
1000
0010
1000
0000
0001
0010
0001
0000
,
2000
0000
0000
0000
,
3020
0000
0000
0000
0000
0000
0130
0200
,
0000
0000
0000
0302
0000
0013
0001
2000
,
0000
0000
3010
0020
0000
0230
0000
0000
,
0000
0301
0010
0001
1000
0010
2000
0000
,
3200
0000
0010
0320
0000
0032
0000
2003
,
0000
0000
3010
0020
0000
0130
0001
2000
,
0000
0100
0001
3010
,
1000
0001
0000
0001
0000
0010
0000
0010
,
0000
0001
0000
0001
0000
1000
0000
0001
,
0000
1000
0000
1000
0000
0010
0000
0010
,
0000
1000
0000
1000
0000
0100
0000
0010
,
0001
0001
0100
0001
1000
1000
0100
1000
,
0010
0010
0100
0001
0010
0010
0100
1000
,
0001
0000
0000
0001
0100
0000
0000
0100
0020
0000
0000
0000
1030
0010
0100
0001
,
0020
0000
0000
0000
0130
0010
0100
0000
1000
0000
0010
0000
1000
0001
1000
0000
,
0001
0200
1300
0200
0301
1000
0100
0010
,
0001
0010
0000
0010
0000
0000
1000
0000
0001
0000
0100
0000
1000
0000
0001
0000
,
1000
0100
0001
0001
0100
1000
0001
0100
,
0010
0000
1000
0001
0010
0000
0100
0000
1000
0000
0001
0000
0100
0000
0001
0000
,
1000
0200
0310
0200
0301
0200
0310
0200
,
1300
0000
0000
1100
0000
0101
0000
0000
0001
0000
1000
0000
0001
0000
0000
0000
,
0020
0000
0000
0000
0130
0000
0010
0001
1000
0000
0010
0000
0100
0000
0001
0000
,
0001
1000
0001
0000
0010
0000
0100
0000
1000
0000
0010
0000
1001
0000
1001
0000
,
1000
0200
0301
0200
1300
0001
0100
0010
,
1000
0010
0000
0010
0000
0000
0001
0000
1000
0000
0100
0000
0001
0000
1000
0000
,
0001
0100
1000
1000
0100
0001
1000
0100
,
0010
0000
0001
1000
0010
0000
0100
0000
0001
0000
1000
0000
0100
0000
1000
0000
,
0001
0200
0310
0200
1300
0200
0310
0200
,
0301
0000
0000
0100
0000
0020
0000
0000
1030
0000
0001
0000
1000
0000
0000
0000
,
0020
0000
0000
0000
0130
0000
0010
1000
0001
0000
0010
0000
0100
0000
1000
0000
,
1000
0001
1000
0000
0010
0000
0100
0000
0001
0000
0010
0000
0001
1000
0010
0000
,
2002
0000
0000
0000
,
0000
0000
0000
0000
,
0000
0000
0000
0000
,
3003
0000
0000
0000
;

//---------------dance-single - S-STANDARD----------------
#NOTEDATA:;
#CHARTNAME:xRGTMx-SSP;
#STEPSTYPE:dance-single;
#DESCRIPTION:S-STANDARD;
#CHARTSTYLE:;
#DIFFICULTY:Medium;
#METER:7;
#RADARVALUES:0.442906,0.545728,0.211195,0.185852,0.046463,320.000000,25.000000,22.000000,0.000000,0.000000,0.000000,0.000000,0.000000,0.442906,0.545728,0.211195,0.185852,0.046463,320.000000,25.000000,22.000000,0.000000,0.000000,0.000000,0.000000,0.000000;
#CREDIT:xRGTMx;
#NOTES:
0000
0000
0000
0000
,
2002
0000
0000
0000
,
0000
0000
0000
0000
,
0000
0000
0000
0000
,
0000
0000
3003
0000
,
1000
0000
0000
0010
0000
0000
0000
0000
,
0001
0000
0000
0010
0000
0000
0000
0000
,
2000
0000
3002
0000
2003
0000
3010
0100
,
0020
0000
0000
0000
0000
0000
0000
0000
1030
0000
0000
1000
0000
0000
0001
0000
,
1000
0000
0000
0100
0000
0000
1000
0000
0001
0000
0000
0000
0100
0000
0000
0000
,
0001
0000
0000
0010
0000
0000
0001
0000
1000
0000
0000
0000
0010
0000
0000
0000
,
1000
0100
1000
0001
0100
0001
1000
0100
,
1000
0100
0010
0001
,
1010
0011
1100
0101
,
1001
0000
0001
1000
0010
0000
0100
0000
,
0001
0000
0010
0100
1000
0000
0001
0000
,
0100
0001
0100
0010
1000
0001
1000
0100
,
0010
0000
0000
0001
0000
0000
1000
0000
0001
0000
0000
0000
0100
0000
0000
0000
,
0010
0000
0000
1000
0000
0000
0001
0000
1000
0000
0000
0000
0100
0000
0000
0000
,
0010
0001
0100
0010
1000
0100
0010
0001
,
0100
0000
0001
0000
1000
0001
1000
0000
,
1100
0101
1010
0011
,
1001
0000
1000
0001
0100
0000
0010
0000
,
1000
0000
0100
0010
0001
0000
1000
0000
,
0001
0010
0001
0100
0010
1000
0100
1000
,
0001
0100
0001
1000
,
0100
0000
0100
0000
0010
0100
0010
0000
,
0001
1000
0010
1000
,
0100
0000
0100
0000
0010
0100
0010
0100
,
1000
0100
1000
0001
,
0100
0000
0100
0000
0010
0100
0010
0000
,
1000
0010
1000
0001
,
0010
0000
0010
0000
0100
0010
0100
0010
,
0001
1100
0001
1100
,
0001
0000
0010
0000
0100
1000
0001
0000
,
1000
0010
0100
0001
,
1000
0000
0100
0000
0010
0000
0001
1000
,
0001
0000
0100
0000
0010
0100
0001
0000
,
1000
0000
0100
0000
0010
0100
1000
0000
,
0001
0000
0100
0010
1000
0000
0001
0000
,
0010
0001
0010
0001
1000
0100
1000
0100
,
0020
0000
0000
0000
,
0032
0000
0000
0000
,
0203
0000
0000
0000
,
0302
0000
0000
0000
,
2003
0000
0000
0000
,
3200
0000
0000
0000
,
0320
0000
0000
0000
,
0032
0000
0000
0000
,
0003
1000
0000
0100
0000
1000
0000
0100
,
0000
1000
0000
0001
0000
1000
0000
0001
,
0000
0100
0000
0001
0000
0100
0000
0001
,
0000
1000
0000
0001
0000
1000
0000
0001
,
0010
0000
0010
0000
0010
0100
0010
0100
,
0010
0000
0010
0000
0010
0100
0010
0100
,
2000
0000
3002
0000
2003
0000
3001
0100
,
0020
0000
0130
0100
0010
1000
0001
0000
,
1100
0000
0101
0000
0010
1000
0001
0000
,
1000
0000
0000
1000
0000
0000
0010
0000
0100
0000
0000
0000
0001
0000
0000
0000
,
1000
0100
0010
0001
0010
0100
1000
0100
,
0010
0000
0001
0000
1000
0010
0100
0000
,
0101
0110
1001
1100
,
0010
0000
0000
0010
0000
0010
0000
0000
0001
0000
1000
0000
0001
0000
0000
0000
,
0200
0000
0300
0100
0100
0000
0010
0000
,
1000
0001
1000
0100
0010
0001
1000
0000
,
1010
0000
0011
0000
0100
1000
0001
0000
,
1000
0000
0000
1000
0000
0000
0100
0000
0010
0000
0000
0000
0001
0000
0000
0000
,
1000
0010
0100
0001
0100
0010
1000
0010
,
0100
0000
0001
0000
1000
0100
0010
0000
,
0011
0000
0110
0000
1001
0000
1000
0010
,
0100
0000
0000
0100
0000
0100
0000
0000
0001
0000
1000
0000
0001
0000
0000
0000
,
0020
0000
0030
0010
0010
0001
0100
0000
,
0001
1000
0001
0100
0010
1000
0100
0000
,
2002
0000
0000
0000
,
0000
0000
0000
0000
,
0000
0000
0000
0000
,
3003
0000
0000
0000
;

//---------------dance-single - S-LIGHT----------------
#NOTEDATA:;
#CHARTNAME:xRGTMx-LSP;
#STEPSTYPE:dance-single;
#DESCRIPTION:S-LIGHT;
#CHARTSTYLE:;
#DIFFICULTY:Easy;
#METER:3;
#RADARVALUES:0.209988,0.316793,0.101374,0.118269,0.000000,148.000000,12.000000,14.000000,0.000000,0.000000,0.000000,0.000000,0.000000,0.209988,0.316793,0.101374,0.118269,0.000000,148.000000,12.000000,14.000000,0.000000,0.000000,0.000000,0.000000,0.000000;
#CREDIT:xRGTMx;
#NOTES:
0000
0000
0000
0000
,
2002
0000
0000
0000
,
0000
0000
0000
0000
,
3003
0000
0000
0000
,
0000
0000
0000
0000
,
1000
0000
0000
1000
0000
0000
0000
0000
,
0001
0000
0000
0001
0000
0000
0000
0000
,
0010
0010
0010
0010
,
0020
0000
0030
0000
,
0001
0001
0001
0000
,
1000
1000
1000
0000
,
0010
0000
0100
0000
,
0001
1000
0001
0000
,
1000
0000
0100
0000
,
0001
0000
0010
0000
,
1000
0000
0100
0000
,
0010
0100
0010
0100
,
1000
1000
1000
0000
,
0001
0001
0001
0000
,
0100
0000
0010
0000
,
1000
0001
1000
0000
,
0001
0000
0100
0000
,
1000
0000
0010
0000
,
0001
0000
1000
0000
,
0100
0010
0100
0010
,
0001
0000
0100
0000
,
0010
0000
1000
0000
,
0002
0000
1003
0000
,
2000
0000
3001
0000
,
1000
0000
0100
0000
,
0010
0000
0001
0000
,
2000
0000
3001
0000
,
0002
0000
1003
0000
,
0000
1001
0000
1001
,
0000
0110
0000
0110
,
0000
1000
0001
0000
,
0000
0010
0100
0000
,
1000
0000
0100
0000
,
0010
0000
0001
0000
,
1000
0000
0010
0000
,
0100
0000
0001
0000
,
2000
0000
0000
0000
,
3000
0000
0000
0000
,
0002
0000
0000
0000
,
0003
0000
0000
0000
,
2000
0000
0000
0000
,
3000
0000
0000
0000
,
0002
0000
0000
0000
,
0003
0000
0000
0000
,
0000
0100
0000
0000
0000
0100
0000
0000
,
0000
0010
0000
0000
0000
0010
0000
0000
,
0000
0100
0000
0000
0000
0100
0000
0000
,
0000
0010
0000
0000
0000
0010
0000
0000
,
1000
0000
1000
0000
,
0001
0000
0001
0000
,
0010
0010
0010
0010
,
0020
0030
0000
0000
,
1000
0100
1000
0000
,
0001
0100
0001
0000
,
0010
0000
0010
0000
,
0100
0010
0100
0000
,
1001
0000
0110
0000
,
1001
0000
0100
0000
,
0001
0001
1000
0000
,
1000
0001
1000
0000
,
0001
0100
0001
0000
,
1000
0100
1000
0000
,
0010
0000
0010
0000
,
0100
0010
0100
0000
,
1001
0000
0110
0000
,
1001
0000
0100
0000
,
1000
1000
0001
0000
,
0001
1000
0001
0000
,
2002
0000
0000
0000
,
0000
0000
0000
0000
,
3003
0000
0000
0000
;

//---------------dance-single - S-BEGINNER----------------
#NOTEDATA:;
#CHARTNAME:DJ OMiY-BEG;
#STEPSTYPE:dance-single;
#DESCRIPTION:S-BEGINNER;
#CHARTSTYLE:;
#DIFFICULTY:Beginner;
#METER:2;
#RADARVALUES:0.133958,0.285113,0.016896,0.135165,0.000000,93.000000,2.000000,16.000000,0.000000,0.000000,0.000000,0.000000,0.000000,0.133958,0.285113,0.016896,0.135165,0.000000,93.000000,2.000000,16.000000,0.000000,0.000000,0.000000,0.000000,0.000000;
#CREDIT:DJ OMiY;
#NOTES:
0000
0000
0000
0000
,
0020
0000
0000
0000
,
0000
0000
0000
0000
,
0030
0000
0000
0000
,
0000
0000
0000
0000
,
2000
0000
3000
0000
,
0002
0000
0003
0000
,
1000
0000
0001
0000
,
1001
0000
0000
0000
,
0010
0000
0000
0000
,
1000
0000
0000
0000
,
0001
0000
0000
0000
,
1000
0000
0000
0000
,
0010
0000
0010
0000
,
0100
0000
0100
0000
,
0002
0000
0003
0000
,
0020
0000
0030
0000
,
0100
0000
0000
0000
,
1000
0000
0000
0000
,
0010
0000
0000
0000
,
0100
0000
0000
0000
,
0001
0000
1000
0000
,
0001
0000
1000
0000
,
0020
0000
0030
0000
,
0200
0000
0300
0000
,
0010
0010
0000
0000
,
0000
0000
0000
0000
,
1000
0000
0000
0000
,
0100
0000
0000
0000
,
0010
0000
0100
0000
,
1000
0000
0001
0000
,
0200
0000
0000
0000
,
0300
0000
0000
0000
,
0001
0001
0000
0000
,
0000
0000
0000
0000
,
0010
0000
0000
0000
,
0100
0000
0000
0000
,
1000
0000
0100
0000
,
0010
0000
0001
0000
,
2000
0000
0000
0000
,
3000
0000
0000
0000
,
0020
0000
0000
0000
,
0030
0000
0000
0000
,
0200
0000
0000
0000
,
0300
0000
0000
0000
,
0001
0000
0000
0000
,
1000
0000
0000
0000
,
0001
0000
0010
0000
,
1000
0000
0000
0000
,
0100
0000
0000
0000
,
0100
0000
0000
0000
,
0010
0000
0000
0000
,
0010
0000
0000
0000
,
0002
0003
0001
0000
,
2000
3000
1000
0000
,
0010
0010
0010
0010
,
0020
0000
0030
0000
,
0100
0000
0010
0000
,
0100
0000
0010
0000
,
1000
0000
0001
0000
,
0100
0000
0000
0000
,
0001
0000
0010
0000
,
0001
0000
1000
0000
,
0100
0000
1000
0000
,
0010
0000
0000
0000
,
0100
0000
0010
0000
,
1000
0000
0001
0000
,
0100
0000
0001
0000
,
0100
0000
0000
0000
,
0010
0000
1000
0000
,
0100
0000
0010
0000
,
0001
0000
1000
0000
,
0001
0000
0000
0000
,
0220
0000
0000
0000
,
0000
0000
0000
0000
,
0330
0000
0000
0000
;

//---------------dance-double - D-HEAVY----------------
#NOTEDATA:;
#CHARTNAME:DJ OMiY-HDP;
#STEPSTYPE:dance-double;
#DESCRIPTION:D-HEAVY;
#CHARTSTYLE:;
#DIFFICULTY:Hard;
#METER:9;
#RADARVALUES:0.596173,0.665264,0.109821,0.194299,0.114045,458.000000,13.000000,23.000000,0.000000,0.000000,0.000000,0.000000,0.000000,0.596173,0.665264,0.109821,0.194299,0.114045,458.000000,13.000000,23.000000,0.000000,0.000000,0.000000,0.000000,0.000000;
#CREDIT:DJ OMiY;
#NOTES:
// measure 0
00000000
00000000
00000000
00000000
,  // measure 1
00022000
00000000
00000000
00000000
,  // measure 2
00000000
00000000
00000000
00000000
,  // measure 3
00033000
00000000
00000000
00000000
,  // measure 4
00000000
00000000
00000000
00000000
,  // measure 5
00010000
00010000
00000100
00000010
00000001
00000001
00000100
00001000
,  // measure 6
00010000
00010000
00100000
10000000
01000000
01000000
00100000
00001000
,  // measure 7
00020000
00000000
00030000
00010000
00000020
00000000
00000030
00000010
00000200
00000000
00000300
00000100
00002000
00000000
00003000
00001000
,  // measure 8
00010000
00000000
00000000
00000000
00000000
00000000
00000000
00000000
00001000
00010000
00000000
00001000
00000000
00000000
00001000
00000000
,  // measure 9
00100000
00010000
10000000
01000000
00100000
00010000
00100000
01000000
,  // measure 10
00100000
00001000
00010000
00000010
00000100
00000001
00001000
00000100
,  // measure 11
00000010
00000100
00001000
00000010
00000100
00001000
00010000
00001000
,  // measure 12
00000100
00000001
00000010
00000100
00010000
00001000
00100000
00010000
,  // measure 13
10000000
02000000
03100000
02000000
13000000
02000000
03100000
02000000
,  // measure 14
03010000
00001000
00010000
00000100
00000010
00000100
00001000
00000001
,  // measure 15
00000100
00001000
00010000
00100000
00010000
00001000
00010000
01000000
,  // measure 16
10000000
10000000
00100000
00100000
00010000
00010000
00001000
00001000
,  // measure 17
00010000
00000100
00000000
00001000
00000000
00000000
00000010
00000000
00010000
00000100
00000000
00001000
00000000
00000000
00000010
00000000
,  // measure 18
00010000
00000100
00000000
00001000
00000000
00000000
00000010
00000000
00000100
00000000
00001000
00000000
00010000
00000000
00100000
00000000
,  // measure 19
10000000
01000000
00010000
10000000
00100000
00010000
01000000
00010000
,  // measure 20
00100000
00001000
00010000
00000100
00001000
00000010
00000100
00000001
,  // measure 21
00000010
00000000
00000000
00000010
00000100
00000000
00000000
00000100
00001000
00000000
00000000
00001000
00010000
00000000
00000000
00010000
,  // measure 22
02000000
00000000
03100000
01000000
00010000
00100000
00001000
00010000
,  // measure 23
00000010
00001000
00000100
00010000
00001000
00100000
00010000
10000000
,  // measure 24
01000000
01000000
00100000
00100000
00001000
00001000
00010000
00010000
,  // measure 25
00001000
00000000
00001100
00000000
00000100
00000001
00000010
00000100
,  // measure 26
00001000
00000000
00000100
00010000
00001000
00100000
00001000
00010000
,  // measure 27
01000000
00000000
00100000
00000000
01000000
10000000
00100000
01000000
,  // measure 28
00010000
00000000
01000000
00000000
00100000
01000000
00001000
00010000
,  // measure 29
00100000
00000000
10000000
01000000
00000000
00010000
00000000
01000000
,  // measure 30
00000000
00100000
00000000
00001000
00010000
00000010
00000100
00001000
,  // measure 31
00000100
00000000
00000001
00000100
00000001
00001000
00000001
00000010
,  // measure 32
00000100
00001100
00000101
00010100
,  // measure 33
00001000
00101000
00010000
10010000
,  // measure 34
00100000
01000000
00000000
01000000
00100000
10000000
00010000
00100000
,  // measure 35
00001000
00010000
00001000
00010000
00000010
00001000
00000100
00000010
,  // measure 36
00000100
00010000
00001000
00100000
01000000
10000000
00010000
00000000
,  // measure 37
00100000
00001000
00010000
00000100
00000010
00000100
00001000
00000001
,  // measure 38
00000010
00001000
00010000
00002000
00000000
00023000
00000000
02030000
,  // measure 39
00000000
03100000
00010000
10000000
00100000
00010000
00001000
00010000
,  // measure 40
00000010
00000000
00001000
00001000
00000100
00000100
00010000
00010000
,  // measure 41
00002000
00000000
00100000
00000000
,  // measure 42
00010000
00000000
00000000
00000000
01000000
00003000
00001000
00020000
,  // measure 43
00000000
00000000
00000000
00000000
00000000
00000100
00000000
00002000
,  // measure 44
00000000
00000000
00000000
00030000
00000000
00003000
00000000
00000000
,  // measure 45
00010000
00001000
01000000
00000000
00100000
00000000
01000000
00000000
,  // measure 46
00001000
00000000
00010000
00100000
00000000
10000000
00000000
01000000
,  // measure 47
00100000
00000000
00001000
00010000
00000000
00000100
00000010
00000100
,  // measure 48
00001000
00000001
00000010
00001000
,  // measure 49
00010000
00001000
00000100
00000001
00000000
00000001
00000100
00001000
,  // measure 50
00010000
00000000
00001000
00200000
00000000
00000000
00300000
00000000
,  // measure 51
00001000
00010000
01000000
10000000
00000000
01000000
00000000
00000000
,  // measure 52
10000000
01000000
00010000
00002000
00000000
00000000
00003000
00000000
,  // measure 53
00010000
00001000
00000100
00000100
00001000
00010000
00100000
00100000
,  // measure 54
00010000
00001000
00000010
00000010
00001000
00010000
01000000
01000000
,  // measure 55
00010000
00001000
00010000
00001000
00010000
00001000
00010000
00001000
,  // measure 56
00022000
00000000
00000000
00033000
,  // measure 57
00000100
00001000
00000100
00000001
00000100
00000010
00000001
00001000
,  // measure 58
00000100
00001000
00000000
00000100
00000000
00000000
00010000
00000000
00001000
00000000
00010000
00000000
00100000
00000000
10000000
00000000
,  // measure 59
01000000
00100000
00001000
00010000
00100000
00010000
00001000
00010000
,  // measure 60
00000100
00000010
00000100
00010000
00001000
00000100
00000001
00000100
,  // measure 61
00000010
00000000
00001000
00000100
00001000
00000000
00000100
00010000
00000100
00000000
00010000
00001000
00010000
00000000
00001000
00100000
,  // measure 62
00001000
00010000
01000000
10000000
01000000
00010000
00001000
00010000
,  // measure 63
00100000
01000000
00100000
01000000
10000000
01000000
10000000
01000000
,  // measure 64
00010000
00110000
00101000
00011000
,  // measure 65
00010100
00000100
00001000
00000010
00010000
00000100
00010000
00001000
,  // measure 66
00100000
00000000
00000000
01000000
00000000
00000000
10000000
00000000
01000000
00000000
00010000
00000000
00001000
00000000
00010000
00000000
,  // measure 67
00001000
00000100
00000010
00001000
00000100
00000010
00001000
00010000
,  // measure 68
00100000
00010000
10000000
01000000
10000000
00100000
01000000
00010000
,  // measure 69
00100000
00000000
00010000
00100000
00010000
00000000
00100000
00001000
00100000
00000000
00001000
00010000
00001000
00000000
00010000
00000100
,  // measure 70
00010000
00001000
00010000
00001000
00100000
00010000
10000000
01000000
,  // measure 71
00100000
00100000
00010000
00010000
10000000
10000000
01000000
01000000
,  // measure 72
10000000
00100000
10000000
01000000
,  // measure 73
00220000
00000000
00000000
00000000
,  // measure 74
00000000
00000000
00000000
00000000
,  // measure 75
00330000
00000000
00000000
00000000
;

//---------------dance-double - D-STANDARD----------------
#NOTEDATA:;
#CHARTNAME:DJ OMiY-SDP;
#STEPSTYPE:dance-double;
#DESCRIPTION:D-STANDARD;
#CHARTSTYLE:;
#DIFFICULTY:Medium;
#METER:7;
#RADARVALUES:0.435665,0.506868,0.177404,0.101374,0.025343,328.000000,21.000000,12.000000,0.000000,0.000000,0.000000,0.000000,0.000000,0.435665,0.506868,0.177404,0.101374,0.025343,328.000000,21.000000,12.000000,0.000000,0.000000,0.000000,0.000000,0.000000;
#CREDIT:DJ OMiY;
#NOTES:
00000000
00000000
00000000
00000000
,
00020200
00000000
00000000
00000000
,
00000000
00000000
00000000
00000000
,
00030300
00000000
00000000
00000000
,
00000000
00000000
00000000
00000000
,
00001000
00000000
00000001
00000010
00001000
00000000
00010000
01000000
,
10000000
00000000
10000000
00100000
00010000
00000000
00100000
00010000
,
00002000
00003200
00002300
00023000
,
00130000
00000000
00000000
00000000
,
00010000
00000000
00000000
00001000
00000000
00000000
00000000
00000000
00001000
00000000
00000000
00100000
00000000
00000000
00000000
00000000
,
00100000
00000000
00000000
01000000
00000000
00000000
00000000
00000000
10000000
00000000
00010000
00000000
01000000
00000000
00010000
00000000
,
00100000
00100000
00000000
10000000
10000000
00000000
01000000
00000000
,
00010000
00000000
00001000
00000000
00010000
00000100
00000010
00000000
,
00000001
00000100
00001000
00000100
00000001
00000100
00001000
00010000
,
00002000
00000000
00100000
00010000
,
00003100
00001000
00010000
00000000
00001000
00010000
00100000
00000000
,
10000000
01000000
00010000
00001000
,
00010000
00000000
00000000
00001000
00000000
00000000
00000000
00000000
00001000
00000000
00000000
00000100
00000000
00000000
00000000
00000000
,
00000100
00000000
00000000
00000001
00000000
00000000
00000000
00000000
00000010
00000000
00000100
00000000
00001000
00000000
00000100
00000000
,
00000010
00000010
00000000
00000100
00000100
00000000
00010000
00001000
,
00100000
00000000
00010000
00000000
10000000
00100000
01000000
00100000
,
00010000
00001000
00000010
00000100
,
00001000
00000000
00000010
00000000
00000100
00000001
00000010
00000100
,
00010000
00001000
00000010
00001000
,
00010000
00000000
00001000
00000000
00100000
00100000
00001000
00001000
,
00010000
00000000
00011000
00000000
00001000
00010000
00001000
00000000
,
00100000
00000000
00010000
10000000
00000000
01000000
00000000
10000000
,
00100000
00000000
01000000
00000000
00010000
10000000
01000000
00100000
,
00001000
00000000
00010000
00000000
00000100
00001000
00000010
00000100
,
00000001
00000000
00001000
00000100
00000000
00000010
00000000
00000100
,
00000010
00000000
00000001
00000001
00001000
00000100
00000010
00000100
,
00010000
00000000
00001000
00100000
00000000
00010000
00000000
01000000
,
00010000
11000000
01010000
11000000
,
00100000
10010000
01000000
11000000
,
00010000
00100000
00000000
00100000
00001000
00010000
00000010
00000100
,
00001000
00000000
00000100
00000001
00000100
00000000
00000100
00000010
,
00000000
00000100
00000000
00000001
00000000
00000010
00001000
00000000
,
00010000
00001000
00010000
00000000
01000000
00000000
00100000
00000000
,
00010000
00000000
10000000
00100000
00000000
10000000
00000000
01000000
,
00010000
00000000
01000000
00100000
00000000
00001000
00000000
00010000
,
00001000
00000000
00000100
00001000
00010000
00100000
00010000
00000000
,
00002000
00000000
00000000
00000000
,
00000010
00000000
00000000
00000000
,
00023000
00000000
00000000
00000000
,
01000000
00000000
00000000
00000000
,
00030000
00001000
00010000
00000000
00001000
00000000
00010000
00000000
,
00000100
00000000
00000000
00000010
00000000
00000100
00000000
00010000
,
00000000
00000000
00000000
00001000
00000000
00100000
00000000
01000000
,
00000000
10000000
00100000
00010000
,
00001000
00001000
00010000
00001000
00000000
00000000
00010000
00000000
,
00000100
00000000
00000010
00000100
00000000
00000000
00000000
00000000
,
00000010
00000010
00000001
00001000
00000000
00000000
00000100
00000000
,
00010000
00000000
00010000
00001000
00000000
00000000
00000000
00000000
,
00100000
00000000
00010000
00010000
10000000
00000000
01000000
01000000
,
00100000
00000000
01000000
01000000
10000000
00000000
10000000
10000000
,
00100000
01000000
00010000
00100000
00001000
00010000
00000100
00010000
,
00002000
00000100
00010000
00000100
,
00013000
00000000
00011000
00000000
00001000
00100000
01000000
10000000
,
00100000
00000000
01000000
00000000
00010000
00100000
10000000
00100000
,
00010000
00010000
10000000
00010000
00010000
00100000
00001000
00000000
,
00010000
00000000
00000100
00001000
00000010
00000000
00000100
00000000
,
00000001
00000011
00001010
00011000
,
00110000
00000000
10000000
00100000
00010000
00000000
10000000
01000000
,
00010000
10000000
00010000
00100000
,
00001000
00011000
00010100
00011000
,
00100000
00000000
00110000
00000000
10000000
01000000
00100000
00000000
,
00010000
00100000
00001000
00000010
,
00000001
00000010
00000001
00001000
00000100
00001000
00000010
00000000
,
00000100
00001000
00010000
01000000
,
10000000
10100000
00110000
00011000
,
00001100
00000000
00000001
00000100
00001000
00000000
00010000
00000000
,
00001000
00100000
00100000
00000000
00001000
00010000
00010000
00000000
,
00000100
00000000
00010000
00000000
00001000
00100000
00010000
00001000
,
00022000
00000000
00000000
00000000
,
00000000
00000000
00000000
00000000
,
00033000
00000000
00000000
00000000
;

//---------------dance-double - D-LIGHT----------------
#NOTEDATA:;
#CHARTNAME:DJ OMiY-LDP;
#STEPSTYPE:dance-double;
#DESCRIPTION:D-LIGHT;
#CHARTSTYLE:;
#DIFFICULTY:Easy;
#METER:4;
#RADARVALUES:0.267916,0.380151,0.092926,0.152060,0.000000,193.000000,11.000000,18.000000,0.000000,0.000000,0.000000,0.000000,0.000000,0.267916,0.380151,0.092926,0.152060,0.000000,193.000000,11.000000,18.000000,0.000000,0.000000,0.000000,0.000000,0.000000;
#CREDIT:DJ OMiY;
#NOTES:
00000000
00000000
00000000
00000000
,
00022000
00000000
00000000
00000000
,
00000000
00000000
00000000
00000000
,
00033000
00000000
00000000
00000000
,
00000000
00000000
00000000
00000000
,
00010000
00000000
00000100
00000000
,
00000010
00000000
00000001
00000000
,
00000100
00001000
00010000
00001000
,
00011000
00000000
00000000
00000000
,
00100000
00110000
00000000
00000000
,
10000000
00000000
00100000
00000000
,
01000000
00010000
10000000
01000000
,
00010000
00000000
00001000
00000000
,
00020000
00030200
00000320
00000230
,
00001300
00000000
00000001
00000000
,
00000100
00000000
00000010
00001000
,
00000100
00000000
00010000
00010000
,
00001000
00011000
00000000
00000000
,
00001000
00000000
00100000
00000000
,
00001000
00010000
00000100
00000010
,
00000001
00000000
00000100
00000000
,
00002000
00023000
00032000
00003200
,
00000310
00000000
00001000
00000000
,
00000100
00000000
00010000
00001000
,
00100000
00000000
00001000
00010000
,
00001000
00011000
00000000
00000000
,
00100000
00010000
10000000
00000000
,
00100000
00000000
00010000
00100000
,
10000000
00000000
01000000
00000000
,
00100000
00001000
00010000
00000000
,
00001000
00010000
00000100
00000000
,
00000010
00000000
00000001
00000010
,
00000100
00000000
00010000
00001000
,
00010000
00011000
00000000
00011000
,
00000000
00000100
00000010
00000100
,
00000000
00010000
00001000
00010000
,
00001000
00000000
00100000
00000000
,
00001000
00010000
01000000
00000000
,
10000000
01000000
00100000
00000000
,
00010000
00000000
00100000
00000000
,
00001000
00010000
00000100
00000010
,
00000002
00000000
00000000
00000000
,
00000100
00000000
00000000
00000000
,
00002003
00000000
00000000
00000000
,
00000100
00000000
00000000
00000000
,
00023000
00000000
00000000
00000000
,
00100000
00000000
00000000
00000000
,
20030000
00000000
00000000
00000000
,
01000000
00000000
00100000
00000000
,
30010000
00000000
00100000
00000000
,
00010000
00000000
00100000
00001000
,
00010000
00000000
00001000
00000000
,
00010000
00000000
00001000
00010000
,
00000100
00000100
00000010
00000010
,
00000001
00000001
00000100
00000100
,
00001000
00010000
00001000
00010000
,
00022000
00000000
00000000
00033000
,
00010000
00011000
00001000
00100000
,
00010000
10000000
01000000
00100000
,
00010000
00100000
10000000
00100000
,
00010000
00000000
00100000
00000000
,
00001000
00010000
00000100
00000010
,
00000001
00000100
00000010
00010000
,
00001000
00000000
00010000
00000100
,
00000010
00000100
00000100
00000100
,
00010000
00011000
00001000
00100000
,
00001000
00010000
00000010
00000100
,
00000001
00000010
00001000
00010000
,
00001000
00010000
01000000
10000000
,
00100000
01000000
00010000
00100000
,
00001000
00001000
00010000
00010000
,
00000100
00000010
00000100
00010000
,
00001000
00100000
00001000
00010000
,
00022000
00000000
00000000
00000000
,
00000000
00000000
00000000
00000000
,
00033000
00000000
00000000
00000000
;
