#VERSION:0.82;
#TITLE:moon_child;
#SUBTITLE:;
#ARTIST:少年ラジオ;
#TITLETRANSLIT:;
#SUBTITLETRANSLIT:;
#ARTISTTRANSLIT:Shounen Radio;
#GENRE:Rock;
#ORIGIN:;
#CREDIT:;
#BANNER:moon_child-bn.png;
#BACKGROUND:moon_child-bg.png;
#PREVIEWVID:;
#JACKET:moon_child-jk.png;
#CDIMAGE:;
#DISCIMAGE:;
#LYRICSPATH:;
#CDTITLE:;
#MUSIC:moon_child.mp3;
#OFFSET:0.780000;
#SAMPLESTART:53.813999;
#SAMPLELENGTH:11.980000;
#SELECTABLE:YES;
#DISPLAYBPM:146.000000:160.000000;
#BPMS:0.000=146.000,
16.000=150.000,
24.000=155.000,
40.000=160.000,
102.000=80.000,
104.000=160.000,
292.000=155.000,
316.000=150.000,
320.000=146.000,
324.000=130.000;
#STOPS:103.500=0.375;
#DELAYS:;
#WARPS:;
#TIMESIGNATURES:0.000=4=4;
#TICKCOUNTS:0.000=4;
#COMBOS:0.000=1;
#SPEEDS:0.000=1.000=0.000=0;
#SCROLLS:0.000=1.000;
#FAKES:;
#LABELS:0.000=Song Start;
#LASTSECONDHINT:126.117279;
#BGCHANGES:;
#KEYSOUNDS:;
#ATTACKS:
;

//---------------dance-single - S-HEAVY----------------
#NOTEDATA:;
#CHARTNAME:DJ OMiY-HSP;
#STEPSTYPE:dance-single;
#DESCRIPTION:S-HEAVY;
#CHARTSTYLE:;
#DIFFICULTY:Hard;
#METER:9;
#RADARVALUES:0.572276,0.605548,0.256193,0.170796,0.190204,461.000000,33.000000,22.000000,0.000000,0.000000,0.000000,0.000000,0.000000,0.572276,0.605548,0.256193,0.170796,0.190204,461.000000,33.000000,22.000000,0.000000,0.000000,0.000000,0.000000,0.000000;
#CREDIT:DJ OMiY;
#DISPLAYBPM:146.000000:160.000000;
#NOTES:
0000
0000
0000
0000
,
0000
0000
0000
0000
,
0000
0000
0000
0000
,
0000
0000
0000
0000
,
0000
0000
0000
0000
,
0000
0000
0000
0000
,
0000
0000
0000
0100
1000
0100
0000
0000
,
0010
0000
0000
0001
1000
0001
0000
0000
,
0200
0000
0020
0000
0300
0000
1030
0001
,
0100
0000
0001
1000
0020
0000
0000
0030
,
0110
1010
0101
1001
,
1100
0011
1001
0110
,
0101
1100
0101
1001
,
1010
0011
0002
0203
,
0310
1000
0100
1000
,
0001
0100
0020
2030
,
3001
0010
0100
0010
,
0001
0000
0100
0000
0001
0000
1000
0000
0000
0100
1000
0000
0010
0000
0000
0000
,
0110
0000
0000
0100
0001
0000
0000
0001
1000
0000
0000
1000
0100
0000
0010
0000
,
0001
1000
0001
1000
0100
1000
0100
0010
,
0001
0000
0000
1000
0100
0000
0000
0100
0010
0000
0000
0010
0001
0000
1000
0000
,
0010
0100
0010
0001
0010
1000
0001
0010
,
0001
0000
0000
0001
0100
0000
0000
0100
1000
0000
0000
1000
0100
0000
0010
0000
,
0100
0001
1000
0100
0010
0100
1000
0001
,
0100
0000
0000
0010
1000
0000
0000
1000
0001
0000
0000
0001
0010
0000
0100
0000
,
0010
0001
1000
0001
0200
0000
0000
0000
,
0310
0100
0010
0100
0010
1000
0001
0100
,
0001
0010
0001
0010
0001
1000
0010
0100
,
0010
1000
0010
1000
0001
1000
0100
0010
,
0001
1000
0001
1000
0010
0100
0010
0001
,
0010
1000
0100
0010
0002
0000
0103
0001
,
1000
0100
0010
0100
2000
0000
3010
1000
,
0100
0010
0100
0001
0200
0000
1300
0001
,
0100
0110
0101
1100
,
0100
0110
0000
0010
1000
0001
0100
0001
,
1000
0000
0001
0100
0001
0000
1000
0100
1000
0000
0010
0000
0100
0000
0001
0000
,
0010
0000
0100
1000
0100
0000
0010
0001
0010
0000
0001
0000
1000
0000
0010
0000
,
0100
0000
0001
1000
0001
0000
0010
0100
0010
0000
0001
0000
1000
0000
0010
0000
,
0200
0000
0301
1000
0100
0010
0100
1000
,
0001
0000
0010
0001
1000
0100
1000
0010
,
0100
0100
0001
1000
0100
0010
0100
1000
,
0001
0100
1000
0100
0001
0100
1000
0100
,
0001
1000
0100
1100
0000
1001
0001
0100
,
0010
1000
1000
0001
0010
0010
0001
1000
,
0001
0010
0100
1000
0100
0010
0001
1000
,
0001
0010
0010
0001
1000
1000
0100
0010
,
0001
1000
0100
0010
0001
0010
0100
1000
,
0001
0100
0001
0100
0001
0100
0001
0000
1000
0000
0010
0000
0100
0000
0001
0000
,
1000
0100
1000
0100
1000
0100
1000
0000
0001
0000
0010
0000
0100
0000
0010
0000
,
0001
0000
0001
0010
0000
0010
0100
0000
0100
1000
0000
1000
,
0001
0101
1010
1001
,
2100
0100
0010
0010
,
0001
0000
0000
0000
3001
0000
1000
0000
0001
0100
0010
0000
1000
0000
0001
1000
,
0200
0000
1000
0000
,
0010
0000
0001
0000
,
0010
0000
1000
0000
,
0310
0010
0020
0032
,
1003
0000
0001
0010
0100
0000
1000
0000
,
0001
0000
1000
0100
0010
0000
0001
0000
,
1001
0000
0010
0100
0001
1000
0100
0000
,
1000
0000
0100
0000
0010
0000
0000
0000
0100
0000
0010
0000
0001
1000
0001
0000
,
0100
0000
0000
0100
0001
0000
0000
0001
0010
0000
0000
0010
0100
0000
0000
0100
,
1000
0000
0000
1000
0010
0000
0000
0100
0001
0000
1000
0000
0010
0000
0100
0000
,
0110
0101
1001
1010
,
1000
0000
0100
0010
0001
0000
1000
0000
0001
0000
0100
0000
0010
0000
0100
0001
,
1000
0100
1000
0001
0100
0010
0100
0001
,
0010
0100
1000
0100
0010
0001
1000
0100
,
1000
0001
0010
1000
0010
0001
0100
0001
,
2000
0000
0000
0000
3100
0000
1000
0001
1000
0000
0010
0000
0100
0000
0001
0000
,
1000
0000
0000
0001
0100
0000
0000
0100
0010
0000
0000
0010
1000
0000
0000
1000
,
0001
0010
1000
0010
0001
0010
1000
0010
,
0001
1000
0100
0010
0001
0010
0100
1000
,
0010
0000
0100
0010
0100
0000
0001
1000
0001
0000
0100
0000
0110
0000
1010
0000
,
2001
0000
0000
0000
,
3200
0000
0000
0000
0000
0000
0310
0100
,
0020
0000
0000
0000
0000
0000
0000
0000
0000
0000
0000
0000
0031
0000
0000
1000
,
0002
0000
0000
0000
0100
0000
0000
0200
0000
0000
0000
0000
0000
0000
0000
0000
,
0000
0000
0000
0000
,
0303
0000
0000
0000
;

//---------------dance-single - S-STANDARD----------------
#NOTEDATA:;
#CHARTNAME:DJ OMiY-SSP;
#STEPSTYPE:dance-single;
#DESCRIPTION:S-STANDARD;
#CHARTSTYLE:;
#DIFFICULTY:Medium;
#METER:6;
#RADARVALUES:0.417007,0.454161,0.124215,0.527913,0.003882,292.000000,16.000000,68.000000,0.000000,0.000000,0.000000,0.000000,0.000000,0.417007,0.454161,0.124215,0.527913,0.003882,292.000000,16.000000,68.000000,0.000000,0.000000,0.000000,0.000000,0.000000;
#CREDIT:DJ OMiY;
#DISPLAYBPM:146.000000:160.000000;
#NOTES:
0000
0000
0000
0000
,
0000
0000
0000
0000
,
0000
0000
0000
0000
,
0000
0000
0000
0000
,
0000
0000
0000
0000
,
0000
0000
0000
0000
,
0020
0000
1000
0000
,
2030
0000
0001
0000
,
3200
0000
0010
0300
,
1002
0000
0020
0033
,
1100
1000
0001
0001
,
0100
0100
0010
0010
,
1001
0001
1000
1000
,
0100
0100
0020
0032
,
1003
0001
0100
0010
,
1000
0001
2000
3200
,
1300
0001
0100
1000
,
0100
0001
1000
0100
0000
0010
0001
0000
,
1000
0002
0023
0230
,
1300
0000
1001
0000
0001
0100
0010
0000
,
1000
0020
2030
3002
,
0010
0000
0013
0000
0001
1000
0001
0100
,
0010
0200
0302
0023
,
0130
0100
1000
1000
,
0010
2000
3002
0203
,
0001
0000
0301
1000
0010
0000
0000
0000
,
1001
0000
0001
1000
0001
0100
0000
0010
,
1000
1000
0001
0001
,
1000
0000
0010
1000
0001
0010
0000
0001
,
1000
1000
0100
0100
,
0010
0000
0001
1000
0100
0000
1000
0000
,
0010
0000
0100
0001
1000
0000
0001
0000
,
0010
0000
0001
0010
0100
0000
0010
0000
,
0001
0001
0010
0010
,
0100
1000
0000
0000
0001
0100
0001
1000
,
0010
0200
0000
0302
0000
1003
0001
1000
,
0100
2000
0000
3020
0000
0130
0001
1000
,
0001
0020
0000
0230
0000
1300
0001
0000
,
0202
0000
0303
0000
1000
0000
0001
1000
,
0100
0010
0011
1010
,
0001
1000
0100
0000
2000
0000
3002
0000
,
0013
0001
0010
0001
1000
0001
0010
0001
,
2000
0000
0000
3100
0000
0110
0000
0000
,
0002
0000
0000
0203
0000
0000
0310
1000
,
0001
1000
0100
0010
,
0200
0000
0000
2300
0000
0000
3001
0100
,
0010
0100
0001
1000
,
0200
0000
0000
0310
0000
0001
1000
0000
,
0002
0000
0000
0103
0000
0010
1000
0000
,
0002
0023
0230
2300
,
3010
1100
1001
0101
,
2002
0000
0000
3003
,
0100
0000
0020
2030
,
3100
0000
1000
0000
,
0001
0000
0100
0000
,
0010
0000
1000
0000
,
0001
1000
0002
2003
,
3100
0000
0010
0100
,
1000
0000
0010
0100
,
0001
0000
1000
0001
,
0010
0001
1000
0100
,
2000
3200
0302
0203
,
2300
3020
0032
0023
,
1030
0101
1001
1100
,
0001
0100
0001
0000
1000
0001
1000
0000
,
0100
0000
0010
0001
0010
0100
1000
0000
,
0010
0000
0100
0000
0001
1000
0001
0000
,
2000
0000
3200
0000
0310
0100
0010
0001
,
2000
0000
0010
0000
3001
1000
0001
0000
,
0020
0032
0023
0230
,
0310
0100
1000
0001
0100
0010
0100
0000
,
0001
0100
0010
0000
1000
0100
0010
0000
,
0100
0000
1000
0000
0001
0100
1000
0100
,
0020
0000
0000
0000
,
2000
0000
0030
0000
0000
0000
0001
0002
,
0000
3000
0000
0100
,
2003
0000
0000
0000
0000
0000
0000
0002
0000
0000
0000
0000
0000
0000
0000
0000
,
0000
0000
0000
0000
,
3003
0000
0000
0000
;

//---------------dance-single - S-LIGHT----------------
#NOTEDATA:;
#CHARTNAME:DJ OMiY-LSP;
#STEPSTYPE:dance-single;
#DESCRIPTION:S-LIGHT;
#CHARTSTYLE:;
#DIFFICULTY:Easy;
#METER:4;
#RADARVALUES:0.282811,0.363329,0.100925,0.279484,0.000000,206.000000,13.000000,36.000000,0.000000,0.000000,0.000000,0.000000,0.000000,0.282811,0.363329,0.100925,0.279484,0.000000,206.000000,13.000000,36.000000,0.000000,0.000000,0.000000,0.000000,0.000000;
#CREDIT:DJ OMiY;
#DISPLAYBPM:146.000000:160.000000;
#NOTES:
0000
0000
0000
0000
,
0000
0000
0000
0000
,
0000
0000
0000
0000
,
0000
0000
0000
0000
,
0000
0000
0000
0000
,
0000
0000
0000
0000
,
0002
0000
0000
0000
,
0200
0000
0003
0000
,
0020
0300
1000
0000
,
2000
0030
0002
3003
,
1001
1000
0100
0100
,
0010
0010
0001
0000
,
0001
0001
0100
0100
,
0010
0010
2000
3000
,
0001
0010
0001
0010
,
0001
0000
2000
3200
,
1300
0010
1000
0010
,
1000
0000
0001
0000
,
0100
0010
1000
0001
,
0010
0000
0100
0000
,
1000
0100
0010
0001
,
1000
0001
0100
0000
,
0010
0100
0001
0010
,
0100
0000
1000
0000
,
0010
1000
0001
1000
,
0100
0000
0010
0000
,
0001
1000
0200
0000
,
1300
0000
0010
0000
,
0100
0001
2000
0000
,
3010
0000
0100
0000
,
0001
0010
0200
0000
,
1300
0001
0020
0000
,
0031
1000
0002
0010
,
0013
0001
0010
0100
,
2000
0000
3100
1100
,
1001
0001
0100
0010
,
1000
0100
0010
0100
,
1000
0001
0100
0010
,
0200
0000
0301
0100
,
0010
0000
1000
1000
,
0100
0000
0010
0001
,
0002
0023
2030
3020
,
0031
0001
1001
0000
,
2000
0100
3200
0010
,
0310
0001
1000
0000
,
0002
0010
0023
0100
,
0130
1000
0001
0000
,
1000
0000
0101
0001
,
0010
0000
1100
1000
,
0002
0010
1000
0103
,
1001
0110
1001
0110
,
2002
0000
0000
0000
,
0000
3003
1000
0200
,
0300
0000
0001
0000
,
0010
0000
0100
0000
,
1000
0000
0010
0000
,
0200
0000
0000
0310
,
1001
0000
0001
1000
,
0010
0000
0100
0001
,
0010
0000
0100
1000
,
0100
0010
0000
0001
,
2000
0000
0000
0000
,
0002
3000
0103
1001
,
0010
0100
0010
1000
,
0001
0010
0100
1000
,
0100
1000
0000
0001
,
0000
0010
0000
0001
,
0000
1000
0000
0100
,
0020
0000
0031
1000
,
0100
1000
0001
0100
,
0001
1000
0001
1000
,
0001
0010
0100
1000
,
0100
0001
0100
0100
,
2000
0000
0000
0000
,
0020
0000
3000
0000
,
0200
0000
0030
0000
,
0302
0000
0000
0000
,
2000
0000
0000
0000
,
3003
0000
0000
0000
;

//---------------dance-single - BEGINNER----------------
#NOTEDATA:;
#CHARTNAME:DJ OMiY-BEG;
#STEPSTYPE:dance-single;
#DESCRIPTION:BEGINNER;
#CHARTSTYLE:;
#DIFFICULTY:Beginner;
#METER:2;
#RADARVALUES:0.125324,0.198356,0.069871,0.186322,0.000000,80.000000,9.000000,24.000000,0.000000,0.000000,0.000000,0.000000,0.000000,0.125324,0.198356,0.069871,0.186322,0.000000,80.000000,9.000000,24.000000,0.000000,0.000000,0.000000,0.000000,0.000000;
#CREDIT:DJ OMiY;
#DISPLAYBPM:146.000000:160.000000;
#NOTES:
0000
0000
0000
0000
,
0000
0000
0000
0000
,
0000
0000
0000
0000
,
0000
0000
0000
0000
,
0000
0000
0000
0000
,
0000
0000
0000
0000
,
2000
0000
0000
0000
,
0000
0000
3000
0000
,
0200
0000
0300
0000
,
0020
0000
0030
0000
,
0110
0000
0000
0000
,
0010
0000
0000
0000
,
0001
0000
0000
0000
,
1000
0000
0000
0000
,
0010
0000
0010
0000
,
0010
0000
0010
0000
,
0100
0000
0100
0000
,
0100
0000
0100
0000
,
2002
0000
3003
0000
,
1000
0000
0001
0000
,
0220
0000
0330
0000
,
0010
0000
1000
0000
,
2200
0000
3300
0000
,
1000
0000
0001
0000
,
0202
0000
0303
0000
,
1000
0000
0020
0000
,
0030
0000
0000
0000
,
1000
0000
0000
0000
,
0100
0000
0000
0000
,
0010
0000
0000
0000
,
0002
0000
0003
0000
,
0200
0000
0300
0000
,
0020
0000
0030
0000
,
2000
0000
0000
0000
,
0000
0000
3000
0000
,
1001
0000
0000
0000
,
0010
0000
0000
0000
,
0001
0000
0000
0000
,
0200
0000
0300
0000
,
0010
0000
0000
0000
,
1000
0000
0000
0000
,
0100
0000
0100
0000
,
0010
0000
0010
0000
,
0002
0000
0003
0000
,
1000
0000
0001
0000
,
0200
0000
0300
0000
,
0010
0000
1000
0000
,
0100
0000
0000
0000
,
0010
0000
0000
0000
,
0002
0000
0003
0000
,
1000
1000
1000
1000
,
2000
0000
0000
0000
,
0000
0000
3000
0000
,
0010
0000
0000
0000
,
0000
0000
0000
0000
,
0000
0000
0000
0000
,
0000
0000
0000
0000
,
0100
0000
0000
0000
,
0001
0000
0000
0000
,
1000
0000
0000
0000
,
0010
0000
0000
0000
,
0200
0000
0000
0000
,
0000
0000
0300
0000
,
1001
0000
0100
0000
,
0110
0000
0010
0000
,
1001
0000
0000
0000
,
0010
0000
0000
0000
,
1000
0000
0001
0000
,
0010
0000
0000
0000
,
0002
0000
0003
0000
,
0200
0000
0300
0000
,
0010
0000
1000
0000
,
0001
0000
1000
0000
,
0100
0000
0000
0000
;

//---------------dance-double - D-HEAVY----------------
#NOTEDATA:;
#CHARTNAME:DJ OMiY-HDP;
#STEPSTYPE:dance-double;
#DESCRIPTION:D-HEAVY;
#CHARTSTYLE:;
#DIFFICULTY:Hard;
#METER:9;
#RADARVALUES:0.574494,0.605548,0.287247,0.225140,0.159150,452.000000,37.000000,29.000000,0.000000,0.000000,0.000000,0.000000,0.000000,0.574494,0.605548,0.287247,0.225140,0.159150,452.000000,37.000000,29.000000,0.000000,0.000000,0.000000,0.000000,0.000000;
#CREDIT:DJ OMiY;
#DISPLAYBPM:146.000000:160.000000;
#NOTES:
// measure 0
00000000
00000000
00000000
00000000
,  // measure 1
00000000
00000000
00000000
00000000
,  // measure 2
00000000
00000000
00000000
00000000
,  // measure 3
00000000
00000000
00000000
00000000
,  // measure 4
00000000
00000000
00000000
00000000
,  // measure 5
00000000
00000000
00000000
00000000
,  // measure 6
00000200
00000000
00000000
00010300
00001000
02000000
00100000
00000000
,  // measure 7
00010000
00000000
03100000
10000000
01000000
00200000
00001000
00000000
,  // measure 8
00310000
00000000
01000000
00001000
00000000
00010000
00000000
00000100
,  // measure 9
00002000
00000000
00003010
00000100
00000002
00000000
00000003
00000000
,  // measure 10
00001100
00001010
00000011
00001010
,  // measure 11
00011000
01010000
01100000
10010000
,  // measure 12
11000000
01010000
01100000
00101000
,  // measure 13
00011000
00010100
00002100
00003002
,  // measure 14
00000013
00000001
00000100
00001000
,  // measure 15
00000100
00000010
00002000
00003200
,  // measure 16
00010300
00001000
00100000
01000000
,  // measure 17
00100000
00000000
00010000
00000000
00001000
00000000
00010000
00000000
00000000
00001000
00000100
00000000
00000010
00000000
00000100
00000000
,  // measure 18
00001000
00000000
00000000
00000001
00000100
00000000
00000000
00000100
00001000
00000000
00000000
00001000
00010000
00000000
00001000
00000000
,  // measure 19
00100000
00010000
10000000
01000000
10000000
00010000
01000000
00010000
,  // measure 20
01000000
00000000
00000000
00100000
10000000
00000000
00000000
10000000
01000000
00000000
00000000
01000000
00010000
00000000
00000000
00010000
,  // measure 21
00001000
00000100
00000010
00000100
00000001
00001000
00000100
00001000
,  // measure 22
00000001
00000000
00000000
00000010
00000100
00000000
00000000
00000100
00001000
00000000
00000000
00001000
00010000
00000000
01000000
00000000
,  // measure 23
00100000
10000000
00010000
01000000
10000000
01000000
00010000
00100000
,  // measure 24
00010000
00000000
00000000
00100000
00010000
00000000
00000000
00010000
00001000
00000000
00000000
00001000
00000100
00000000
00000000
00000100
,  // measure 25
00000001
00000100
00001000
00000010
00000002
00000000
00000000
00000000
,  // measure 26
00000013
00001000
00000010
00001000
00000100
00010000
00001000
00100000
,  // measure 27
00010000
10000000
00010000
10000000
01000000
00100000
01000000
00010000
,  // measure 28
01000000
10000000
00010000
01000000
00100000
10000000
00010000
00100000
,  // measure 29
00001000
00010000
00001000
00000100
00000010
00000100
00000001
00001000
,  // measure 30
00000100
00010000
00000100
00001000
00020000
00000000
00130000
00000000
,  // measure 31
00010000
10000000
01000000
10000000
00200000
00000000
00310000
00001000
,  // measure 32
00000010
00000001
00000100
00000010
00001000
00000100
00000010
00000100
,  // measure 33
00001100
00011000
00110000
00101000
,  // measure 34
00001000
02000000
00000000
03100000
10000000
01000000
00010000
01000000
,  // measure 35
10000000
00000000
00010000
10000000
00010000
00000000
01000000
00100000
01000000
00000000
00010000
00000000
00100000
00000000
00001000
00000000
,  // measure 36
00010000
00000000
00000100
00001000
00000100
00000000
00001000
00000001
00001000
00000000
00000001
00000000
00000010
00000000
00000100
00000000
,  // measure 37
00001000
00000000
00000100
00010000
00000100
00000000
00010000
00001000
00010000
00000000
00001000
00000000
00100000
00000000
00010000
00000000
,  // measure 38
02000000
00000000
03100000
10000000
00010000
00100000
00001000
01000000
,  // measure 39
00100000
00000000
00010000
00001000
00010000
00000100
00000010
00000100
,  // measure 40
00001000
00000001
00000010
00001000
00000010
00000001
00001000
00000100
,  // measure 41
00010000
00001000
01000000
00100000
00010000
00001000
01000000
00100000
,  // measure 42
00010000
00100000
01000000
01010000
00000000
10010000
00010000
00100000
,  // measure 43
00001000
00000000
00010000
00000100
00010000
00000000
00001000
00000000
00000100
00000001
00000100
00000000
00000010
00000000
00001000
00000000
,  // measure 44
00000001
00000010
00000100
00001000
00000100
00010000
00001000
00000000
,  // measure 45
00100000
00000000
00001000
01000000
00001000
00000000
00100000
00000000
01000000
10000000
01000000
00000000
00100000
00000000
00010000
00000000
,  // measure 46
10000000
00010000
01000000
10000000
01000000
00010000
00100000
00001000
,  // measure 47
00010000
00001000
00010000
00001000
00010000
00001000
00010000
00000000
00000100
00000000
00000010
00000000
00000001
00000000
00000100
00000000
,  // measure 48
00000001
00001000
00000001
00001000
00000001
00001000
00000001
00000000
00000100
00000000
00001000
00000000
00010000
00000000
01000000
00000000
,  // measure 49
10000000
00000000
10000000
00100000
00000000
00100000
00010000
00000000
00010000
00001000
00000000
00001000
,  // measure 50
00000010
00000011
00001001
00001100
,  // measure 51
00020200
00000000
00000000
00000300
,  // measure 52
00031000
00000000
00000000
00000000
00010000
00000000
00001000
00000000
00100000
00000000
00010000
00000000
01000000
00100000
01000000
00000000
,  // measure 53
00020000
00000000
00100000
00000000
,  // measure 54
01000000
00000000
00001000
00000000
,  // measure 55
10000000
00000000
00100000
00000000
,  // measure 56
10030000
01000000
00100000
00001000
,  // measure 57
00011000
00000000
00010000
00000100
00000010
00000000
00000001
00000000
,  // measure 58
00001000
00000000
00000010
00000100
00000001
00000000
00000011
00000000
,  // measure 59
00001100
00000000
00000010
00001000
00000100
00010000
01000000
00100000
,  // measure 60
00010000
01000000
10000000
01000000
00010000
00100000
00001000
00100000
,  // measure 61
00020000
00032000
00003200
00000302
,  // measure 62
00000203
00000000
00000320
00000000
00000031
00001000
00000001
00001000
,  // measure 63
00001010
00000101
00001010
00001100
,  // measure 64
00011000
00110000
11000000
01010000
,  // measure 65
11000000
10000000
01000000
00100000
00010000
00100000
00001000
00010000
,  // measure 66
00000100
00000010
00000001
00000010
00000100
00001000
00000100
00000001
,  // measure 67
00000100
00001000
00000010
00000100
00001000
00010000
01000000
00100000
,  // measure 68
20000000
00000000
30100000
00010000
01000000
00100000
10000000
00010000
,  // measure 69
00100000
00000000
00000000
00100000
00001000
00000000
00000000
00001000
00010000
00000000
00000000
00010000
00000010
00000000
00000100
00000000
,  // measure 70
00000001
00000010
00000100
00001000
00010000
00100000
01000000
10000000
,  // measure 71
00010000
00100000
10000000
00100000
00010000
00001000
00000100
00000001
,  // measure 72
00000100
00000010
00000001
00001000
00000010
00010000
00001000
00010000
,  // measure 73
00000200
00000000
00000000
00000000
,  // measure 74
00020000
00000000
00000000
00000000
00000300
00000000
00031000
00100000
,  // measure 75
00020000
00000000
00000000
00000000
00000000
00000000
00000000
00000000
00000000
00000000
00000000
00000000
10030000
00000000
00000000
00100000
,  // measure 76
02000000
00000000
00000000
00000000
00001000
00000000
00000000
00002000
00000000
00000000
00000000
00000000
00000000
00000000
00000000
00000000
,  // measure 77
00000000
00000000
00000000
00000000
,  // measure 78
03003000
00000000
00000000
00000000
;

//---------------dance-double - D-STANDARD----------------
#NOTEDATA:;
#CHARTNAME:DJ OMiY-SDP;
#STEPSTYPE:dance-double;
#DESCRIPTION:D-STANDARD;
#CHARTSTYLE:;
#DIFFICULTY:Medium;
#METER:5;
#RADARVALUES:0.407026,0.454161,0.232903,0.481333,0.003882,275.000000,30.000000,62.000000,0.000000,0.000000,0.000000,0.000000,0.000000,0.407026,0.454161,0.232903,0.481333,0.003882,275.000000,30.000000,62.000000,0.000000,0.000000,0.000000,0.000000,0.000000;
#CREDIT:DJ OMiY;
#DISPLAYBPM:146.000000:160.000000;
#NOTES:
// measure 0
00000000
00000000
00000000
00000000
,  // measure 1
00000000
00000000
00000000
00000000
,  // measure 2
00000000
00000000
00000000
00000000
,  // measure 3
00000000
00000000
00000000
00000000
,  // measure 4
00000000
00000000
00000000
00000000
,  // measure 5
00000000
00000000
00000000
00000000
,  // measure 6
00010000
00000000
00000000
00001000
00100000
00001000
00000000
00000000
,  // measure 7
00010000
00000000
00000000
00000100
00001000
00000100
00000000
00000000
,  // measure 8
00000020
00000000
00000002
00000000
00000030
00000000
00001003
00000001
,  // measure 9
00000200
00000000
00000310
00010000
00002000
00000000
00003000
00000000
,  // measure 10
00101000
00001000
00010000
01000000
,  // measure 11
10000000
00100000
01000000
00010000
,  // measure 12
00110000
00100000
00001000
00010000
,  // measure 13
00000100
00000010
00000002
00000203
,  // measure 14
00000310
00000100
00000001
00000010
,  // measure 15
00000100
00001000
00000200
00020300
,  // measure 16
00031000
01000000
00100000
01000000
,  // measure 17
00010000
00000000
10000000
01000000
10000000
00010000
00100000
00000000
,  // measure 18
00020000
00000000
20030000
00000000
32000000
00000000
03100000
00001000
,  // measure 19
00010000
00010100
00000100
00001100
,  // measure 20
00000020
00000000
00000032
00000000
00001003
00000010
00000100
00000010
,  // measure 21
00001000
00001100
00000100
00010100
,  // measure 22
00002000
00000000
00203000
00000000
02300000
00000000
03100000
00010000
,  // measure 23
10000000
10100000
00010000
01010000
,  // measure 24
02000000
00000000
03002000
00000000
00023000
00000000
00030100
00001000
,  // measure 25
00000100
00000000
00010100
00000000
00022000
00000000
00000000
00033000
,  // measure 26
00001000
00100000
00010000
10000000
,  // measure 27
01000000
00010000
00001000
00000100
,  // measure 28
00000001
00000000
00001000
00000000
00000001
00000000
00000010
00000100
,  // measure 29
00001000
00000100
00010000
00001000
,  // measure 30
00200000
00010000
00320000
00000000
,  // measure 31
20030000
00100000
02000000
33000000
,  // measure 32
00100000
00000000
00001000
00010000
00001000
00000000
00000100
00000000
,  // measure 33
00000010
00000100
00000001
00001000
,  // measure 34
00000001
00000010
00000000
00000000
00000100
00000000
00001100
00000000
,  // measure 35
00001000
00000200
00000000
00020300
00000000
00030000
00011000
00000000
,  // measure 36
00001000
02000000
00000000
03200000
00000000
00300000
10100000
00000000
,  // measure 37
10000000
02000000
00000000
03020000
00000000
00030000
00011000
00000000
,  // measure 38
00000020
00000001
00000130
00001000
,  // measure 39
00000001
00000000
00001000
00000100
00001000
00000000
00000100
00000000
,  // measure 40
00010000
00000000
00001000
00100000
00001000
00000000
01000000
00000000
,  // measure 41
00200000
20300000
30200000
00320000
,  // measure 42
00130000
01000000
00100000
01000000
00000000
00010000
10000000
00000000
,  // measure 43
02000000
00000000
00000000
03200000
00000000
00000000
00302000
00000000
,  // measure 44
00013000
00000000
00000100
00000000
00000010
00000001
00001000
00000000
,  // measure 45
00000020
00000000
00000000
00000230
00000000
00000000
00000302
00000000
,  // measure 46
00001003
00000000
00000100
00000000
00010000
00001000
00010000
00000000
,  // measure 47
00100000
00000000
00000000
10000000
00000000
00000000
00010000
00000000
,  // measure 48
10000000
00000000
00000000
00100000
00000000
00000000
00010000
00000000
,  // measure 49
00002000
00023000
00030200
00001300
,  // measure 50
00001100
00000101
00000011
00001010
,  // measure 51
00022000
00000000
00000000
00033000
,  // measure 52
00010000
00100000
01000000
10000000
,  // measure 53
10010000
00000000
00000000
00000000
,  // measure 54
00000000
00000000
00000000
00000000
,  // measure 55
00000000
00000000
00000000
00000000
,  // measure 56
20000000
00000000
30200000
00000000
,  // measure 57
00310000
00000000
00001000
00010000
,  // measure 58
00000100
00000000
00000010
00000001
,  // measure 59
00001000
00000000
00000010
00000100
,  // measure 60
00000001
00000010
00000100
00001000
,  // measure 61
00000100
00010000
00001000
00000000
00100000
00001000
00010000
00000000
,  // measure 62
00001000
00100000
00010000
10000000
,  // measure 63
10100000
01010000
00110000
00101000
,  // measure 64
00011000
00010100
00001100
00000101
,  // measure 65
00002100
00000000
00003001
00000000
00000100
00000000
00000010
00001000
,  // measure 66
00000200
00000000
00010300
00000000
00001000
00000000
01000000
00100000
,  // measure 67
02000000
00000000
03010000
00000000
10000000
00000000
01000000
00100000
,  // measure 68
00020000
00000000
00000000
00000000
00130000
00000000
00001000
00010000
,  // measure 69
00000200
00000320
00000032
00000203
,  // measure 70
00000310
00001000
00000010
00001000
00000100
00010000
00001000
00000000
,  // measure 71
00100000
00010000
10000000
00100000
,  // measure 72
00010000
00000000
00001000
00000000
00100000
00010000
01000000
00000000
,  // measure 73
10020000
00000000
00000000
00000000
,  // measure 74
00032000
00000000
00000000
00000000
00000000
00000000
00003010
00000100
,  // measure 75
00000002
00000000
00000000
00000000
00000000
00000000
00000000
00000000
00000000
00000000
00000000
00000000
00000013
00000000
00000000
00000001
,  // measure 76
00000200
00002000
00000000
00000000
,  // measure 77
00000000
00000000
00000000
00000000
,  // measure 78
00003300
00000000
00000000
00000000
;

//---------------dance-double - D-LIGHT----------------
#NOTEDATA:;
#CHARTNAME:DJ OMiY-LDP;
#STEPSTYPE:dance-double;
#DESCRIPTION:D-LIGHT;
#CHARTSTYLE:;
#DIFFICULTY:Easy;
#METER:4;
#RADARVALUES:0.299447,0.454161,0.186322,0.318301,0.000000,205.000000,24.000000,41.000000,0.000000,0.000000,0.000000,0.000000,0.000000,0.299447,0.454161,0.186322,0.318301,0.000000,205.000000,24.000000,41.000000,0.000000,0.000000,0.000000,0.000000,0.000000;
#CREDIT:DJ OMiY;
#DISPLAYBPM:146.000000:160.000000;
#NOTES:
// measure 0
00000000
00000000
00000000
00000000
,  // measure 1
00000000
00000000
00000000
00000000
,  // measure 2
00000000
00000000
00000000
00000000
,  // measure 3
00000000
00000000
00000000
00000000
,  // measure 4
00000000
00000000
00000000
00000000
,  // measure 5
00000000
00000000
00000000
00000000
,  // measure 6
00020000
00000000
00032000
00000000
,  // measure 7
00003200
00000000
00000320
00000000
,  // measure 8
00000130
00000000
00000001
00000000
,  // measure 9
00002002
00000000
00003003
00000100
,  // measure 10
00000001
00000001
00000010
00000010
,  // measure 11
00000100
00000100
00010000
00010000
,  // measure 12
00001000
00001000
00100000
00100000
,  // measure 13
01000000
01000000
10000000
10010000
,  // measure 14
00010000
01000000
00010000
10000000
,  // measure 15
01000000
00100000
00002000
00023000
,  // measure 16
00030100
00000010
00000001
00001000
,  // measure 17
00000100
00001100
00000000
00010100
,  // measure 18
00011000
00001000
00000000
01000000
,  // measure 19
00000000
00100000
00000000
10000000
,  // measure 20
00010000
10000000
00000000
01000000
,  // measure 21
00000000
00100000
00000000
00010000
,  // measure 22
00100000
00001000
00000000
00010000
,  // measure 23
00000000
00000100
00000000
00001000
,  // measure 24
00000001
00000100
00000000
00000010
,  // measure 25
00000000
00001000
00002200
00000300
,  // measure 26
00003001
00001000
00000200
00000300
,  // measure 27
00010000
00010000
00001000
00001000
,  // measure 28
00100000
00010000
02000000
03000000
,  // measure 29
00100000
00100000
10000000
10000000
,  // measure 30
01000000
00100000
02000000
03000000
,  // measure 31
00100000
00001000
00020000
00030000
,  // measure 32
00000100
00001000
00000002
00000003
,  // measure 33
00000010
00000010
00000100
00000100
,  // measure 34
00000110
00000000
00000001
00001000
,  // measure 35
00001001
00000001
00000001
00001000
,  // measure 36
00000100
00000100
00000100
00010000
,  // measure 37
00001000
00001000
00001000
00100000
,  // measure 38
00020000
00000000
01030000
00010000
,  // measure 39
20000000
00000000
31000000
10000000
,  // measure 40
00010000
00100000
00002000
00000000
,  // measure 41
00013000
00010000
00010000
00010000
,  // measure 42
00000200
00000000
00000310
00000110
,  // measure 43
00002002
00000000
00000000
00003003
00000000
00000000
00000100
00000000
,  // measure 44
00001100
00000000
00000100
00000000
,  // measure 45
00022000
00000000
00000000
00033000
00000000
00000000
00001000
00000000
,  // measure 46
00101000
00000000
00100000
00000000
,  // measure 47
02000000
00000000
00000000
03000000
01000000
00000000
00100000
00000000
,  // measure 48
00002000
00000000
00000000
00003000
00001000
00000000
00010000
00000000
,  // measure 49
00020000
00000000
00000000
00000000
,  // measure 50
00000100
00000100
00000100
00030100
,  // measure 51
00010100
00000000
00000000
00000000
,  // measure 52
00000100
00000000
00000020
00000002
,  // measure 53
00000033
00000000
00000000
00000000
,  // measure 54
00001000
00000000
00000000
00000000
,  // measure 55
00000100
00000000
00000000
00000000
,  // measure 56
00010000
00000000
00001000
00010000
,  // measure 57
01000000
00000000
10000000
00010000
,  // measure 58
01000000
00000000
00100000
01000000
,  // measure 59
00001000
00000000
00010000
00000100
,  // measure 60
00000010
00000000
00000001
00000000
,  // measure 61
00000200
00000320
00000230
00000320
,  // measure 62
00002030
00003200
00002300
00003100
,  // measure 63
00010100
00010100
00011000
00011000
,  // measure 64
00101000
00101000
01100000
01100000
,  // measure 65
10010000
10000000
00000000
00010000
,  // measure 66
00100000
00001000
00000000
00010000
,  // measure 67
00001000
00000100
00000000
00000010
,  // measure 68
00000200
00000001
00000300
00000001
,  // measure 69
00000010
00000010
00000100
00000100
,  // measure 70
00001000
00000100
00010000
00001000
,  // measure 71
00100000
00000000
00001000
00000000
,  // measure 72
00010000
00000100
00001000
00000110
,  // measure 73
00000002
00000000
00000000
00000000
,  // measure 74
00000023
00000000
00000000
00001030
,  // measure 75
00200000
00000000
00000000
00001000
,  // measure 76
00302000
00020000
00000000
00000000
,  // measure 77
00000000
00000000
00000000
00000000
,  // measure 78
00033000
00000000
00000000
00000000
;
