#VERSION:0.82;
#TITLE:licca;
#SUBTITLE:;
#ARTIST:Qrispy Joybox;
#TITLETRANSLIT:;
#SUBTITLETRANSLIT:;
#ARTISTTRANSLIT:;
#GENRE:;
#ORIGIN:;
#CREDIT:;
#BANNER:licca.png;
#BACKGROUND:licca-bg.png;
#PREVIEWVID:;
#JACKET:licca-jacket.png;
#CDIMAGE:;
#DISCIMAGE:;
#LYRICSPATH:;
#CDTITLE:cdtitle.png;
#MUSIC:licca.ogg;
#OFFSET:0.000000;
#SAMPLESTART:59.695526;
#SAMPLELENGTH:14.693882;
#SELECTABLE:YES;
#BPMS:0.000=196.000,
96.000=98.000,
98.000=196.000,
112.000=98.000,
113.000=196.000,
127.000=98.000,
128.000=196.000,
156.000=98.000,
173.000=196.000,
204.000=98.000,
205.000=196.000,
235.000=98.000,
236.000=196.000,
266.000=98.000,
267.000=196.000,
295.000=98.000,
297.000=196.000;
#STOPS:173.000=0.306;
#DELAYS:;
#WARPS:;
#TIMESIGNATURES:0.000=4=4;
#TICKCOUNTS:0.000=4;
#COMBOS:0.000=1;
#SPEEDS:0.000=1.000=0.000=0;
#SCROLLS:0.000=1.000;
#FAKES:;
#LABELS:0.000=Song Start;
#BGCHANGES:;
#KEYSOUNDS:;
#ATTACKS:
;

//---------------dance-single - S-HEAVY----------------
#NOTEDATA:;
#CHARTNAME:xRGTMx-HSP;
#STEPSTYPE:dance-single;
#DESCRIPTION:S-HEAVY;
#CHARTSTYLE:;
#DIFFICULTY:Hard;
#METER:9;
#RADARVALUES:0.719151,0.946353,0.610188,0.376881,0.107680,451.000000,68.000000,42.000000,0.000000,0.000000,0.000000,0.000000,0.000000,0.719151,0.946353,0.610188,0.376881,0.107680,451.000000,68.000000,42.000000,0.000000,0.000000,0.000000,0.000000,0.000000;
#CREDIT:xRGTMx;
#NOTES:
0000
0000
0000
0000
,
0000
0000
0000
0000
,
0000
0000
0000
0000
,
0000
0000
0000
0000
,
0000
0000
0000
0010
,
1001
0000
1000
0000
0100
0000
0010
0011
,
0000
1010
0010
0000
0100
0000
0100
0000
,
1001
0000
0001
0000
0010
0000
0100
1100
,
0000
0101
0100
0000
0010
1000
0001
0010
,
0022
0000
0000
0000
0000
0000
0000
0033
0000
0000
0000
0000
0000
0000
0000
0000
,
2020
0000
0000
0000
0000
0000
0000
3030
0000
0000
0000
0000
0000
0000
0000
0000
,
2200
0000
0000
0000
0000
0000
0000
3300
0000
0000
0000
0000
0000
0000
0000
0000
,
0202
0000
0000
0003
0000
0000
0310
0000
1000
0000
0001
0000
,
2020
0000
0000
0000
0000
0000
0000
3030
0000
0000
0000
0000
0000
0000
0000
0000
,
0022
0000
0000
0000
0000
0000
0000
0033
0000
0000
0000
0000
0000
0000
0000
0000
,
0202
0000
0000
0000
0000
0000
0000
0303
0000
0000
0000
0000
0000
0000
0000
0000
,
2200
0000
0000
3000
0000
0000
0310
0001
0010
0001
0100
0001
,
0100
0000
0011
0000
1001
0010
0000
1010
,
0000
0000
1000
0001
1000
0000
0100
0000
0010
0000
0001
0000
0100
0000
0000
0000
,
0010
0000
1010
0000
1001
0010
0000
0011
,
0000
0000
0001
1000
0001
0000
0100
0000
0020
0000
0000
0000
0000
0000
0000
0000
,
0130
0000
0101
0000
1001
0100
0000
1100
,
0000
0000
1000
0001
1000
0000
0010
0000
0100
0000
0001
0000
0010
0000
0000
0000
,
0100
0000
1100
0000
1001
0100
0000
0101
,
0000
0020
0000
0000
0100
0000
0130
0000
1001
0000
1000
0000
0100
0000
0010
0000
,
0100
0000
1000
0010
1000
0010
0100
0001
,
1000
0100
0010
0000
1001
0001
0100
0010
,
0100
0000
0001
0010
0001
0010
0100
1000
,
0020
0000
0000
0030
1001
0000
1000
0000
0010
0000
1000
0000
0100
0000
0000
0000
,
0001
0100
1000
0100
0010
0001
0100
0010
,
0100
0000
1001
0001
0010
0001
0100
0000
,
1000
0100
0001
0100
0010
1000
0200
0000
,
0310
0000
0011
0000
1001
0010
0000
1010
,
0000
0000
1000
0001
1000
0000
0100
0000
0010
0000
0001
0000
0100
0000
0000
0000
,
0010
0000
1010
0000
1001
0010
0000
0011
,
0000
0000
0001
1000
0001
0000
0100
0000
0020
0000
0000
0000
0000
0000
0000
0000
,
0130
0000
0101
0000
1001
0100
0000
1100
,
0000
0000
1000
0001
1000
0000
0010
0000
0100
0000
0001
0000
0010
0000
0000
0000
,
0100
0000
1100
0000
1001
0100
0000
0101
,
0000
0010
2001
0000
,
0100
0000
0001
0000
,
0010
0000
3002
0010
,
1000
0100
0010
0000
,
0203
0000
0300
0000
1001
1000
0100
1000
,
0001
0001
0100
0001
1000
0100
0010
0001
,
0100
0000
0010
1000
0001
0001
0010
0001
,
1000
1000
0010
1000
0001
0010
0100
1000
,
0010
0000
0100
0010
1001
1000
0010
1000
,
0001
0001
0010
0001
1000
0010
0100
0001
,
0010
0100
1000
0100
0000
0010
0010
0010
,
0100
0100
0000
0100
1010
0000
0011
0000
,
2001
0000
3010
1000
1001
0000
0001
0000
0010
0000
0001
0000
1000
0000
1000
0000
,
0010
1000
0001
0010
1000
0010
0001
0000
,
0100
0010
1000
1000
0010
1000
0001
0001
,
0010
0001
1000
0010
0001
0010
1000
0000
,
0100
0010
1001
0001
0100
0001
1000
1000
,
0100
1000
0001
0100
1000
0100
0001
0010
,
1000
0010
0002
0100
0100
0203
0010
0010
,
0000
0000
0320
0000
2030
0000
3020
0000
2030
0000
3002
0000
2003
0000
3100
0010
,
0011
0001
0100
0010
1000
1000
0010
0100
,
0002
0000
0000
0000
0010
0000
0000
0000
1003
0000
0000
0001
0100
0000
0010
0000
,
1010
1000
0100
0010
0001
0001
0010
0100
,
2000
0000
0000
0000
0010
0000
0000
0000
3001
0000
0000
1000
0010
0000
0100
0000
,
0101
0001
0100
0010
1000
1000
0010
0100
,
0001
0001
0010
0100
1000
1000
0100
0010
,
0000
0001
0001
0001
1000
1000
0000
1000
,
0001
0000
0010
0000
1000
0000
0100
0000
0002
0010
0003
0001
0101
0000
0100
0000
,
0010
1000
0100
0100
0001
0100
1000
0010
,
0001
0010
0200
0000
0301
0000
0011
0010
,
0100
1000
0010
0010
0001
0010
1000
0100
,
0001
0100
2000
0000
3010
0000
1100
0100
,
0010
0001
0100
0100
1000
0100
0001
0010
,
1000
0010
0001
0100
1000
0100
0020
0100
,
0100
0000
0230
0000
0010
0000
0010
0000
0000
0000
0301
0000
1000
0100
0010
0001
,
0200
0000
0310
0000
1010
0000
1001
0010
,
0000
0000
0011
0000
0000
0000
0001
1000
0001
0000
0100
0000
0010
0000
1000
0000
,
0100
0000
0010
0000
0011
0000
1001
0010
,
0000
0000
1010
0000
0000
0000
1000
0001
1000
0000
0100
0000
0020
0000
0000
0000
,
0000
0000
0130
0000
1100
0000
1001
0100
,
0000
0000
0101
0000
0000
0000
0001
1000
0001
0000
0010
0000
0100
0000
1000
0000
,
0010
0000
0100
0000
0101
0000
1001
0100
,
0000
1001
0000
0000
0000
0000
0000
0000
;

//---------------dance-single - S-STANDARD----------------
#NOTEDATA:;
#CHARTNAME:xRGTMx-SSP;
#STEPSTYPE:dance-single;
#DESCRIPTION:S-STANDARD;
#CHARTSTYLE:;
#DIFFICULTY:Medium;
#METER:7;
#RADARVALUES:0.523019,0.618769,0.771709,0.278174,0.008973,291.000000,86.000000,31.000000,0.000000,0.000000,0.000000,0.000000,0.000000,0.523019,0.618769,0.771709,0.278174,0.008973,291.000000,86.000000,31.000000,0.000000,0.000000,0.000000,0.000000,0.000000;
#CREDIT:xRGTMx;
#NOTES:
0000
0000
0000
0000
,
0000
0000
0000
0000
,
0000
0000
0000
0000
,
0000
0000
0000
0000
,
0000
0000
0000
0010
,
1001
0000
1000
0000
0100
0000
0000
0110
,
0000
1001
0000
0000
0010
0100
0010
0000
,
1001
0000
0001
0000
0100
0000
0000
0110
,
0000
1001
0000
0000
0010
0100
0010
0000
,
2002
0000
0000
0000
0000
0000
0000
3003
0000
0000
0000
0000
0000
0000
0000
0000
,
2200
0000
0000
0000
0000
0000
0000
3300
0000
0000
0000
0000
0000
0000
0000
0000
,
0202
0000
0000
0000
0000
0000
0000
0303
0000
0000
0000
0000
0000
0000
0000
0000
,
2002
0000
0000
0003
0000
0000
3010
0000
0100
0000
0010
0000
,
2002
0000
0000
0000
0000
0000
0000
3003
0000
0000
0000
0000
0000
0000
0000
0000
,
0022
0000
0000
0000
0000
0000
0000
0033
0000
0000
0000
0000
0000
0000
0000
0000
,
2020
0000
0000
0000
0000
0000
0000
3030
0000
0000
0000
0000
0000
0000
0000
0000
,
2002
3000
0013
0010
,
1001
0000
1100
0000
0000
1001
0000
0101
,
0000
0000
1000
0000
0100
0010
0100
0000
,
1001
0000
0011
0000
0000
1001
0000
1010
,
0000
0000
0001
0000
0020
0000
0000
0030
,
1001
0000
0101
0000
0000
1001
0000
1100
,
0000
0000
0001
0000
0100
0010
0100
0000
,
1001
0000
1010
0000
0000
1001
0000
0011
,
0000
0100
1001
1000
,
0100
0010
0001
1000
,
0110
0001
1001
1000
,
0010
0100
0001
0010
,
0200
0000
0000
0300
1001
0000
0000
0000
0001
0000
0000
0000
0100
0000
0000
0000
,
0010
1000
0001
0110
,
1000
1001
0001
0010
,
0100
0000
0000
0000
1010
0000
0000
0000
0001
0000
0000
0000
0020
0000
0000
0030
,
0011
0000
1100
0000
0000
1010
0000
0101
,
0000
0000
1000
0000
0100
0010
0100
0000
,
1010
0000
0101
0000
0000
0011
0000
1100
,
0000
0000
0001
0000
0200
0000
0000
0300
,
0101
0000
1010
0000
0000
1100
0000
0011
,
0000
0000
1000
0000
0010
0100
0010
0000
,
1100
0000
0011
0000
0000
0101
0000
1010
,
0000
0100
1001
0000
,
0100
0000
0010
0000
,
0001
0000
1000
0010
,
0001
0100
2000
0000
,
3002
0000
0003
0000
1001
0000
0000
1000
,
0100
0000
0000
1000
0001
1000
0010
0000
,
0100
0000
0010
1000
0001
0000
0000
0001
,
0010
0000
0000
0001
1000
0001
0100
0000
,
0010
0000
1000
0000
1001
0000
0000
1000
,
0100
0000
0000
0010
0001
0000
1000
0000
,
0010
0100
0010
0100
0000
0001
1000
0001
,
1000
0100
0011
1010
,
0200
0000
0000
0300
1001
0000
0000
0000
0000
0000
1000
0000
0100
0000
0000
0000
,
0000
0001
0100
0000
1000
0001
0100
0000
,
0001
0000
1000
0000
0000
1000
0010
0000
,
0000
0001
0010
0000
1000
0001
0010
0000
,
0100
0000
1001
0000
0000
1000
0100
0000
,
0000
0001
0100
0000
0000
1000
0100
0000
,
0010
0012
0000
0100
,
0000
1000
0100
1003
,
1001
0000
1000
0100
1000
0000
0001
0100
,
2000
0000
3000
0100
,
1001
0000
0001
0100
0001
0000
1000
0100
,
0002
0000
0003
0100
,
1001
0000
1000
0010
1000
0000
0001
0010
,
0001
0000
1000
0010
0001
0000
0001
0010
,
0000
1000
0001
1000
0001
0100
0000
0100
,
0010
0000
0110
0000
2002
3003
1010
0000
,
1000
0010
0100
0000
0001
1000
0100
0000
,
0010
0001
1010
0011
,
0001
0010
0100
0000
1000
0001
0100
0000
,
0010
1000
0001
1100
,
0010
0001
0100
0000
0010
1000
0100
0000
,
0010
0001
1000
0000
0010
1000
0002
0000
,
0000
0010
0000
0203
,
0310
0000
0110
0000
1100
0000
0000
0110
,
0000
0101
0000
0000
0010
0000
1000
0001
,
1000
0000
0110
0000
0011
0000
0000
0110
,
0000
1010
0000
0000
0001
0000
2000
0000
,
0000
3000
0110
0000
0101
0000
0000
0110
,
0000
1100
0000
0000
0010
0000
0001
1000
,
0001
0000
0110
0000
1010
0000
0000
0110
,
0000
0011
0000
0000
0000
0000
0000
0000
;

//---------------dance-single - S-LIGHT----------------
#NOTEDATA:;
#CHARTNAME:xRGTMx-LSP;
#STEPSTYPE:dance-single;
#DESCRIPTION:S-LIGHT;
#CHARTSTYLE:;
#DIFFICULTY:Easy;
#METER:5;
#RADARVALUES:0.330732,0.400380,0.170494,0.143574,0.000000,223.000000,19.000000,16.000000,0.000000,0.000000,0.000000,0.000000,0.000000,0.330732,0.400380,0.170494,0.143574,0.000000,223.000000,19.000000,16.000000,0.000000,0.000000,0.000000,0.000000,0.000000;
#CREDIT:;
#NOTES:
0000
0000
0000
0000
,
0000
0000
0000
0000
,
0000
0000
0000
0000
,
0000
0000
0000
0000
,
0000
0000
0000
0000
,
1001
0000
0000
0000
1000
0000
0000
0100
,
0000
0100
0000
0000
0010
0000
0010
0000
,
1001
0000
0000
0000
0001
0000
0000
0100
,
0000
0100
0000
0000
0010
0000
0000
0000
,
2000
0000
0000
0000
0000
0000
0000
3000
0000
0000
0000
0000
0000
0000
0000
0000
,
0002
0000
0000
0000
0000
0000
0000
0003
0000
0000
0000
0000
0000
0000
0000
0000
,
2000
0000
0000
0000
0000
0000
0000
3000
0000
0000
0000
0000
0000
0000
0000
0000
,
0002
0003
0110
0000
,
2000
0000
0000
0000
0000
0000
0000
3000
0000
0000
0000
0000
0000
0000
0000
0000
,
0002
0000
0000
0000
0000
0000
0000
0003
0000
0000
0000
0000
0000
0000
0000
0000
,
2000
0000
0000
0000
0000
0000
0000
3000
0000
0000
0000
0000
0000
0000
0000
0000
,
0002
0000
0000
0000
0000
0000
0000
0003
0010
0000
0000
0000
0100
0000
0000
0000
,
1000
0000
1000
0000
0000
1000
0000
1000
,
0000
0000
0110
0000
,
0001
0000
0001
0000
0000
0001
0000
0001
,
0000
0000
0000
0000
0020
0000
0000
0030
,
1000
0000
0001
0000
0000
0001
0000
1000
,
0000
0000
0110
1000
,
0001
0000
1000
0000
0000
1000
0000
0001
,
0000
0010
0001
0001
,
0100
0010
0100
0001
,
1000
0100
1000
1000
,
0010
0100
0001
1000
,
0100
0010
0010
0001
,
1000
0010
0100
0001
,
1000
0100
0100
0010
,
0001
1000
0010
0100
,
0001
0000
0001
0000
0000
1000
0000
1000
,
0000
0000
0110
0000
,
0001
0000
0001
0000
0000
1000
0000
1000
,
0000
0000
0000
0000
0020
0000
0000
0030
,
0001
0000
1000
0000
0000
1000
0000
0001
,
0000
0000
0110
0001
,
1000
0000
0001
0000
0000
0001
0000
1000
,
0000
0000
1000
0000
,
0000
0000
0001
0000
,
0000
0000
0010
0000
,
0100
0000
0010
0000
,
0200
0000
0300
0000
1001
0000
0000
0100
,
0100
0000
1000
0001
,
0100
0000
1000
0000
0001
0000
0000
0100
,
0100
0000
0010
1000
,
0001
0000
0010
0000
1001
0000
0000
0100
,
0100
0000
0000
0010
0010
0000
0000
0100
,
0100
0000
1000
0000
,
0001
0000
0100
0100
,
0100
0000
1001
0000
0000
0010
0010
0000
,
0000
1000
0001
0010
,
1000
0000
0001
0000
0000
0010
0010
0000
,
0000
0001
1000
0010
,
0100
0000
1001
0000
0000
0010
0010
0000
,
0000
0100
0100
0000
0000
0010
0010
0000
,
0000
2000
0000
0000
,
0000
0000
0000
3000
,
0001
0010
0100
1000
,
0002
0100
1003
0000
,
1000
0010
0100
0001
,
2000
0100
3001
0000
,
1000
0100
0010
1000
,
0001
0100
0010
0001
,
1000
0010
0010
0000
,
0100
0100
0100
0001
,
0000
0010
0010
0000
0000
0100
0100
0000
,
1000
0001
0001
1000
,
0000
0010
0010
0000
0000
0100
0100
0000
,
0001
1000
0100
0010
,
0000
0001
0001
0000
0000
1000
1000
0000
,
0000
0001
0001
0000
0100
0000
0020
0000
,
0000
0000
0000
0030
,
0000
0000
1000
0000
1001
0000
0000
0001
,
0000
1001
0000
0000
1000
0000
0100
0000
,
0010
0000
0001
0000
1001
0000
0000
1000
,
0000
1001
0000
0000
0000
0000
0020
0000
,
0000
0000
1030
0000
0110
0000
0000
0001
,
0000
0110
0000
0000
1000
0000
0100
0000
,
0010
0000
0001
0000
0110
0000
0000
1000
,
0000
0110
0000
0000
0000
0000
0000
0000
;

//---------------dance-single - BEGINNER----------------
#NOTEDATA:;
#CHARTNAME:xRGTMx-BEG;
#STEPSTYPE:dance-single;
#DESCRIPTION:BEGINNER;
#CHARTSTYLE:;
#DIFFICULTY:Beginner;
#METER:2;
#RADARVALUES:0.151265,0.218389,0.008973,0.008973,0.000000,116.000000,1.000000,1.000000,0.000000,0.000000,0.000000,0.000000,0.000000,0.151265,0.218389,0.008973,0.008973,0.000000,116.000000,1.000000,1.000000,0.000000,0.000000,0.000000,0.000000,0.000000;
#CREDIT:xRGTMx;
#NOTES:
0000
0000
0000
0000
,
0000
0000
0000
0000
,
0000
0000
0000
0000
,
0000
0000
0000
0000
,
0000
0000
0000
0000
,
0010
0000
0000
0000
,
0000
0000
0000
0000
,
0010
0000
0000
0000
,
0000
0000
0000
0000
,
1000
0000
0000
0000
,
1000
0000
0000
0000
,
0001
0000
0000
0000
,
0001
0000
0000
0000
,
1000
0000
0000
0000
,
1000
0000
0000
0000
,
0001
0000
0000
0000
,
0001
0000
0000
0000
,
0010
0000
0010
0000
0000
0010
0000
0010
,
0000
0000
0000
0000
,
0010
0000
0010
0000
0000
0010
0000
0010
,
0000
0000
0000
0000
,
0100
0000
0100
0000
0000
0100
0000
0100
,
0000
0000
0000
0000
,
0100
0000
0100
0000
0000
0100
0000
0100
,
0000
0000
0001
0000
,
0000
0000
0000
0000
,
0000
0000
1000
0000
,
0000
0000
0000
0000
,
0000
0001
0000
0000
,
0000
0000
0000
0000
,
0000
1000
0000
0000
,
0000
0000
0000
0000
,
0010
0000
0010
0000
0000
0010
0000
0010
,
0000
0000
0000
0000
,
0100
0000
0100
0000
0000
0100
0000
0100
,
0000
0000
0000
0000
,
0010
0000
0010
0000
0000
0010
0000
0010
,
0000
0000
0000
0000
,
0100
0000
0100
0000
0000
0100
0000
0100
,
0000
0000
1001
0000
,
0000
0000
1000
0000
,
0000
0000
0001
0000
,
0001
0000
0001
0000
,
0020
0030
1000
0000
,
1000
0000
0100
0000
,
0000
0000
0001
0000
,
0001
0000
0100
0000
,
0000
0000
1000
0000
,
1000
0000
0010
0000
,
0000
0000
0001
0000
,
0000
0000
0010
0010
,
0010
1000
0000
0100
,
0000
1000
0000
0000
,
0000
0001
0000
0100
,
0000
0001
0000
0000
,
0000
1000
0000
0010
,
0000
1000
0000
0000
,
0000
0001
0000
0000
,
0000
0010
0000
0010
,
0001
0000
0100
0000
,
1000
0000
0000
0000
,
0100
0000
1000
0000
,
0010
0000
0000
0000
,
1000
0000
0010
0000
,
0001
0000
0000
0000
,
0010
0000
0001
0000
,
0100
0000
0000
1000
,
0000
0100
0000
0001
,
0000
0000
0000
0001
,
0000
0100
0000
1000
,
0000
0000
0000
1000
,
0000
0010
0000
0001
,
0000
0000
0000
0001
,
0000
0000
0000
0010
,
0000
0000
1000
0000
1000
0000
0000
0001
,
0000
0001
0000
0000
0000
0000
0000
0000
,
0000
0000
0001
0000
0001
0000
0000
1000
,
0000
1000
0000
0000
0000
0000
0000
0000
,
0000
0000
0010
0000
0010
0000
0000
0100
,
0000
0100
0000
0000
0000
0000
0000
0000
,
0000
0000
0100
0000
0100
0000
0000
0010
,
0000
0010
0000
0000
0000
0000
0000
0000
;

//---------------dance-double - D-HEAVY----------------
#NOTEDATA:;
#CHARTNAME:xRGTMx-HDP;
#STEPSTYPE:dance-double;
#DESCRIPTION:D-HEAVY;
#CHARTSTYLE:;
#DIFFICULTY:Hard;
#METER:10;
#RADARVALUES:0.703768,0.764362,0.646082,0.358934,0.098707,437.000000,72.000000,40.000000,0.000000,0.000000,0.000000,0.000000,0.000000,0.703768,0.764362,0.646082,0.358934,0.098707,437.000000,72.000000,40.000000,0.000000,0.000000,0.000000,0.000000,0.000000;
#CREDIT:xRGTMx;
#NOTES:
// measure 0
00000000
00000000
00000000
00000000
,  // measure 1
00000000
00000000
00000000
00000000
,  // measure 2
00000000
00000000
00000000
00000000
,  // measure 3
00000000
00000000
00000000
00000000
,  // measure 4
00000000
00000000
00000000
00100000
,  // measure 5
10010000
00000000
10000000
00000000
01000000
00000000
00100000
00101000
,  // measure 6
00000000
00010010
00000010
00000000
00000100
00000000
00000100
00000000
,  // measure 7
00001001
00000000
00000001
00000000
00000010
00000000
00000100
00010100
,  // measure 8
00000000
01001000
01000000
00000000
00100000
10000000
00010000
00100000
,  // measure 9
00220000
00000000
00000000
00000000
00000000
00000000
00000000
00330000
00000000
00000000
00000000
00000000
00000000
00000000
00000000
00000000
,  // measure 10
02020000
00000000
00000000
00000000
00000000
00000000
00000000
03030000
00000000
00000000
00000000
00000000
00000000
00000000
00000000
00000000
,  // measure 11
20200000
00000000
00000000
00000000
00000000
00000000
00000000
30300000
00000000
00000000
00000000
00000000
00000000
00000000
00000000
00000000
,  // measure 12
22000000
00000000
00000000
30000000
00000000
00000000
03100000
00000000
00001000
00000000
00010000
00000000
,  // measure 13
00002020
00000000
00000000
00000000
00000000
00000000
00000000
00003030
00000000
00000000
00000000
00000000
00000000
00000000
00000000
00000000
,  // measure 14
00002200
00000000
00000000
00000000
00000000
00000000
00000000
00003300
00000000
00000000
00000000
00000000
00000000
00000000
00000000
00000000
,  // measure 15
00000022
00000000
00000000
00000000
00000000
00000000
00000000
00000033
00000000
00000000
00000000
00000000
00000000
00000000
00000000
00000000
,  // measure 16
00000202
00000000
00000000
00000003
00000000
00000000
00000310
00001000
00000010
00001000
00000100
00010000
,  // measure 17
00000100
00000000
00010100
00000000
01001000
00100000
00000000
10010000
,  // measure 18
00000000
00000000
10000000
00010000
10000000
00000000
01000000
00000000
00100000
00000000
00001000
00000000
00010000
00000000
00000000
00000000
,  // measure 19
01000000
00000000
01001000
00000000
00010100
00000010
00000000
00001001
,  // measure 20
00000000
00000000
00000001
00001000
00000001
00000000
00000010
00000000
00000200
00000000
00000000
00000000
00000000
00000000
00000000
00000000
,  // measure 21
00000310
00000000
00010010
00000000
00101000
01000000
00000000
10010000
,  // measure 22
00000000
00000000
10000000
00010000
10000000
00000000
00100000
00000000
01000000
00000000
00001000
00000000
00010000
00000000
00000000
00000000
,  // measure 23
00100000
00000000
00101000
00000000
00010010
00000100
00000000
00001001
,  // measure 24
00000000
00000020
00000000
00000000
00000100
00000000
00000130
00000000
00001001
00000000
00001000
00000000
00000100
00000000
00000010
00000000
,  // measure 25
00000100
00000000
00010000
00001000
00010000
00001000
00100000
01000000
,  // measure 26
10000000
00100000
01000000
00000000
10010000
00010000
01000000
00100000
,  // measure 27
01000000
00000000
00001000
00010000
00001000
00010000
00000100
00000010
,  // measure 28
00000002
00000000
00000000
00000003
00001001
00000000
00001000
00000000
00000010
00000000
00000100
00000000
00001000
00000000
00000000
00000000
,  // measure 29
00010000
00100000
01000000
00001000
00100000
01000000
10000000
00010000
,  // measure 30
01000000
00000000
10010000
00010000
00100000
01000000
00010000
00000000
,  // measure 31
00001000
00000010
00000100
00010000
00000010
00000100
00000002
00000000
,  // measure 32
00000013
00000000
00001100
00000000
00011000
00100000
00000000
11000000
,  // measure 33
00000000
00000000
00010000
10000000
00100000
00000000
01000000
00000000
00001000
00000000
00100000
00000000
20000000
00000000
00000000
00000000
,  // measure 34
30100000
00000000
01010000
00000000
00011000
00000010
00000000
00000101
,  // measure 35
00000000
00000000
00001000
00000001
00000010
00000000
00000001
00000000
00002000
00000000
00000000
00000000
00000000
00000000
00000000
00000000
,  // measure 36
00003100
00000000
00001010
00000000
00011000
01000000
00000000
10100000
,  // measure 37
00000000
00000000
00010000
10000000
01000000
00000000
00100000
00000000
00001000
00000000
01000000
00000000
20000000
00000000
00000000
00000000
,  // measure 38
31000000
00000000
00110000
00000000
00011000
00000100
00000000
00000011
,  // measure 39
00000000
00000100
00021000
00000000
,  // measure 40
00100000
00000000
00001000
00000000
,  // measure 41
00000010
00000000
00032000
00203000
,  // measure 42
00320000
00030020
00002030
00000000
,  // measure 43
02003000
00000000
00000000
00000000
00000000
00000000
00000000
03000000
00000000
00000000
00000000
00000000
00000000
00000000
00000000
00000000
10100000
00000000
00000000
00000000
10000000
00000000
00000000
00000000
01000000
00000000
00000000
00000000
00100000
00000000
00000000
00000000
,  // measure 44
00010000
00010000
00100000
01000000
10000000
00010000
01000000
00001000
,  // measure 45
00100000
00000000
00001000
00000010
00000001
00000001
00000100
00000010
,  // measure 46
00001000
00001000
00000010
00000100
00000001
00000010
00001000
00010000
,  // measure 47
00100000
00000000
01000000
00100000
10010000
10000000
01000000
00100000
,  // measure 48
00010000
00010000
00100000
01000000
00001000
00001000
00000010
00000100
,  // measure 49
00010000
00010000
00000100
00000100
00000000
00000010
00001000
00000010
,  // measure 50
00001000
00000100
00000000
00000100
00101000
00000000
00010010
00000000
,  // measure 51
00012000
00000000
00103000
01000000
11000000
00000000
10000000
00000000
00010000
00000000
01000000
00000000
00100000
00000000
00100000
00000000
,  // measure 52
01000000
00010000
00100000
00001000
00000100
00000010
00001000
00000000
,  // measure 53
00000100
00000010
00000001
00000001
00001000
00000010
00000100
00000100
,  // measure 54
00000010
00001000
00000100
00010000
00100000
01000000
00010000
00000000
,  // measure 55
00010000
10000000
11000000
01000000
00100000
00010000
01000000
01000000
,  // measure 56
00001000
00010000
00000100
00000100
00000010
00000001
00000100
00000100
,  // measure 57
00000010
00001000
00001200
00000000
00000000
00000000
00000000
00000000
,  // measure 58
00000000
00000000
00000000
00000000
00010300
00000000
00000100
00000000
00001000
00000000
00100000
00000000
00010000
00000000
00001000
00100000
,  // measure 59
00110000
00010000
01000000
10000000
00010000
00100000
01000000
00001000
,  // measure 60
00020000
00000000
00100000
00000000
00031000
00000000
00010000
00000100
,  // measure 61
00000010
00000001
00001000
00000010
00000001
00001000
00000100
00000010
,  // measure 62
00020000
00000000
00001000
00000000
00130000
00000000
00010000
00100000
,  // measure 63
01000000
00010000
00100000
01000000
10000000
00010000
01000000
00001000
,  // measure 64
00010000
00000100
00001000
00000010
00000100
00000001
00001000
00000100
,  // measure 65
00000110
00000010
00000001
00000100
00000001
00001000
00000000
00001000
,  // measure 66
00000100
00000000
00001000
00000000
00010000
00000000
01000000
00000000
00200000
00010000
00300000
01000000
10010000
00000000
10000000
00000000
,  // measure 67
00100000
01000000
00010000
00100000
01000000
11000000
10000000
00010000
,  // measure 68
01000000
00100000
00001000
00000000
00000100
00000000
00001001
00000001
,  // measure 69
00000010
00000100
00001000
00000010
00000100
00000101
00000001
00001000
,  // measure 70
00000100
00000010
00010000
00000000
01000000
00000000
11000000
10000000
,  // measure 71
00100000
01000000
00010000
00100000
00001000
00011000
00010000
00000100
,  // measure 72
00000010
00000001
00001000
00000010
00000100
00000000
00002001
00000000
,  // measure 73
00000000
00000000
00000000
00000000
00000000
00000000
00000000
00000000
00000000
00000000
00000000
00000000
00003001
00000010
00000100
00001000
,  // measure 74
00000020
00000000
00000130
00000000
00001010
00000000
00011000
01000000
,  // measure 75
00000000
00000000
10100000
00000000
00000000
00000000
00010000
10000000
01000000
00000000
00100000
00000000
00001000
00000000
01000000
00000000
,  // measure 76
20000000
00000000
31000000
00000000
00110000
00000000
00011000
00000100
,  // measure 77
00000000
00000000
00000011
00000000
00000000
00000000
00001000
00000001
00000100
00000000
00000001
00000000
00002000
00000000
00000000
00000000
,  // measure 78
00000000
00000000
00003010
00000000
00001100
00000000
00011000
00100000
,  // measure 79
00000000
00000000
11000000
00000000
00000000
00000000
00010000
10000000
00100000
00000000
01000000
00000000
00001000
00000000
00100000
00000000
,  // measure 80
20000000
00000000
30100000
00000000
01010000
00000000
00011000
00000010
,  // measure 81
00000000
00000101
00000000
00000000
00000000
00000000
00000000
00000000
;

//---------------dance-double - D-STANDARD----------------
#NOTEDATA:;
#CHARTNAME:xRGTMx-SDP;
#STEPSTYPE:dance-double;
#DESCRIPTION:D-STANDARD;
#CHARTSTYLE:;
#DIFFICULTY:Medium;
#METER:7;
#RADARVALUES:0.510199,0.545973,0.565322,0.233307,0.008973,309.000000,63.000000,26.000000,0.000000,0.000000,0.000000,0.000000,0.000000,0.510199,0.545973,0.565322,0.233307,0.008973,309.000000,63.000000,26.000000,0.000000,0.000000,0.000000,0.000000,0.000000;
#CREDIT:xRGTMx;
#NOTES:
00000000
00000000
00000000
00000000
,
00000000
00000000
00000000
00000000
,
00000000
00000000
00000000
00000000
,
00000000
00000000
00000000
00000000
,
00000000
00000000
00000000
00100000
,
10010000
00000000
10000000
00000000
01000000
00000000
00000000
00110000
,
00000000
00011000
00000000
00000000
00000010
00000000
00000010
00000000
,
00001001
00000000
00000001
00000000
00000100
00000000
00000000
00001010
,
00000000
00011000
00000000
00000000
00100000
00000000
00010000
00000000
,
20200000
00000000
00000000
00000000
00000000
00000000
00000000
30300000
00000000
00000000
00000000
00000000
00000000
00000000
00000000
00000000
,
02020000
00000000
00000000
00000000
00000000
00000000
00000000
03030000
00000000
00000000
00000000
00000000
00000000
00000000
00000000
00000000
,
00022000
00000000
00000000
00000000
00000000
00000000
00000000
00033000
00000000
00000000
00000000
00000000
00000000
00000000
00000000
00000000
,
00001200
00000000
00000000
00000000
00000000
00000000
00000310
00000000
00000010
00000000
00000001
00000000
,
00000202
00000000
00000000
00000000
00000000
00000000
00000000
00000303
00000000
00000000
00000000
00000000
00000000
00000000
00000000
00000000
,
00002020
00000000
00000000
00000000
00000000
00000000
00000000
00003030
00000000
00000000
00000000
00000000
00000000
00000000
00000000
00000000
,
00022000
00000000
00000000
00000000
00000000
00000000
00000000
00033000
00000000
00000000
00000000
00000000
00000000
00000000
00000000
00000000
,
00210000
00000000
01300000
10000000
,
00100000
00000000
10010000
00000000
00010000
00100000
00000000
00011000
,
00000000
00010000
00000000
00000000
00000100
00000000
00000100
00000000
,
00000010
00000000
00001001
00000000
00001000
00000010
00000000
00011000
,
00000000
00001000
00000000
00000000
02000000
00000000
00000000
00000000
,
03100000
00000000
10010000
00000000
10000000
01000000
00000000
00101000
,
00000000
00010000
00000000
00000000
00000100
00000000
00000100
00000000
,
00000010
00000000
00001001
00000000
00000001
00000100
00000000
00010010
,
00000000
00100000
10010000
10000000
,
01000000
00100000
00100000
00010000
,
00011000
00000100
00001001
00000001
,
00000100
00000010
00000010
00001000
,
00020000
00130000
10010000
10000000
,
01000000
01000000
00100000
00001000
,
00010000
00011000
00001000
00000100
,
00000010
00001000
00000100
00000020
,
00000031
00000000
00001001
00000000
00001000
00000100
00000000
00011000
,
00000000
00001000
00100000
00000000
00010000
00000000
00010000
00000000
,
10000000
00000000
10010000
00000000
00010000
01000000
00000000
00011000
,
00000000
00010000
00000010
00000000
00002000
00000000
00000100
00000000
,
00003001
00000000
00000110
00000000
00001000
00000100
00000000
00011000
,
00000000
00001000
01000000
00000000
00100000
00000000
00100000
00000000
,
10000000
00000000
01100000
00000000
00010000
01000000
00000000
00011000
,
00000000
00000010
00001001
00000000
,
00001000
00000000
00000100
00000000
,
00010000
00000000
00001000
00100000
,
10000000
01000000
00010000
00000000
,
00200000
00000000
00000000
00000000
00000000
00000000
00000000
00300000
00000000
00000000
00000000
00000000
00000000
00000000
00000000
00000000
10010000
00000000
00000000
00000000
00000000
00000000
00000000
00000000
10000000
00000000
00000000
00000000
01000000
00000000
00000000
00000000
,
00100000
00000000
00100000
01000000
10000000
00000000
00010000
00000000
,
01000000
00000000
01000000
00000000
00001000
00000000
00001000
00010000
,
00000100
00000000
00000100
00010000
00001000
00000000
00000100
00000000
,
00000010
00000000
00001000
00000000
00000001
00000000
00000100
00000010
,
00001000
00000000
00001000
00000010
00000100
00000000
00000001
00000000
,
00001000
00000100
00001000
00000100
00000000
00010000
00001000
00000000
,
00100000
01000000
20000000
00100000
,
30020000
00000000
01030000
00000000
00100000
01000000
00010000
00000000
,
00100000
01000000
00010000
00000000
01000000
00000000
10000000
00000000
,
00010000
00000000
01000000
00000000
00010000
00000010
00000100
00000000
,
00010000
00000010
00000100
00000000
00001000
00000000
00000100
00000000
,
00000001
00000000
00001001
00000000
00001000
00000100
00010000
00000000
,
00001000
00000100
00010000
00000000
01000000
00000000
00100000
00000000
,
10000000
12000000
00000000
00000000
,
00000000
00000000
03000000
00100000
01000000
00100000
02000000
00000000
,
13000000
10100000
01010000
00100000
,
00011000
00010000
00000100
00000010
,
00000011
00001100
00010100
00100000
,
01010000
01000000
00100000
10000000
,
00100000
01010000
00100000
00011000
,
00000010
00001100
00000010
00001001
,
00000000
00001000
00000100
00000010
00000100
00001000
00000000
00001000
,
00010000
00100000
02000000
13000000
,
00100000
00010000
10000000
00000000
01000000
00010000
00100000
00000000
,
00101000
00001000
00011000
00010000
,
00000100
00000010
00001000
00000000
00000001
00000100
00001000
00000000
,
00001010
00000101
00000010
00011000
,
00010000
00001000
00100000
00000000
10000000
00100000
00010000
00000000
,
01000000
00000000
00100000
01000000
00010000
00100000
00000000
00001000
,
00010000
00001000
00010000
00001000
00000000
00010000
00000200
00000010
,
00000001
00000000
00001300
00000000
00000101
00000000
00000010
00010000
,
00000000
00011000
00000000
00001000
01000000
00000000
00100000
00000000
,
01000000
00000000
00010000
00000000
11000000
00000000
00100000
00001000
,
00000000
00011000
00000000
00010000
00000100
00000000
00000020
00000000
,
00000000
00000000
00000031
00000000
00001100
00000000
00000010
00001000
,
00000000
00011000
00000000
00010000
00100000
00000000
01000000
00000000
,
01000000
00000000
10000000
00000000
01010000
00000000
00100000
00010000
,
00000000
00011000
00000000
00000000
00000000
00000000
00000000
00000000
;

//---------------dance-double - D-LIGHT----------------
#NOTEDATA:;
#CHARTNAME:xRGTMx-LDP;
#STEPSTYPE:dance-double;
#DESCRIPTION:D-LIGHT;
#CHARTSTYLE:;
#DIFFICULTY:Easy;
#METER:5;
#RADARVALUES:0.361498,0.436778,0.394828,0.143574,0.000000,222.000000,44.000000,16.000000,0.000000,0.000000,0.000000,0.000000,0.000000,0.361498,0.436778,0.394828,0.143574,0.000000,222.000000,44.000000,16.000000,0.000000,0.000000,0.000000,0.000000,0.000000;
#CREDIT:xRGTMx;
#NOTES:
00000000
00000000
00000000
00000000
,
00000000
00000000
00000000
00000000
,
00000000
00000000
00000000
00000000
,
00000000
00000000
00000000
00000000
,
00000000
00000000
00000000
00000010
,
00001001
00000000
00000001
00000000
00000100
00000000
00000000
00000010
,
00000000
00000010
00000000
00000000
00001000
00000000
00000000
00000000
,
10010000
00000000
00010000
00000000
01000000
00000000
00000000
00100000
,
00000000
00100000
00000000
00000000
10000000
00000000
00000000
00000000
,
20100000
00000000
00000000
00000000
00000000
00000000
00000000
30000000
00000000
00000000
00000000
00000000
00000000
00000000
00000000
00000000
,
00120000
00000000
00000000
00000000
00000000
00000000
00000000
00030000
00000000
00000000
00000000
00000000
00000000
00000000
00000000
00000000
,
00021000
00000000
00000000
00000000
00000000
00000000
00000000
00030000
00000000
00000000
00000000
00000000
00000000
00000000
00000000
00000000
,
00001020
00000000
00000130
00000000
,
00000102
00000000
00000000
00000000
00000000
00000000
00000000
00000000
00000000
00000000
00000000
00000000
00000000
00000000
00000000
00000003
00000000
00000000
00000000
00000000
00000000
00000000
00000000
00000000
00000000
00000000
00000000
00000000
00000000
00000000
00000000
00000000
,
00002100
00000000
00000000
00000000
00000000
00000000
00000000
00003000
00000000
00000000
00000000
00000000
00000000
00000000
00000000
00000000
,
00012000
00000000
00000000
00000000
00000000
00000000
00000000
00003000
00000000
00000000
00000000
00000000
00000000
00000000
00000000
00000000
,
02010000
00000000
03100000
00100000
,
10000000
00000000
10000000
00000000
00000000
01010000
00000000
01010000
,
00000000
00000000
00100000
00000000
,
00001000
00000000
00001000
00000000
00000000
00010100
00000000
00010100
,
00000000
00000000
00000010
00000000
,
00000001
00000000
00000001
00000000
00000000
00001010
00000000
00001010
,
00000000
00000000
00000100
00000000
,
00010000
00000000
00010000
00000000
00000000
00101000
00000000
00101000
,
00000000
02000000
13000000
00010000
,
10000000
01000000
00100000
00000000
,
00100000
00000000
00001000
00010000
,
00000100
00001000
00000010
00000010
,
00000200
00000301
00001000
00000001
,
00000100
00000010
00000000
00000010
,
00000000
00010000
00001000
01000000
,
00010000
00100000
00100000
02000000
,
13000000
00000000
10000000
00000000
00000000
00110000
00000000
00110000
,
00000000
00000000
01000000
00000000
,
00001000
00000000
00001000
00000000
00000000
00010010
00000000
00010010
,
00000000
00000000
00000100
00000000
,
00000001
00000000
00000001
00000000
00000000
00001100
00000000
00001100
,
00000000
00000000
00000010
00000000
,
00010000
00000000
00010000
00000000
00000000
01001000
00000000
01001000
,
00000000
00100000
10010000
00000000
,
10000000
00000000
01000000
00000000
,
01000000
00000000
00100000
00100000
,
00001000
00001000
00010000
00000000
,
00000200
00000000
00000000
00000000
00000000
00000000
00000000
00000300
00000000
00000000
00000000
00000000
00000000
00000000
00000000
00000000
00001001
00000000
00000000
00000000
00000000
00000000
00000000
00000000
00001000
00000000
00000000
00000000
00000000
00000000
00000000
00000000
,
00000100
00000100
00010000
00001000
,
00010000
00000000
01000000
01000000
,
00100000
00100000
00010000
10000000
,
00100000
00000000
10010000
00010000
,
01000000
01000000
00001000
00010000
,
00001000
00010000
00000000
00000100
,
00000100
00000000
00000010
00000001
,
00002000
00000000
00000000
00003000
00000001
00000000
00000000
00000000
00001000
00000000
00000000
00000000
00000100
00000000
00000000
00000000
,
00000100
00000010
00001000
00010000
,
00000000
10000000
00010000
01000000
,
01000000
00100000
00010000
00001000
,
00000000
00000001
00000001
00001000
,
00001000
00000100
00010000
00001000
,
01000000
00200000
00000000
00000000
,
00000000
01300000
00010000
10000000
,
11000000
01000000
00100000
00001000
,
00011000
00000000
00000100
00000000
,
00000101
00000100
00000010
00010000
,
00011000
00000000
01000000
00000000
,
10100000
00100000
01000000
00001000
,
00011000
00010000
00000100
00000010
,
00000011
00000100
00010000
00001000
,
01000000
00000000
00000000
00000000
01000000
00000000
00000000
00000000
02000000
00000000
00000000
03000000
00100000
00000000
00000000
00000000
,
00100000
10000000
10000000
00010000
,
00010000
01000000
00000000
00001000
,
00001000
00010000
00010000
00000100
,
00000100
00000010
00000000
00000001
,
00000010
00001000
00000001
00000100
,
00010000
00000010
00010000
00002000
,
00000000
00000000
00000000
00003000
,
00000000
00000000
00100000
00000000
00100000
00000000
00000000
11000000
,
00000000
11000000
00000000
00000000
00000000
00000000
00100000
00000000
,
00000000
00000000
00001000
00000000
00001000
00000000
00000000
00010100
,
00000000
00010100
00000000
00000000
00000000
00000000
00001000
00000000
,
00000000
00000000
00000001
00000000
00000001
00000000
00000000
00000110
,
00000000
00000110
00000000
00000000
00000000
00000000
00001000
00000000
,
00000000
00000000
00010000
00000000
00010000
00000000
00000000
01010000
,
00000000
11000000
00000000
00000000
00000000
00000000
00000000
00000000
;
