#VERSION:0.82;
#TITLE:evergreen;
#SUBTITLE:;
#ARTIST:kors k;
#TITLETRANSLIT:;
#SUBTITLETRANSLIT:;
#ARTISTTRANSLIT:;
#GENRE:House;
#ORIGIN:;
#CREDIT:;
#BANNER:evergreen-bn.png;
#BACKGROUND:evergreen-bg.png;
#PREVIEWVID:;
#JACKET:evergreen-jk.png;
#CDIMAGE:;
#DISCIMAGE:;
#LYRICSPATH:;
#CDTITLE:;
#MUSIC:evergreen.mp3;
#OFFSET:1.580000;
#SAMPLESTART:97.422997;
#SAMPLELENGTH:14.456000;
#SELECTABLE:YES;
#BPMS:0.000=133.000;
#STOPS:;
#DELAYS:;
#WARPS:;
#TIMESIGNATURES:0.000=4=4;
#TICKCOUNTS:0.000=4;
#COMBOS:0.000=1;
#SPEEDS:0.000=1.000=0.000=0;
#SCROLLS:0.000=1.000;
#FAKES:;
#LABELS:0.000=Song Start;
#BGCHANGES:;
#KEYSOUNDS:;
#ATTACKS:
;

//---------------dance-single - S-CHALLENGE----------------
#NOTEDATA:;
#CHARTNAME:DJ OMiY-CSP;
#STEPSTYPE:dance-single;
#DESCRIPTION:S-CHALLENGE;
#CHARTSTYLE:;
#DIFFICULTY:Challenge;
#METER:10;
#RADARVALUES:0.605412,0.630136,0.133127,0.118335,0.499227,539.000000,18.000000,16.000000,0.000000,0.000000,0.000000,0.000000,0.000000,0.605412,0.630136,0.133127,0.118335,0.499227,539.000000,18.000000,16.000000,0.000000,0.000000,0.000000,0.000000,0.000000;
#CREDIT:DJ OMiY;
#NOTES:
0000
0000
0000
0000
,
0000
0000
0000
0000
,
0000
0000
0000
0000
,
1000
0100
1000
0100
1000
0100
1000
0100
,
1000
0100
1000
0100
1000
0001
0000
0000
,
0101
1000
0100
0010
0001
1000
0100
0010
,
0001
1000
0100
0010
0001
1000
0100
0010
,
0001
1000
0000
0000
0001
0000
1000
0100
1000
0000
0010
0000
0100
0000
0001
0000
,
1000
0010
0100
0001
1000
0010
0100
0001
,
1001
0000
0000
0001
0000
0100
0001
0000
0000
1000
0000
0000
0000
0000
0000
0100
0000
1000
0100
0000
0000
0010
0000
0000
,
0001
0000
0100
0010
0000
0000
0100
0000
0000
0010
0000
0000
1000
0000
0001
1000
0000
0000
0100
0000
0000
0010
0000
0001
,
1000
0100
0010
0100
1000
0001
0100
0010
,
0100
1000
0100
0001
0010
0100
1100
0110
,
0011
0000
0000
1000
0000
0000
0001
0000
0000
0010
0000
0000
1000
0000
0000
0010
0000
0000
0001
0000
0000
0100
0000
0001
,
1000
0000
0000
0100
0000
0000
1000
0000
0000
0100
0000
0000
0010
0000
0000
0001
0000
0100
0010
0000
0000
0100
0000
0000
,
0101
1000
0001
0010
0100
1000
0001
0100
,
0010
1000
0100
0010
0001
1000
0110
1001
,
0101
0000
0000
0100
0000
0000
0010
0000
0000
0100
0000
0000
0001
0000
0000
1000
0000
0000
0100
0000
0000
0010
0000
0001
,
0010
0000
0000
0001
0000
0000
1000
0000
0000
0001
0000
0000
0100
0000
0000
0001
0000
1000
0001
0000
0000
0100
0000
0000
,
0110
0000
0010
0100
0000
0000
0001
0000
0000
1000
0000
0000
0001
0000
1000
0010
0000
0000
0100
0000
0000
0010
0000
0000
,
1000
0000
0001
0010
0000
0000
0001
0000
0000
1000
0000
0000
0100
0000
0010
0100
0000
0000
0010
0000
0000
0001
0000
1000
,
0010
0000
0100
0010
0000
0000
1000
0000
0000
0100
0000
0000
0010
0000
0001
0100
0000
0000
0001
0000
0000
0010
0000
0100
,
1000
0000
0001
0100
0000
0000
0001
0000
0000
1000
0000
0000
0010
0000
0100
0010
0000
1000
0001
0000
0000
1000
0000
0001
,
0100
0000
0010
0100
0000
0000
0001
0000
0000
1000
0000
0000
0100
0000
1000
0001
0000
0000
0100
0000
0000
0001
0000
0000
,
0010
0000
0100
0010
0000
0000
0001
0000
0000
1000
0000
0000
0010
0000
1000
0001
0000
0000
0010
0000
0000
0100
0000
1000
,
0200
1000
1000
1000
,
1300
0000
0001
0000
0100
0000
0010
0000
1010
0000
0000
0101
0000
0000
1000
0000
,
2001
0001
0001
0001
,
3002
0010
0023
0100
,
0230
0000
0000
1000
0000
0000
1000
0000
,
2300
0000
0001
0000
0000
0001
0000
0000
0001
0000
0000
0001
0000
0000
0000
0000
,
3020
0100
0100
0100
,
0230
0000
0302
0000
,
2003
0000
0000
0000
,
3200
0000
0320
0000
,
0230
0000
0000
0000
,
0000
0000
2300
0000
,
0002
0000
0000
0000
,
0000
0000
0000
0000
0000
0000
3000
0000
0000
0000
0000
0000
0200
0000
0000
0000
0000
0000
0303
0000
0000
0001
0000
1000
,
0001
0000
0000
0000
0000
0000
0100
0000
0000
0001
0000
0000
0000
0000
0000
1000
0000
0000
0010
0000
0000
0000
0000
0000
0000
0000
0000
0000
0000
0000
0000
0000
0000
0000
0000
0000
0000
0000
0000
0000
0000
0000
1000
0000
0001
0000
1000
0000
,
0001
0000
0000
0000
0000
0000
0000
0000
0000
0000
0000
0000
0000
0000
0000
0100
0010
0100
0010
0000
0000
1000
0000
0000
,
0100
0000
0000
0000
0000
0000
0000
0000
0000
0010
0000
0000
0000
0000
0000
0000
0000
0000
0001
0000
0000
0000
0000
0000
0000
0000
0000
0000
0000
0000
0000
0000
0000
0000
0000
0000
0000
0000
0000
0000
0000
0000
0010
0000
0001
0000
0010
0000
,
0001
0000
0000
0000
0000
0000
0000
0000
1000
0100
0000
1000
0001
0000
0000
0100
0000
0000
0010
0000
0000
1000
0001
1000
,
0100
0000
0000
0000
0000
0000
0010
0000
0000
0001
0000
0000
0000
0000
0000
0001
0000
0000
0100
0000
0000
0000
0000
0000
0000
0000
0000
0000
0000
0000
0000
0000
0000
0000
0000
0000
0000
0000
0000
0000
0000
0000
0010
0000
1000
0000
0010
0000
,
1000
0000
0000
0000
0000
0000
0000
0000
0000
0000
0000
0000
0000
0000
0000
0001
0000
0100
0001
0000
0000
1000
0000
0000
,
0010
0000
0000
0000
0000
0000
0000
0000
0000
1000
0000
0000
0000
0000
0000
0000
0000
0000
0001
0000
0000
0000
0000
0000
0000
0000
0000
0000
0000
0000
0000
0000
0000
0000
0000
0000
1000
0000
0100
0000
1000
0000
0100
0000
0000
0000
0000
0000
,
0010
0000
0000
0000
0000
0000
0000
0000
0000
0001
0000
0000
0000
0000
0000
0000
0000
0000
1000
0000
0000
0000
0000
0000
0000
0000
0000
0000
0000
0000
0110
0000
0000
0000
0000
0000
0000
0000
0000
0000
0000
0000
0001
0000
0000
0000
0100
0000
,
0001
0000
0000
0000
0000
0000
1000
0000
0000
0100
0000
0000
0000
0000
0000
0100
0000
0000
0010
0000
0000
0000
0000
0000
0001
0000
0000
0000
0000
0000
0000
0000
0000
0000
0000
0000
1000
0000
0000
0000
0000
0000
0001
0000
0100
0000
0001
0000
,
1000
0000
0000
0000
0000
0000
0010
0000
0000
0000
0000
0000
1000
0000
0000
0001
1000
0001
0100
0000
0000
0010
0000
0000
,
1000
0000
0000
0000
0000
0000
0000
0000
0000
0100
0000
0000
0000
0000
0000
0000
0000
0000
0010
0000
0000
0000
0000
0000
0001
0000
0000
0000
0000
0000
0000
0000
0000
0000
0000
0000
1000
0000
0000
0000
0000
0000
0100
0000
1000
0000
0100
0000
,
0010
0000
0000
0000
0000
0000
0100
0000
0010
0001
0000
0010
0100
0000
0000
1000
0000
0000
0001
0000
0000
0100
0010
0100
,
0001
0000
0000
0000
0000
0000
1000
0000
0000
0100
0000
0000
0000
0000
0000
1000
0000
0000
0001
0000
0000
0000
0000
0000
0100
0000
0000
0000
0000
0000
0000
0000
0000
0000
0000
0000
0010
0000
0000
0000
0000
0000
0100
0000
0001
0000
0100
0000
,
0010
0000
0000
0000
0000
0000
1000
0000
0000
0000
0000
0000
0001
0000
0000
1000
0000
0100
1000
0000
0000
0001
0000
0000
,
0010
0000
0000
0100
0000
0000
0010
0000
0000
0000
0100
1000
0000
1001
0000
0000
,
0100
0000
0001
1000
0000
0001
0100
0001
0000
1010
0000
0010
0100
0000
0010
1000
,
0001
0000
0000
0000
0000
0000
0010
0000
0000
0001
0000
0000
0000
0000
0000
1000
0000
0000
0010
0000
0000
0000
0000
0000
0100
0000
0000
0000
0000
0000
0001
0000
0000
0000
0000
0000
1000
0000
0000
0000
0000
0000
0001
0000
0010
0000
0001
0000
,
0100
0000
0000
0010
0000
0000
1000
0000
0000
0100
0000
0000
1000
0000
0000
0001
0100
0001
1000
0000
0000
0100
0000
0000
,
0010
0000
0000
0000
0000
0000
0100
0000
0000
0010
0000
0000
0000
0000
0000
0100
0000
0000
1000
0000
0000
0000
0000
0000
0001
0000
0000
0000
0000
0000
0100
0000
0000
0000
0000
0000
0010
0000
0000
0000
0000
0000
1000
0000
0001
0000
1000
0000
,
0010
0000
0000
0100
0000
0000
0001
0000
0010
0100
0000
1000
0001
0000
0000
0001
0000
0100
0001
0000
0000
1000
0001
1000
,
0100
0000
0000
0000
0000
0000
1000
0000
0000
0100
0000
0000
0000
0000
0000
1000
0000
0000
0001
0000
0000
0000
0000
0000
1000
0000
0000
0000
0000
0000
0001
0000
0000
0000
0000
0000
0010
0000
0000
0000
0000
0000
0100
0000
0010
0000
0001
0000
,
1000
0000
0000
0100
0000
0000
0010
0000
0000
0100
0000
0000
1000
0000
0000
0001
0000
0100
0001
0000
0000
1000
0000
0000
,
0100
0000
0000
0000
0000
0000
1000
0000
0000
0001
0000
0000
0000
0000
0000
0100
0000
0000
0010
0000
0000
0000
0000
0000
0100
0000
0000
0000
0000
0000
0001
0000
0000
0000
0000
0000
0010
0000
0100
0000
1000
0000
0100
0000
0000
0000
0000
0000
,
1000
0000
0000
0000
0000
0000
0001
0000
0000
0100
0000
0000
0000
0000
0000
0001
0000
0000
0010
0000
0000
0000
0000
0000
0100
0000
0000
0000
0000
0000
1000
0000
0000
0000
0001
0000
0100
0000
0000
0000
0000
0000
0010
0000
0000
0000
1000
0000
,
0010
0000
0000
0000
0000
0000
1000
0000
0000
0100
0000
0000
0000
0000
0000
1000
0000
0000
0001
0000
0000
0000
0000
0000
0100
0000
0000
0000
0000
0000
0001
0000
0000
0000
0000
0000
1000
0000
0000
0000
0000
0000
0010
0000
1000
0000
0001
0000
,
0100
0000
0000
0010
0000
0000
1000
0000
0000
0001
0000
0000
0010
0000
0000
0001
1000
0100
0010
0000
0000
0100
0000
0000
,
1000
0000
0000
0000
0000
0000
0010
0000
0000
0100
0000
0000
0000
0000
0000
0001
0000
0000
1000
0000
0000
0000
0000
0000
0100
0000
0000
0000
0000
0000
1000
0000
0000
0000
0000
0000
0001
0000
0000
0000
0000
0000
0010
0000
0001
0000
0010
0000
,
0100
0000
0000
0010
0000
0000
0001
0000
1000
0001
0000
0010
0001
0000
0000
1000
0000
0010
1000
0000
0000
0100
0000
0000
,
1000
0000
0000
0000
0000
0000
0010
0000
0000
1000
0000
0000
0000
0000
0000
0001
0000
0000
0010
0000
0000
0000
0000
0000
0001
0000
0000
0000
0000
0000
1000
0000
0000
0000
0000
0000
0001
0000
0000
0000
0000
0000
0010
0000
0100
0000
1000
0000
,
0001
0000
0000
1000
0000
0000
0010
0000
0000
1000
0000
0000
0001
0000
0000
0010
0000
0001
1000
0000
0000
0100
0000
0000
,
1100
0000
0000
0000
0000
0000
0000
0000
0000
0010
0000
0000
0000
0000
0000
0000
0000
0000
1001
0000
0000
0000
0000
0000
0000
0000
0000
0000
0000
0000
0000
0000
0000
0000
0000
0000
0001
0000
1000
0000
0100
0000
0010
0000
0000
0000
0001
0000
,
1000
0000
0000
0100
0000
0000
1000
0000
0000
0001
0000
0000
1000
0000
0000
0100
0000
1000
0010
0000
1000
0001
0000
0010
,
0100
0000
0000
0000
;

//---------------dance-single - S-HEAVY----------------
#NOTEDATA:;
#CHARTNAME:DJ OMiY-HSP;
#STEPSTYPE:dance-single;
#DESCRIPTION:S-HEAVY;
#CHARTSTYLE:;
#DIFFICULTY:Hard;
#METER:7;
#RADARVALUES:0.408891,0.420090,0.199691,0.155315,0.118335,339.000000,27.000000,21.000000,0.000000,0.000000,0.000000,0.000000,0.000000,0.408891,0.420090,0.199691,0.155315,0.118335,339.000000,27.000000,21.000000,0.000000,0.000000,0.000000,0.000000,0.000000;
#CREDIT:DJ OMiY;
#NOTES:
0000
0000
0000
0000
,
0000
0000
0000
0000
,
0000
0000
0000
0000
,
1000
0100
0001
0100
,
1000
0002
0000
0000
0000
0000
0103
0000
,
1001
0100
0010
0001
,
1000
0100
0010
0001
,
2000
0000
0000
3020
0000
0000
0130
0000
,
0001
0010
0100
1000
,
0001
1000
0100
1000
0000
0010
1000
0010
,
0000
0100
0001
1000
0000
0010
1000
0100
,
0110
0011
0110
1100
,
1001
0000
0101
0000
1010
0000
0001
0100
,
0010
1010
1100
1010
,
1001
0000
0101
0000
0010
0001
0010
0100
,
1000
1100
0110
0011
,
0101
0000
1010
0000
1001
0000
1000
0001
,
0100
0110
1001
0110
,
0001
0000
1000
0000
0000
0100
0000
0000
0010
0000
0000
0001
0000
0000
1000
0000
,
0001
1000
0100
0010
0000
0001
1000
0010
,
0000
0100
0001
0010
0000
0100
1000
0100
,
1000
0001
0100
0010
0000
1000
0001
0100
,
0000
0010
1000
0100
1000
0001
0001
0010
,
0100
0010
0001
1000
0000
0010
0100
0010
,
0000
1000
0001
0100
0000
0010
1000
0001
,
2000
0100
0001
0100
,
3002
0000
0000
0000
0103
0000
0000
0000
0001
0000
0000
1000
0000
0000
0100
0000
,
0020
0000
0000
0001
0000
0000
0000
0000
,
0230
0000
2300
0000
,
3002
0000
0000
0100
0000
0000
0000
0000
,
2000
0000
0000
3003
,
0210
0010
0010
0010
,
0020
0000
0300
0000
,
2000
0000
0030
0000
,
3200
0000
0320
0000
,
0032
0000
0000
0000
,
0000
0000
0023
0000
,
0230
0000
0000
0000
,
0000
0000
0000
0000
2300
0000
0000
3001
,
0100
0000
0000
0100
0000
0000
0100
0000
0000
0000
0000
0000
0000
0000
0010
0000
,
1000
0000
0000
0000
0000
0001
1000
0001
,
0010
0000
0000
0010
0000
0000
0010
0000
0000
0000
0000
0000
0000
0000
0100
0000
,
0010
0000
0000
0001
1000
0100
0010
0100
,
1000
0000
0000
1000
0000
0000
1000
0000
0000
0000
0000
0000
0000
0000
0001
0000
,
0100
0000
0000
0000
0000
0001
1000
0001
,
0010
0000
0000
1000
0000
0000
0010
0000
0000
0000
0000
0000
0001
0000
1000
0000
,
0001
0000
0000
0010
0000
0000
0200
0000
0000
0000
2300
0000
0000
0000
3010
0000
,
1000
0000
0000
0001
0000
0000
1000
0000
0100
0000
0000
0000
0010
0000
0001
0000
,
1000
0000
0010
0000
0100
0001
1000
0100
,
1000
0000
0000
0001
0000
0000
0010
0000
0001
0000
0000
0000
1000
0000
0001
0000
,
0100
0000
0010
0100
0010
1000
0100
0010
,
0001
0000
0000
0010
0000
0000
0100
0000
1000
0000
0000
0000
0010
0000
1000
0000
,
0001
0000
1000
0000
0100
1000
0010
1000
,
0100
0000
0000
0100
0000
0000
1100
0000
0000
0000
1000
0001
0000
0010
0000
0000
,
0001
0000
1000
0001
0000
0100
0000
0010
0000
0100
0000
0001
1000
0000
0001
0000
,
0100
0000
0000
0010
0000
0000
1000
0000
0100
0000
1000
0000
0001
0000
0100
0000
,
0010
0000
0100
0000
0001
0010
0100
1000
,
0001
0000
0000
0100
0000
0000
0010
0000
1000
0000
0100
0000
1000
0000
0010
0000
,
0100
0000
0010
0100
0001
0001
0010
0010
,
0100
0000
0000
1000
0000
0000
0001
0000
0100
0000
0010
0000
1000
0000
0100
0000
,
0010
0000
0100
0000
0010
0001
1000
0001
,
0100
0000
0000
0010
0000
0000
0110
0000
0000
0000
1000
0000
0001
0000
1000
0000
,
0100
0000
0000
1000
0000
0000
0001
0000
0100
0000
0010
0000
0100
0000
0001
0000
,
1000
0000
0000
0010
0000
0000
0100
0000
0001
0000
0010
0000
0100
0000
0010
0000
,
0001
0000
1000
0000
0010
1000
0001
1000
,
0010
0000
0000
0100
0000
0000
0010
0000
1000
0000
0100
0000
0001
0000
0100
0000
,
1000
0000
0010
0100
0010
1000
1000
0001
,
0001
0000
0000
0010
0000
0000
0100
0000
0010
0000
0100
0000
1000
0000
0001
0000
,
0100
0000
0001
0000
0010
0001
0010
0100
,
1100
0000
0000
0010
0000
0000
0101
0000
0000
0000
0000
0000
1000
0000
0001
0000
,
0010
0000
0000
0000
0000
0000
0000
0000
0000
0100
0000
0000
0000
0000
0000
0000
0000
0000
0010
0000
0000
0000
0000
0000
0001
0000
0000
0000
0000
0000
1000
0000
0000
0000
0001
0000
1000
0000
0000
0000
0001
0000
1000
0000
0000
0000
0001
0000
,
1000
0000
0000
0000
;

//---------------dance-single - S-STANDARD----------------
#NOTEDATA:;
#CHARTNAME:DJ OMiY-SSP;
#STEPSTYPE:dance-single;
#DESCRIPTION:S-STANDARD;
#CHARTSTYLE:;
#DIFFICULTY:Medium;
#METER:5;
#RADARVALUES:0.307461,0.315068,0.051772,0.147919,0.036980,264.000000,7.000000,20.000000,0.000000,0.000000,0.000000,0.000000,0.000000,0.307461,0.315068,0.051772,0.147919,0.036980,264.000000,7.000000,20.000000,0.000000,0.000000,0.000000,0.000000,0.000000;
#CREDIT:DJ OMiY;
#NOTES:
0000
0000
0000
0000
,
0000
0000
0000
0000
,
0000
0000
0000
0000
,
0100
0000
0100
0000
,
1000
0001
0000
0000
0000
0000
0000
0000
,
1001
0001
1000
0001
,
1000
0001
1000
0001
,
0100
0010
0100
0010
,
0100
0010
0100
0010
,
1000
0001
0000
0010
0000
0100
0000
1000
,
0000
0001
0000
0010
0000
0100
1000
0001
,
0100
0010
1000
0001
,
1000
0000
0010
0000
0100
0000
0001
0010
,
1000
0010
0001
1000
,
0010
0000
0100
0000
0001
1000
0100
1000
,
0001
0100
0010
0100
,
1000
0000
0100
0000
0001
0000
1000
0100
,
1000
0001
0010
0100
,
0020
0000
0001
0000
0100
0000
0031
1000
,
1001
0000
0100
0000
0010
1000
0001
0000
,
1000
0000
0100
0000
1000
0001
0010
0000
,
0100
0000
1000
0000
0001
0100
0010
0000
,
1000
0000
0001
0000
0100
0010
0100
0001
,
0100
0000
0010
0000
1000
0100
1000
0000
,
0001
0000
0100
0000
0010
0100
0001
0000
,
0020
0100
0100
0130
,
1000
0000
0000
0000
0001
0000
0000
0000
0100
0000
0000
0100
0000
0000
0010
0000
,
2000
0000
0000
0001
0000
0000
0000
0000
,
0010
0000
0010
0000
,
3002
0000
0000
0100
0000
0000
0000
0000
,
2000
0000
0000
3003
,
0220
0000
0000
0000
,
0000
0000
0030
0000
,
0002
0000
0000
0000
,
0000
0000
0300
0000
,
2000
0000
0000
0000
,
0003
0000
3020
0000
,
0200
0000
0000
0000
,
0030
0000
0302
0000
,
1003
0000
0000
1000
0000
0000
2000
0000
0000
0000
0000
0000
3000
0000
0000
0000
,
0001
0000
0010
0100
,
0010
0000
0000
0010
0000
0000
0020
0000
0000
0000
0000
0000
0030
0000
0000
0000
,
0100
0000
0000
0000
1000
0000
0001
0100
,
0001
0000
0000
0001
0000
0000
0002
0000
0000
0000
0000
0000
0003
0000
0000
0000
,
1000
0000
0000
0010
,
2000
0000
0000
3100
0000
0000
0010
0000
,
0002
0000
0000
0103
0000
0100
0000
0000
,
0010
1000
0010
1000
,
0001
0000
0100
0000
0001
0010
0100
0000
,
1000
0100
1000
0100
,
0010
0000
0001
0000
0010
0001
1000
0000
,
0010
0100
0010
0100
,
0001
0000
0100
0000
0001
0000
1000
0010
,
2000
0000
0000
3001
0000
0000
0110
0000
,
0001
0000
0010
0000
0001
1000
0100
0010
,
0001
0000
0000
0001
0000
0000
0001
0000
0000
0000
0000
0000
1000
0000
0100
0000
,
1000
0010
0100
1001
,
1000
0000
0000
1000
0000
0000
1000
0000
0000
0000
0000
0000
0001
0000
0100
0000
,
0001
0000
0010
0000
0100
1000
0100
1000
,
0010
0000
0000
0010
0000
0000
0010
0000
0000
0000
0000
0000
0100
0000
0001
0000
,
0100
0000
0010
0000
1000
0001
1000
0000
,
0200
0000
0000
0310
0000
0000
1001
0000
,
0002
0000
0000
0013
0000
0001
1000
0001
,
0100
0000
0000
0100
0000
0000
0100
0000
0000
0000
0000
0000
0010
0000
1000
0000
,
0001
0000
1000
0000
0100
1000
0001
0010
,
0001
0000
0000
0001
0000
0000
0001
0000
0000
0000
0000
0000
1000
0000
0010
0000
,
1000
0000
0001
1000
0001
0010
0001
0000
,
1000
0000
0000
1000
0000
0000
1000
0000
0000
0000
0000
0000
0010
0000
0100
0000
,
0001
0000
0010
0000
0100
1000
0100
1000
,
0001
0000
0000
1001
0000
0000
1000
0100
,
0010
0100
1000
0100
1000
0100
0010
0001
,
0001
0000
0000
0000
;

//---------------dance-single - S-LIGHT----------------
#NOTEDATA:;
#CHARTNAME:DJ OMiY-LSP;
#STEPSTYPE:dance-single;
#DESCRIPTION:S-LIGHT;
#CHARTSTYLE:;
#DIFFICULTY:Easy;
#METER:2;
#RADARVALUES:0.201804,0.241293,0.059168,0.266254,0.000000,147.000000,8.000000,36.000000,0.000000,0.000000,0.000000,0.000000,0.000000,0.201804,0.241293,0.059168,0.266254,0.000000,147.000000,8.000000,36.000000,0.000000,0.000000,0.000000,0.000000,0.000000;
#CREDIT:DJ OMiY;
#NOTES:
0000
0000
0000
0000
,
0000
0000
0000
0000
,
0000
0000
0000
0000
,
0010
0000
0010
0000
,
0020
0000
0000
0030
,
2002
0000
3000
0000
,
0020
0000
0003
0000
,
0200
0000
0030
0000
,
2000
0000
0300
0000
,
3001
0001
0000
1000
,
0000
0001
0000
1000
,
0100
0100
0100
0000
,
0010
0010
0010
0000
,
0001
0001
0001
0000
,
0100
0100
0100
0000
,
0010
1000
0010
0000
,
0100
0001
0100
0000
,
0001
1000
0001
0000
,
1000
0100
1000
0000
,
0001
1000
0000
0010
,
0000
0100
0000
0001
,
0000
0010
0000
0100
,
0000
1000
0000
0001
,
0100
0001
0000
1000
,
0000
0001
0000
0010
,
0200
0000
0000
0000
,
0000
0000
1300
0100
,
0020
0000
0000
0000
,
0032
0000
0000
0000
,
2003
0000
0000
0000
,
3100
0000
0000
0000
,
0120
0000
0000
0000
,
0032
0000
0000
0000
,
2003
0000
0000
0000
,
3020
0000
0000
0000
,
0230
0000
0000
0000
,
0302
0000
2003
0000
,
3200
0000
0000
0000
,
0000
0000
0320
0000
,
0031
0001
0000
1000
,
1001
0000
0000
0100
,
0010
0000
1000
0000
,
1001
0000
0001
0000
,
0001
0010
0000
0100
,
0110
0000
0000
0100
,
1000
0000
0001
0000
,
0100
0100
0000
0010
,
0020
0000
2030
0000
,
3200
0000
0320
0000
,
0032
0000
0203
0000
,
0320
0000
2030
0000
,
3020
0000
2030
0000
,
3002
0000
0203
0000
,
0320
0000
1030
0001
,
0200
0000
0310
0110
,
1001
0000
1000
0100
,
1000
0000
0001
0000
,
0010
0001
0100
0000
,
0010
0000
1000
0001
,
1000
0000
0100
0000
,
1000
0000
0001
0100
,
0001
0000
0010
0000
,
0100
0010
0100
0010
,
0100
0000
1000
0000
,
0001
0000
0100
0010
,
0100
0000
0001
0000
,
1000
0000
0100
0010
,
0001
0000
1000
0000
,
0001
0000
1000
0010
,
2002
0000
0000
3003
0000
0000
0100
0000
,
0001
0010
0100
1000
,
2000
0000
0000
0000
,
0000
0000
3000
0000
;

//---------------dance-single - BEGINNER----------------
#NOTEDATA:;
#CHARTNAME:DJ OMiY-BEG;
#STEPSTYPE:dance-single;
#DESCRIPTION:BEGINNER;
#CHARTSTYLE:;
#DIFFICULTY:Beginner;
#METER:1;
#RADARVALUES:0.123618,0.157534,0.029584,0.133127,0.000000,95.000000,4.000000,18.000000,0.000000,0.000000,0.000000,0.000000,0.000000,0.123618,0.157534,0.029584,0.133127,0.000000,95.000000,4.000000,18.000000,0.000000,0.000000,0.000000,0.000000,0.000000;
#CREDIT:DJ OMiY;
#NOTES:
0000
0000
0000
0000
,
0000
0000
0000
0000
,
0000
0000
0000
0000
,
0000
0000
0000
0000
,
0000
0000
0000
0000
,
2002
0000
0000
0000
,
3003
0000
0000
0000
,
0220
0000
0000
0000
,
0330
0000
0000
0000
,
0000
0001
0000
1000
,
0000
0001
0000
0000
,
0100
0000
0000
0000
,
0010
0000
0000
0000
,
1000
0000
0000
0000
,
0100
0000
0010
0000
,
0100
0000
0000
0000
,
0010
0000
0000
0000
,
0001
0000
0000
0000
,
1000
0000
0001
0000
,
0100
0100
0000
0100
,
0000
0010
0000
0000
,
0000
0100
0000
0001
,
0000
0001
0000
0000
,
0000
1000
0000
0100
,
0000
1000
0000
0000
,
0220
0000
0000
0000
,
0330
0000
0000
0001
,
0002
0000
0000
0000
,
0003
0000
0000
0000
,
2000
0000
0000
0000
,
3000
0000
0000
0000
,
0200
0000
0000
0000
,
0000
0000
0000
0000
,
0000
0000
0000
0000
,
0300
0000
0000
0000
,
0020
0000
0000
0000
,
0030
0000
0000
0000
,
0002
0000
0000
0000
,
0003
0000
0100
0000
,
0010
0010
0000
0000
,
1000
0000
0000
0000
,
0001
0001
0000
0000
,
0010
0000
0100
0000
,
1000
1000
0000
0000
,
0001
0000
0000
0000
,
0200
0000
0000
0300
0000
0000
0000
0000
,
0020
0000
0000
0030
0000
0000
0000
0000
,
1000
1000
0000
0000
,
0001
0000
0000
0000
,
0010
0010
0000
0000
,
0100
0000
1000
0000
,
0001
0001
0000
0000
,
1000
0000
0000
0000
,
0002
0000
0000
0003
0000
0000
0000
0000
,
2000
0000
0000
3000
0000
0000
0010
0000
,
0010
0010
0000
1000
,
1000
0000
0001
0000
,
0010
0010
0000
0100
,
0100
0000
1000
0000
,
0001
0001
0000
0100
,
0100
0000
0010
0000
,
1000
1000
0000
0100
,
0200
0000
0300
0000
,
1000
1000
0000
0001
,
0001
0000
0010
0000
,
0100
0100
0000
0010
,
0010
0000
0001
0000
,
1000
1000
0000
0100
,
0100
0000
0010
0000
,
0002
0000
0000
0003
0000
0000
0000
0000
,
2000
0000
0000
3000
0000
0000
0000
0000
,
1001
0000
0000
0000
;

//---------------dance-double - D-CHALLENGE----------------
#NOTEDATA:;
#CHARTNAME:DJ OMiY-CDP;
#STEPSTYPE:dance-double;
#DESCRIPTION:D-CHALLENGE;
#CHARTSTYLE:;
#DIFFICULTY:Challenge;
#METER:10;
#RADARVALUES:0.606468,0.603880,0.125731,0.147919,0.488133,537.000000,17.000000,20.000000,0.000000,0.000000,0.000000,0.000000,0.000000,0.606468,0.603880,0.125731,0.147919,0.488133,537.000000,17.000000,20.000000,0.000000,0.000000,0.000000,0.000000,0.000000;
#CREDIT:DJ OMiY;
#NOTES:
// measure 0
00000000
00000000
00000000
00000000
,  // measure 1
00000000
00000000
00000000
00000000
,  // measure 2
00000000
00000000
00000000
00000000
,  // measure 3
00001000
00010000
00001000
00010000
00001000
00010000
00001000
00010000
,  // measure 4
00001000
00010000
00001000
00010000
00001000
00010000
00000000
00000000
,  // measure 5
00010100
00000100
00001000
00000010
00000001
00000010
00000100
00000001
,  // measure 6
00000010
00000100
00001000
00000100
00001000
00010000
00100000
00010000
,  // measure 7
10000000
01000000
00100000
00010000
01000000
00100000
00010000
00001000
,  // measure 8
00100000
00010000
00001000
00000100
00010000
00001000
00000100
00000010
,  // measure 9
00000001
00000000
00000000
00000010
00000000
00000100
00000010
00000000
00000000
00001000
00000000
00000000
00000000
00000000
00000000
00000001
00000000
00001000
00000100
00000000
00000000
00010000
00000000
00000000
,  // measure 10
00000000
00000000
00000000
00001000
00000000
00100000
00010000
00000000
00000000
00100000
00000000
00000000
00000000
00000000
00010000
10000000
00000000
00000000
00010000
00000000
00000000
01000000
00000000
00100000
,  // measure 11
10000000
00010000
00100000
01000000
00100000
00001000
00010000
00000100
,  // measure 12
00010000
00001000
00000100
00000010
00000100
00000001
00001001
00000110
,  // measure 13
00001001
00000000
00000000
00001000
00000000
00000000
00000100
00000000
00000000
00010000
00000000
00000000
00001000
00000000
00000000
00100000
00000000
00000000
01000000
00000000
00000000
00100000
00000000
00010000
,  // measure 14
10000000
00000000
00000000
00100000
00000000
00000000
01000000
00000000
00000000
00001000
00000000
00000000
00010000
00000000
00000000
00001000
00000000
00010000
00001000
00000000
00000000
01000000
00000000
00000000
,  // measure 15
10000000
01000000
00100000
01000000
00010000
10000000
01000000
00100000
,  // measure 16
00001000
00010000
00000010
00000100
00000001
00000100
00001100
00000110
,  // measure 17
00000101
00000000
00000000
00001000
00000000
00000000
00000100
00000000
00000000
00001000
00000000
00000000
00000010
00000000
00000000
00010000
00000000
00000000
00001000
00000000
00000000
00100000
00000000
00010000
,  // measure 18
10000000
00000000
00000000
01000000
00000000
00000000
10000000
00000000
00000000
00010000
00000000
00000000
00100000
00000000
00000000
00001000
00000000
00010000
00001000
00000000
00000000
00011000
00000000
00000000
,  // measure 19
00000010
00000000
00000000
00001000
00000000
00000001
00000100
00000000
00000000
00000001
00000000
00000000
00001000
00000000
00000000
00000100
00000000
00010000
00001000
00000000
00000000
00100000
00000000
00000000
,  // measure 20
00010000
00000000
00000000
00100000
00000000
01000000
10000000
00000000
00000000
00010000
00000000
00000000
01000000
00000000
00000000
00100000
00000000
00010000
00100000
00000000
00000000
01000000
00000000
00000000
,  // measure 21
00001000
00000000
00000000
00010000
00000000
00001000
00010000
00000000
00000000
00000100
00000000
00000000
00000010
00000000
00000000
00000001
00000000
00000100
00000010
00000000
00000000
00010000
00000000
00001000
,  // measure 22
00010000
00000000
00000000
00001000
00000000
00100000
00010000
00000000
00000000
01000000
00000000
00000000
00100000
00000000
00000000
10000000
00000000
00010000
01000000
00000000
00000000
00100000
00000000
10000000
,  // measure 23
00100000
00000000
00000000
01000000
00000000
00010000
00100000
00000000
00000000
00001000
00000000
00000000
00010000
00000000
00000000
00001000
00000000
00000100
00000010
00000000
00000000
00000100
00000000
00000000
,  // measure 24
00000001
00000000
00000000
00000010
00000000
00000001
00001000
00000000
00000000
00000100
00000000
00000000
00010000
00000000
00001000
00100000
00000000
00000000
00010000
00000000
00000000
10000000
00000000
00010000
,  // measure 25
01000000
10000000
01000000
00010000
,  // measure 26
00100000
00000000
01000000
00000000
10000000
00000000
00010000
00000000
10000000
00000000
00000000
00010000
00000000
00000000
00001000
00000000
,  // measure 27
00000001
00000100
00001000
00010000
,  // measure 28
01000000
10000000
00100000
00010000
,  // measure 29
00001000
00000100
00000001
00000010
,  // measure 30
00000200
00000000
00001000
00000000
00000000
00001000
00000000
00000000
00001000
00000000
00000000
00001000
00000000
00000000
00000300
00000000
,  // measure 31
00020100
00001000
00001000
00001000
,  // measure 32
00032000
00000000
02003000
00000000
,  // measure 33
00200000
00000000
03000000
00000000
,  // measure 34
20300000
00000000
32000000
00000000
,  // measure 35
00200000
00000000
00000000
00000000
,  // measure 36
03000000
00000000
00320000
00000000
,  // measure 37
00002000
00000000
00000000
00000000
,  // measure 38
00030000
00000000
00000000
00000000
00000000
00000000
00000000
00000000
00000000
00000000
00000000
00000000
00003002
00000000
00000000
00000000
00000000
00000000
00000003
00000000
00000000
00001000
00000000
00000010
,  // measure 39
00000100
00000000
00000000
00000000
00000000
00000000
00000001
00000000
00000000
00001000
00000000
00000000
00000000
00000000
00000000
00000100
00000000
00000000
00010000
00000000
00000000
00000000
00000000
00000000
00000000
00000000
00000000
00000000
00000000
00000000
00000000
00000000
00000000
00000000
00000000
00000000
00000000
00000000
00000000
00000000
00000000
00000000
00001000
00000000
00010000
00000000
00001000
00000000
,  // measure 40
00010000
00000000
00000000
00000000
00000000
00000000
00000000
00000000
00000000
00000000
00000000
00000000
00000000
00000000
00000000
00001000
00100000
00001000
00100000
00000000
00000000
00010000
00000000
00000000
,  // measure 41
10000000
00000000
00000000
00000000
00000000
00000000
00010000
00000000
00000000
01000000
00000000
00000000
00000000
00000000
00000000
00100000
00000000
00000000
01000000
00000000
00000000
00000000
00000000
00000000
00000000
00000000
00000000
00000000
00000000
00000000
00000000
00000000
00000000
00000000
00000000
00000000
00000000
00000000
00000000
00000000
00000000
00000000
00010000
00000000
00100000
00000000
00010000
00000000
,  // measure 42
00100000
00000000
00000000
00000000
00000000
00000000
00000000
00000000
00001000
00010000
00000000
00010000
00001000
00000000
00000000
00010000
00000000
00000000
00000100
00000000
00000000
00001000
00000001
00001000
,  // measure 43
00000001
00000000
00000000
00000000
00000000
00000000
00000010
00000000
00000000
00000001
00000000
00000000
00000000
00000000
00000000
00000100
00000000
00000000
00000010
00000000
00000000
00000000
00000000
00000000
00000000
00000000
00000000
00000000
00000000
00000000
00000000
00000000
00000000
00000000
00000000
00000000
00000000
00000000
00000000
00000000
00000000
00000000
00001000
00000000
00000001
00000000
00001000
00000000
,  // measure 44
00000001
00000000
00000000
00000000
00000000
00000000
00000000
00000000
00000000
00000000
00000000
00000000
00000000
00000000
00000000
00000010
00000000
00000100
00000010
00000000
00000000
00000100
00000000
00000000
,  // measure 45
00002000
00000000
00000000
00000000
00000000
00000000
00000000
00000000
00000000
00003200
00000000
00000000
00000000
00000000
00000000
00000000
00000000
00000000
00020300
00000000
00000000
00000000
00000000
00000000
00000000
00000000
00000000
00000000
00000000
00000000
00000000
00000000
00000000
00030000
00000000
00000000
00001000
00000000
00100000
00000000
00001000
00000000
00100000
00000000
00000000
00000000
00000000
00000000
,  // measure 46
00020000
00000000
00000000
00000000
00000000
00000000
00000000
00000000
00000000
20030000
00000000
00000000
00000000
00000000
00000000
00000000
00000000
00000000
32000000
00000000
00000000
00000000
00000000
00000000
03000000
00000000
00000000
00000000
00000000
00000000
01100000
00000000
00000000
00000000
00000000
00000000
00000000
00000000
00000000
00000000
00000000
00000000
00100000
00000000
00000000
00000000
00010000
00000000
,  // measure 47
01000000
00000000
00000000
00000000
00000000
00000000
00100000
00000000
00000000
10000000
00000000
00000000
00000000
00000000
00000000
10000000
00000000
00000000
00010000
00000000
00000000
00000000
00000000
00000000
00100000
00000000
00000000
00000000
00000000
00000000
00000000
00000000
00000000
00000000
00000000
00000000
00001000
00000000
00000000
00000000
00000000
00000000
00010000
00000000
00000100
00000000
00010000
00000000
,  // measure 48
00000100
00000000
00000000
00000000
00000000
00000000
00001000
00000000
00000000
00000000
00000000
00000000
00000001
00000000
00000000
00000010
00000001
00000010
00000001
00000000
00000000
00001000
00000000
00000000
,  // measure 49
00000010
00000000
00000000
00000000
00000000
00000000
00010000
00000000
00000000
00000100
00000000
00000000
00000000
00000000
00000000
00010000
00000000
00000000
00001000
00000000
00000000
00000000
00000000
00000000
00010000
00000000
00000000
00000000
00000000
00000000
00000000
00000000
00000000
00000000
00000000
00000000
01000000
00000000
00000000
00000000
00000000
00000000
10000000
00000000
00010000
00000000
10000000
00000000
,  // measure 50
00010000
00000000
00000000
00000000
00000000
00000000
01000000
00000000
00100000
10000000
00000000
00100000
01000000
00000000
00000000
00100000
00000000
00000000
10000000
00000000
00000000
00010000
00100000
00010000
,  // measure 51
00100000
00000000
00000000
00000000
00000000
00000000
00001000
00000000
00000000
00010000
00000000
00000000
00000000
00000000
00000000
00000100
00000000
00000000
00010000
00000000
00000000
00000000
00000000
00000000
00000100
00000000
00000000
00000000
00000000
00000000
00000000
00000000
00000000
00000000
00000000
00000000
00000010
00000000
00000000
00000000
00000000
00000000
00000100
00000000
00000010
00000000
00000100
00000000
,  // measure 52
00000010
00000000
00000000
00000000
00000000
00000000
00000001
00000000
00000000
00000000
00000000
00000000
00001000
00000000
00000000
00000100
00000000
00010000
00001000
00000000
00000000
01000000
00000000
00000000
,  // measure 53
00200000
00000000
00000000
20300000
00000000
00000000
32000000
00000000
00000000
00000000
03100000
01000000
00000000
01100000
00000000
00100000
,  // measure 54
00001000
00000000
00010000
00001000
00000000
00010000
00000100
00001000
00000000
00001100
00000000
00001000
00000001
00000000
00000010
00000001
,  // measure 55
00000100
00000000
00000000
00000000
00000000
00000000
00000010
00000000
00000000
00010000
00000000
00000000
00000000
00000000
00000000
00001000
00000000
00000000
00100000
00000000
00000000
00000000
00000000
00000000
00010000
00000000
00000000
00000000
00000000
00000000
10000000
00000000
00000000
00000000
00000000
00000000
00010000
00000000
00000000
00000000
00000000
00000000
00100000
00000000
00001000
00000000
00100000
00000000
,  // measure 56
00001000
00000000
00000000
00010000
00000000
00000000
00000100
00000000
00000000
00001000
00000000
00000000
00000010
00000000
00000000
00001000
00000001
00001000
00000001
00000000
00000000
00000010
00000000
00000000
,  // measure 57
00000100
00000000
00000000
00000000
00000000
00000000
00001000
00000000
00000000
00000100
00000000
00000000
00000000
00000000
00000000
00010000
00000000
00000000
00001000
00000000
00000000
00000000
00000000
00000000
01000000
00000000
00000000
00000000
00000000
00000000
00010000
00000000
00000000
00000000
00000000
00000000
10000000
00000000
00000000
00000000
00000000
00000000
00010000
00000000
00100000
00000000
00010000
00000000
,  // measure 58
00100000
00000000
00000000
01000000
00000000
00000000
10000000
00000000
00010000
01000000
00000000
00100000
01000000
00000000
00000000
00010000
00000000
10000000
01000000
00000000
00000000
00100000
00000000
00001000
,  // measure 59
00010000
00000000
00000000
00000000
00000000
00000000
00000100
00000000
00000000
00000010
00000000
00000000
00000000
00000000
00000000
00000001
00000000
00000000
00000100
00000000
00000000
00000000
00000000
00000000
00000010
00000000
00000000
00000000
00000000
00000000
00001000
00000000
00000000
00000000
00000000
00000000
00000010
00000000
00000000
00000000
00000000
00000000
00000100
00000000
00000010
00000000
00000100
00000000
,  // measure 60
00000010
00000000
00000000
00010000
00000000
00000000
00000100
00000000
00000000
00010000
00000000
00000000
00001000
00000000
00000000
00100000
00000000
00010000
00100000
00000000
00000000
01000000
00000000
00000000
,  // measure 61
10000000
00000000
00000000
00000000
00000000
00000000
00000000
00000000
00000000
10010000
00000000
00000000
00000000
00000000
00000000
00000000
00000000
00000000
00010000
00000000
00000000
00000000
00000000
00000000
00100000
00000000
00000000
00000000
00000000
00000000
00001000
00000000
00000000
00000000
00000000
00000000
00010000
00000000
00000100
00000000
00010000
00000000
00000100
00000000
00000000
00000000
00000000
00000000
,  // measure 62
00001000
00000000
00000000
00000000
00000000
00000000
00000000
00000000
00000000
00000101
00000000
00000000
00000000
00000000
00000000
00000000
00000000
00000000
00000010
00000000
00000000
00000000
00000000
00000000
00000100
00000000
00000000
00000000
00000000
00000000
00001000
00000000
00000000
00000000
00000001
00000000
00000100
00000000
00000000
00000000
00000000
00000000
00000001
00000000
00000000
00000000
00001000
00000000
,  // measure 63
00000100
00000000
00000000
00000000
00000000
00000000
00010000
00000000
00000000
00001000
00000000
00000000
00000000
00000000
00000000
00001000
00000000
00000000
00100000
00000000
00000000
00000000
00000000
00000000
00010000
00000000
00000000
00000000
00000000
00000000
10000000
00000000
00000000
00000000
00000000
00000000
01000000
00000000
00000000
00000000
00000000
00000000
10000000
00000000
00010000
00000000
10000000
00000000
,  // measure 64
00100000
00000000
00000000
01000000
00000000
00000000
00010000
00000000
00000000
00100000
00000000
00000000
00001000
00000000
00000000
00010000
00000100
00010000
00001000
00000000
00000000
00100000
00000000
00000000
,  // measure 65
00010000
00000000
00000000
00000000
00000000
00000000
01000000
00000000
00000000
00100000
00000000
00000000
00000000
00000000
00000000
10000000
00000000
00000000
00010000
00000000
00000000
00000000
00000000
00000000
01000000
00000000
00000000
00000000
00000000
00000000
00001000
00000000
00000000
00000000
00000000
00000000
00100000
00000000
00000000
00000000
00000000
00000000
00010000
00000000
10000000
00000000
00010000
00000000
,  // measure 66
01000000
00000000
00000000
00100000
00000000
00000000
10000000
00000000
01000000
00100000
00000000
00001000
00010000
00000000
00000000
00000100
00000000
00001000
00000010
00000000
00000000
00000100
00000000
00000001
,  // measure 67
00001000
00000000
00000000
00000000
00000000
00000000
00000100
00000000
00000000
00001000
00000000
00000000
00000000
00000000
00000000
00001000
00000000
00000000
00000010
00000000
00000000
00000000
00000000
00000000
00000100
00000000
00000000
00000000
00000000
00000000
00000001
00000000
00000000
00000000
00000000
00000000
00001000
00000000
00000000
00000000
00000000
00000000
00000100
00000000
00001000
00000000
00000100
00000000
,  // measure 68
00001000
00000000
00000000
00000010
00000000
00000000
00010000
00000000
00000000
00001000
00000000
00000000
00100000
00000000
00000000
00010000
00000000
10000000
01000000
00000000
00000000
10000000
00000000
00000000
,  // measure 69
01010000
00000000
00000000
00000000
00000000
00000000
00000000
00000000
00000000
10010000
00000000
00000000
00000000
00000000
00000000
00000000
00000000
00000000
11000000
00000000
00000000
00000000
00000000
00000000
00000000
00000000
00000000
00000000
00000000
00000000
00010000
00000000
00000000
00000000
00000000
00000000
10000000
00000000
01000000
00000000
10000000
00000000
00010000
00000000
00000000
00000000
00100000
00000000
,  // measure 70
00001000
00000000
00000000
00010000
00000000
00000000
00000100
00000000
00000000
00000010
00000000
00000000
00000001
00000000
00000000
00001000
00000000
00000001
00000100
00000000
00000001
00001000
00000000
00000100
,  // measure 71
00000010
00000000
00000000
00000000
;

//---------------dance-double - D-HEAVY----------------
#NOTEDATA:;
#CHARTNAME:DJ OMiY-HDP;
#STEPSTYPE:dance-double;
#DESCRIPTION:D-HEAVY;
#CHARTSTYLE:;
#DIFFICULTY:Hard;
#METER:7;
#RADARVALUES:0.394099,0.446346,0.236671,0.155315,0.103543,320.000000,32.000000,21.000000,0.000000,0.000000,0.000000,0.000000,0.000000,0.394099,0.446346,0.236671,0.155315,0.103543,320.000000,32.000000,21.000000,0.000000,0.000000,0.000000,0.000000,0.000000;
#CREDIT:DJ OMiY;
#NOTES:
// measure 0
00000000
00000000
00000000
00000000
,  // measure 1
00000000
00000000
00000000
00000000
,  // measure 2
00000000
00000000
00000000
00000000
,  // measure 3
10000000
01000000
00010000
01000000
,  // measure 4
20000000
00020000
00000000
00000000
00000000
00000000
30030000
00000000
,  // measure 5
10010000
00100000
10000000
00100000
,  // measure 6
00010000
00001000
00000010
00000001
,  // measure 7
00000010
00001000
00010000
00100000
,  // measure 8
10000000
00100000
00010000
00001000
,  // measure 9
00000110
00000001
00001000
00000001
00000000
00001000
00000100
00001000
,  // measure 10
00000000
00000100
00010000
00001000
00000000
00100000
00010000
10000000
,  // measure 11
10100000
01010000
00110000
00101000
,  // measure 12
00011000
00000000
00010100
00000000
00001100
00000000
00000010
00000001
,  // measure 13
00000101
00001100
00000101
00001010
,  // measure 14
00011000
00000000
01001000
00000000
00110000
00010000
10000000
01000000
,  // measure 15
11000000
01100000
01010000
00110000
,  // measure 16
00101000
00000000
00011000
00000000
00001010
00000000
00000001
00001000
,  // measure 17
00002100
00000001
00000010
00003001
,  // measure 18
00000200
00000000
00010000
00000000
00000000
00010000
00000000
00000000
00010000
00000000
00000000
00010000
00000300
00000000
00010000
00000000
,  // measure 19
00001000
00100000
00010000
10000000
00000000
00100000
01000000
00001000
,  // measure 20
00000000
00010000
00000100
00010000
00000000
00001000
00000100
00000010
,  // measure 21
00000100
00000010
00001000
00000001
00000000
00000010
00000100
00001000
,  // measure 22
00000000
00000100
00010000
00001000
00000000
00100000
00010000
10000000
,  // measure 23
00010000
01000000
10000000
01000000
00000000
00100000
01000000
00010000
,  // measure 24
00000000
00100000
00001000
00010000
00000000
00000100
00000010
00000001
,  // measure 25
00002001
00000100
00000100
00000100
,  // measure 26
00003200
00000000
00000000
00000000
00010000
00000000
00000000
00000000
00010300
00000000
00000000
00001000
00000000
00000000
00100000
00000000
,  // measure 27
00020000
10000000
10000000
10000000
,  // measure 28
02030000
00100000
03200000
10000000
,  // measure 29
20300000
00000000
00000000
00020000
00000000
00000000
00000000
00000000
,  // measure 30
30030000
00000000
00000000
00001000
,  // measure 31
00021000
00001000
00001000
00031000
,  // measure 32
00000200
00000000
00000302
00000000
,  // measure 33
00000023
00000000
00000000
00000000
,  // measure 34
00002030
00000000
00023000
00000000
,  // measure 35
02030000
00000000
00000000
00000000
,  // measure 36
00000000
00000000
23000000
00000000
,  // measure 37
00020000
00000000
00000000
00000000
,  // measure 38
30000000
00000000
02000000
03030000
,  // measure 39
01001000
00000000
00000000
00001000
00000000
00000000
00001000
00000000
00000000
00000000
00000000
00000000
00000000
00000000
00010000
00000000
,  // measure 40
00000100
00000000
00000000
00000000
00000000
00001000
00000001
00001000
,  // measure 41
00000010
00000000
00000000
00000010
00000000
00000000
00000010
00000000
00000000
00000000
00000000
00000000
00000000
00000000
00001000
00000000
,  // measure 42
00000100
00000000
00000000
00000100
00010000
00000000
00011000
00000000
,  // measure 43
00100000
00000000
00000000
00100000
00000000
00000000
00100000
00000000
00000000
00000000
00000000
00000000
00000000
00000000
01000000
00000000
,  // measure 44
10000000
00000000
00000000
00000000
00000000
00010000
01000000
00010000
,  // measure 45
01000000
00000000
00000000
00010000
00000000
00000000
00110000
00000000
00000000
00000000
00000000
00000000
00100000
00000000
00001000
00000000
,  // measure 46
00010000
00000000
00000000
00010000
00000000
00000000
00000100
00000000
00000000
00000000
00000010
00000000
00000000
00000000
00000001
00000000
,  // measure 47
00001000
00000000
00000000
00001000
00000000
00000000
00001000
00000000
00000000
00000000
00000000
00000000
00000000
00000000
00000100
00000000
,  // measure 48
00010000
00000000
00000000
00000000
00000000
00001000
00100000
00001000
,  // measure 49
00010000
00000000
00000000
00010000
00000000
00000000
00010000
00000000
00000000
00000000
00000000
00000000
00000000
00000000
01000000
00000000
,  // measure 50
00100000
00000000
00000000
00010000
10000000
01000000
10000000
01000000
,  // measure 51
00100000
00000000
00000000
00100000
00000000
00000000
00100000
00000000
00000000
00000000
00000000
00000000
00000000
00000000
00001000
00000000
,  // measure 52
00010000
00000000
00000000
00000000
00000000
00000100
00000010
00000001
,  // measure 53
00001000
00000000
00000000
00000001
00000000
00000000
00001001
00000000
00000000
00000000
00000001
00000100
00000000
00000010
00000000
00000000
,  // measure 54
00001000
00000000
00000000
00000010
00000000
00000100
00000000
00000010
00000000
00010000
00000000
00001000
00010000
00000000
01000000
00000000
,  // measure 55
10000000
00000000
00000000
10000000
00000000
00000000
10000000
00000000
00010000
00000000
00000000
00000000
01000000
00000000
00010000
00000000
,  // measure 56
00100000
00000000
00001000
00000000
00010000
00000100
00000010
00000100
,  // measure 57
00001000
00000000
00000000
00001000
00000000
00000000
00001000
00000000
00000001
00000000
00000000
00000000
00000100
00000000
00000010
00000000
,  // measure 58
00010000
00000000
00001000
00100000
01000000
01000000
10000000
10000000
,  // measure 59
00010000
00000000
00000000
00010000
00000000
00000000
00010000
00000000
00100000
00000000
00000000
00000000
00001000
00000000
00010000
00000000
,  // measure 60
00001000
00000000
00000100
00000000
00000010
00001000
00000001
00000010
,  // measure 61
00000100
00000000
00000000
00000100
00000000
00000000
00000100
00000000
00010000
00000000
00000000
00000000
00001000
00000000
01000000
00000000
,  // measure 62
00010000
00000000
00000000
00010000
00000000
00000000
00010000
00000000
10000000
00000000
01000000
00000000
00100000
00000000
00010000
00000000
,  // measure 63
10010000
00000000
00000000
10000000
00000000
00000000
10000000
00000000
00010000
00000000
00000000
00000000
00100000
00000000
00001000
00000000
,  // measure 64
00010000
00000000
00000010
00000000
00000100
00001000
00000100
00000001
,  // measure 65
00001000
00000000
00000000
00001000
00000000
00000000
00001000
00000000
00000001
00000000
00000000
00000000
00000010
00000000
00000100
00000000
,  // measure 66
00001000
00000000
00000100
00010000
00001000
00001000
00100000
00100000
,  // measure 67
01000000
00000000
00000000
01000000
00000000
00000000
01000000
00000000
10000000
00000000
00000000
00000000
00010000
00000000
00100000
00000000
,  // measure 68
00001000
00000000
00010000
00000000
00000100
00001000
00000001
00000010
,  // measure 69
00000001
00000000
00000000
00000001
00000000
00000000
00001001
00000000
00000000
00000000
00000000
00000000
00001000
00000000
00000100
00000000
,  // measure 70
00010000
00001000
01000000
00100000
01000000
10000000
01000000
00010000
,  // measure 71
10000000
00000000
00000000
00000000
;

//---------------dance-double - D-STANDARD----------------
#NOTEDATA:;
#CHARTNAME:DJ OMiY-SDP;
#STEPSTYPE:dance-double;
#DESCRIPTION:D-STANDARD;
#CHARTSTYLE:;
#DIFFICULTY:Medium;
#METER:5;
#RADARVALUES:0.319083,0.341323,0.059168,0.125731,0.055470,277.000000,8.000000,17.000000,0.000000,0.000000,0.000000,0.000000,0.000000,0.319083,0.341323,0.059168,0.125731,0.055470,277.000000,8.000000,17.000000,0.000000,0.000000,0.000000,0.000000,0.000000;
#CREDIT:DJ OMiY;
#NOTES:
// measure 0
00000000
00000000
00000000
00000000
,  // measure 1
00000000
00000000
00000000
00000000
,  // measure 2
00000000
00000000
00000000
00000000
,  // measure 3
00010000
00000000
00001000
00000000
,  // measure 4
00010000
01000000
00000000
00000000
00000000
00000000
00000000
00000000
,  // measure 5
10010000
00010000
01000000
00010000
,  // measure 6
01000000
00010000
01000000
00010000
,  // measure 7
00100000
00001000
00100000
00001000
,  // measure 8
00100000
00001000
00100000
00001000
,  // measure 9
00011000
00001000
00000000
00000100
00000000
00000001
00000000
00000010
,  // measure 10
00000000
00000100
00000000
00001000
00000000
00000100
00010000
00001000
,  // measure 11
00010000
00010000
00001000
00100000
,  // measure 12
00010000
00000000
00010000
00000000
10000000
00000000
01000000
00100000
,  // measure 13
00100000
00100000
01000000
10000000
,  // measure 14
01000000
00000000
01000000
00000000
00100000
00001000
00010000
00000010
,  // measure 15
00000100
00000100
00000001
00001000
,  // measure 16
00000010
00000000
00000010
00000000
00001000
00000000
00000100
00001000
,  // measure 17
00001000
00001000
00000010
00010000
,  // measure 18
00001000
00000000
00001000
00000000
00100000
00010000
10000000
01000000
,  // measure 19
00100000
00010000
00000000
00100000
00000000
00001000
00000000
00010000
,  // measure 20
00000000
00000100
00000000
00001000
00000000
00000010
00000100
00000010
,  // measure 21
00000000
00001000
00000000
00000001
00000000
00000010
00000000
00000100
,  // measure 22
00000000
00001000
00000010
00001000
00000100
00000000
00010100
00000000
,  // measure 23
00101000
00001000
00000000
00010000
00000000
01000000
00000000
00100000
,  // measure 24
00000000
00010000
00000000
10000000
00000000
00100000
01000000
00010000
,  // measure 25
02000000
00100000
00100000
00100000
,  // measure 26
03200000
00000000
00000000
00000000
10000000
00000000
00000000
00000000
10300000
00000000
00000000
01000000
00000000
00000000
00100000
00000000
,  // measure 27
00002000
00000000
00000000
00010000
00000000
00000000
00000000
00000000
,  // measure 28
00003200
00000000
00000320
00000000
,  // measure 29
00002030
00000000
00000000
00000001
00000000
00000000
00000000
00000000
,  // measure 30
00000020
00000000
00000000
00003000
,  // measure 31
00000100
00000100
00000100
00000200
,  // measure 32
00000000
00000000
00000030
00000000
,  // measure 33
00002000
00000000
00000300
00000000
,  // measure 34
00020000
00000000
00003000
00000000
,  // measure 35
02000000
00000000
00000000
00000000
,  // measure 36
00030000
00000000
23000000
00000000
,  // measure 37
00200000
00000000
00000000
00000000
,  // measure 38
30000000
00000000
02000000
00300000
,  // measure 39
03010000
00000000
00000000
00010000
00000000
00000000
00010000
00000000
00000000
00000000
00000000
00000000
00000000
00000000
00100000
00000000
,  // measure 40
00001000
00000000
00010000
00000100
,  // measure 41
00001000
00000000
00000000
00001000
00000000
00000000
00001000
00000000
00000000
00000000
00000000
00000000
00000000
00000000
00000001
00000000
,  // measure 42
00000010
00000000
00000001
00000000
00001000
00000001
00001000
00000000
,  // measure 43
00000010
00000000
00000000
00000010
00000000
00000000
00000010
00000000
00000000
00000000
00000000
00000000
00000000
00000000
00000100
00000000
,  // measure 44
00000010
00000000
00000000
00000000
00001000
00000100
00010000
00000000
,  // measure 45
00002000
00000000
00000000
00103000
00000000
00000000
00010000
00000000
,  // measure 46
20000000
00000000
00000000
31000000
00000000
00100000
00000000
00010000
,  // measure 47
00100000
00000000
00000000
00100000
00000000
00000000
00100000
00000000
00000000
00000000
00000000
00000000
00000000
00000000
00001000
00000000
,  // measure 48
00010000
00000000
00000000
00000000
00000100
00001000
00000100
00000000
,  // measure 49
00000010
00000000
00000000
00000010
00000000
00000000
00000010
00000000
00000000
00000000
00000000
00000000
00000000
00000000
00000001
00000000
,  // measure 50
00001000
00000000
00000000
00000000
00000100
00010000
00001000
00000000
,  // measure 51
00100000
00000000
00000000
00100000
00000000
00000000
00100000
00000000
00000000
00000000
00000000
00000000
00000000
00000000
00010000
00000000
,  // measure 52
01000000
00000000
00000000
00000000
00100000
10000000
00100000
00000000
,  // measure 53
02000000
00000000
00000000
03010000
00000000
00000000
00100000
00000000
,  // measure 54
00001000
00000000
00010000
00000000
00000100
00000010
00000001
00001000
,  // measure 55
00000001
00000000
00000000
00001000
00000000
00000000
00000100
00000000
00001000
00000000
00000000
00000000
00000100
00000000
00010000
00000000
,  // measure 56
00001000
00000000
00100000
00000000
00010000
00100000
01000000
00000000
,  // measure 57
10000000
00000000
00000000
10000000
00000000
00000000
00100000
00000000
01000000
00000000
00000000
00000000
10000000
00000000
01000000
00000000
,  // measure 58
00010000
00000000
00100000
00001000
00010000
00000000
00011000
00000000
,  // measure 59
00000100
00000000
00000000
00001000
00000000
00000000
00000010
00000000
00000100
00000000
00000000
00000000
00000001
00000000
00000010
00000000
,  // measure 60
00000100
00000000
00001000
00000000
00000100
00000000
00010000
00001000
,  // measure 61
00100000
00000000
00000000
00100000
00000000
00000000
00100000
00000000
01000000
00000000
00000000
00000000
10000000
00000000
01000000
00000000
,  // measure 62
10000000
00000000
00000000
10000000
00000000
00000000
01000000
00000000
00100000
00000000
00010000
00000000
00100000
00000000
00001000
00000000
,  // measure 63
00010000
00000000
00000000
00000010
00000000
00000000
00000100
00000000
00000010
00000000
00000000
00000000
00001000
00000000
00000100
00000000
,  // measure 64
00000001
00000000
00000100
00000000
00000010
00000001
00000010
00000000
,  // measure 65
00000001
00000000
00000000
00000001
00000000
00000000
00000100
00000000
00000010
00000000
00000000
00000000
00001000
00000000
00000100
00000000
,  // measure 66
00001000
00000000
00000100
00010000
00001000
00000000
00101000
00000000
,  // measure 67
00100000
00000000
00000000
00010000
00000000
00000000
00100000
00000000
01000000
00000000
00000000
00000000
10000000
00000000
00010000
00000000
,  // measure 68
01000000
00000000
00100000
00000000
10000000
01000000
10000000
00000000
,  // measure 69
01010000
00000000
00000000
10010000
00000000
00000000
10000000
01000000
,  // measure 70
00100000
00000000
00001000
00000000
00010000
00000010
00001000
00000010
,  // measure 71
00000100
00000000
00000000
00000000
;

//---------------dance-double - D-LIGHT----------------
#NOTEDATA:;
#CHARTNAME:DJ OMiY-LDP;
#STEPSTYPE:dance-double;
#DESCRIPTION:D-LIGHT;
#CHARTSTYLE:;
#DIFFICULTY:Easy;
#METER:3;
#RADARVALUES:0.222935,0.236301,0.044376,0.207087,0.000000,177.000000,6.000000,28.000000,0.000000,0.000000,0.000000,0.000000,0.000000,0.222935,0.236301,0.044376,0.207087,0.000000,177.000000,6.000000,28.000000,0.000000,0.000000,0.000000,0.000000,0.000000;
#CREDIT:DJ OMiY;
#NOTES:
// measure 0
00000000
00000000
00000000
00000000
,  // measure 1
00000000
00000000
00000000
00000000
,  // measure 2
00000000
00000000
00000000
00000000
,  // measure 3
00002000
00000000
00000000
00000000
,  // measure 4
00020000
00000000
00033000
00000000
,  // measure 5
00011000
00000000
00000100
00000000
,  // measure 6
00000001
00000000
00000010
00000000
,  // measure 7
00000100
00000000
00001000
00000000
,  // measure 8
00010000
00000000
00100000
00000000
,  // measure 9
11000000
10000000
00000000
00010000
,  // measure 10
00100000
00001000
00000000
00010000
,  // measure 11
00010100
00000100
00001000
00000100
,  // measure 12
00000010
00000001
00002000
00000010
,  // measure 13
00003010
00000100
00000001
00000010
,  // measure 14
00000100
00001000
00000200
00010000
,  // measure 15
00010300
00001000
00100000
00010000
,  // measure 16
10000000
01000000
00100000
01000000
,  // measure 17
20000000
00010000
30010000
01000000
,  // measure 18
00020000
00000000
00100000
00130000
,  // measure 19
00110000
00100000
00000000
00001000
,  // measure 20
00010000
00000100
00000000
00001000
,  // measure 21
00000001
00000010
00000000
00000100
,  // measure 22
00001000
00000010
00002000
00000100
,  // measure 23
00003100
00010000
00000000
00001000
,  // measure 24
00010000
00001000
00000000
00100000
,  // measure 25
00020000
01000000
01000000
01000000
,  // measure 26
02000000
00030000
00100000
00000000
,  // measure 27
03100000
00000000
00000000
00000000
,  // measure 28
10000000
00000000
01000000
00000000
,  // measure 29
00010000
00000000
00000000
00000000
,  // measure 30
00001000
00000000
00000100
00000000
,  // measure 31
00000002
00000000
00000000
00000000
,  // measure 32
00000000
00000000
00000000
00000000
,  // measure 33
00002000
00000000
00000003
00000000
,  // measure 34
00020000
00000000
00003000
00000000
,  // measure 35
02000000
00000000
00000000
00000000
,  // measure 36
00030000
00000000
00200000
03000000
,  // measure 37
20000000
00000000
00000000
00000000
,  // measure 38
00300000
00000000
02000000
33000000
,  // measure 39
00100000
00010000
00000000
00000000
,  // measure 40
00001000
00000000
00000000
00000100
,  // measure 41
00000010
00000001
00000000
00000000
,  // measure 42
00000100
00000000
00000010
00000100
,  // measure 43
00000010
00001000
00000000
00000000
,  // measure 44
00000100
00000000
00000000
00010000
,  // measure 45
00002000
00000000
00000000
00003000
00000000
00000000
00100000
00000000
,  // measure 46
02000000
00000000
00000000
03000000
00000000
00000000
10000000
00000000
,  // measure 47
10000000
01000000
00000000
00000000
,  // measure 48
00100000
00000000
00001000
00010000
,  // measure 49
00001000
00000100
00000000
00000000
,  // measure 50
00000010
00000000
00000100
00000001
,  // measure 51
00001000
00000100
00000000
00000000
,  // measure 52
00010000
00000000
00001000
00100000
,  // measure 53
00020000
00000000
00000000
00030000
00000000
00000000
10010000
00000000
,  // measure 54
00100000
00100000
01000000
00001000
,  // measure 55
00010000
00000100
00001000
00000100
,  // measure 56
00000020
00000030
00000001
00001000
,  // measure 57
00000010
00010000
00000100
00010000
,  // measure 58
00002000
00003000
00100000
00100000
,  // measure 59
00010000
10000000
00100000
01000000
,  // measure 60
00020000
00030000
10000000
01000000
,  // measure 61
02000000
00000000
00000000
03000000
00000000
00000000
00100000
00000000
,  // measure 62
00020000
00000000
00000000
00030000
00100000
00000000
00001000
00000000
,  // measure 63
00011000
00010000
00000100
00000100
,  // measure 64
00002000
00003000
00000001
00000100
,  // measure 65
00000010
00001000
00000100
00000100
,  // measure 66
00020000
00030000
00001000
00100000
,  // measure 67
00010000
00100000
01000000
10000000
,  // measure 68
00200000
00300000
01000000
00001000
,  // measure 69
00020000
00000000
00000000
00030000
00000000
00000000
00000100
00000000
,  // measure 70
00001000
00000010
00001000
00000100
,  // measure 71
00010000
00000000
00000000
00000000
;
