#VERSION:0.81;
#TITLE:cloche;
#SUBTITLE:;
#ARTIST:Qrispy Joybox;
#TITLETRANSLIT:;
#SUBTITLETRANSLIT:;
#ARTISTTRANSLIT:;
#GENRE:Bell Pop;
#ORIGIN:;
#CREDIT:;
#BANNER:cloche-bn.png;
#BACKGROUND:cloche-bg.png;
#PREVIEWVID:;
#JACKET:cloche-jk.png;
#CDIMAGE:;
#DISCIMAGE:;
#LYRICSPATH:;
#CDTITLE:;
#MUSIC:cloche.ogg;
#OFFSET:0.000000;
#SAMPLESTART:64.603195;
#SAMPLELENGTH:13.186813;
#SELECTABLE:YES;
#BPMS:0.000=182.000;
#STOPS:;
#DELAYS:;
#WARPS:;
#TIMESIGNATURES:0.000=4=4;
#TICKCOUNTS:0.000=4;
#COMBOS:0.000=1;
#SPEEDS:0.000=1.000=0.000=0;
#SCROLLS:0.000=1.000;
#FAKES:;
#LABELS:0.000=Song Start;
#BGCHANGES:;
#KEYSOUNDS:;
#ATTACKS:
;

//---------------dance-single - BEGINNER----------------
#NOTEDATA:;
#CHARTNAME:xRGTMx-BEG;
#STEPSTYPE:dance-single;
#DESCRIPTION:BEGINNER;
#CHARTSTYLE:;
#DIFFICULTY:Beginner;
#METER:2;
#RADARVALUES:0.164591,0.287584,0.045005,0.072008,0.000000,115.000000,5.000000,8.000000,0.000000,0.000000,0.000000,0.000000,0.000000,0.164591,0.287584,0.045005,0.072008,0.000000,115.000000,5.000000,8.000000,0.000000,0.000000,0.000000,0.000000,0.000000;
#CREDIT:xRGTMx;
#NOTES:
0000
0000
0000
0000
,
0000
0000
0000
0000
,
0000
0000
0000
0000
,
0000
0000
0000
0000
,
0010
0000
0000
0000
,
0100
0000
0000
0010
,
0010
0000
0000
0000
0000
0000
0000
0100
,
0000
0000
0000
0000
,
0001
0000
0000
0000
0000
0000
0000
0001
,
0000
0000
0000
0000
,
1000
0000
0000
0000
0000
0000
0000
1000
,
0000
0000
0000
0000
,
0001
0000
0000
0000
0000
0000
0000
0001
,
0000
0000
0000
0000
,
1000
0000
0000
0000
0000
0000
0000
1000
,
0000
0000
0000
0000
,
0000
0010
0000
0010
,
0000
0010
0000
0010
,
0000
0000
0010
0000
0000
0000
0020
0030
,
0000
0000
0000
0000
,
0000
0100
0000
0100
,
0000
0100
0000
0100
,
0000
0000
0100
0000
0000
0000
0200
0300
,
0000
0000
0000
0000
,
0001
0000
0000
0000
0000
0000
0000
0001
,
0000
0000
0000
0001
0000
0000
0000
0000
,
0100
0000
0000
0000
0100
0000
0000
0100
,
0000
0000
0000
0000
,
0010
0000
0000
0000
0000
0000
0000
0010
,
0000
0000
0000
0010
0000
0000
0000
0000
,
1000
0000
0000
0000
1000
0000
0000
1000
,
0000
0000
0000
0000
,
0001
0000
0010
0000
,
0001
0000
0010
0000
,
0100
0000
0000
0000
1000
0000
0000
0100
,
0000
0000
0000
0000
,
1000
0000
0010
0000
,
1000
0000
0010
0000
,
0100
0000
0000
0000
0001
0000
0000
0100
,
0000
0000
0000
0000
,
0001
0000
0000
0000
0000
0000
0000
0010
,
0000
0000
0000
0000
,
0001
0000
0000
0000
0000
0000
0000
1001
,
0000
0000
0000
0000
,
1000
0000
0000
0000
0000
0000
0000
0010
,
0000
0000
0000
0000
,
1000
0000
0000
0000
0000
0000
0000
1001
,
0000
0000
0000
0000
,
0000
0000
0000
0000
,
0000
0010
0000
0010
,
0000
0010
0000
0010
,
0000
0000
0010
0000
0000
0000
0020
0030
,
0000
0000
0000
0000
,
0000
0100
0000
0100
,
0000
0100
0000
0100
,
0000
0000
0100
0000
0000
0000
0200
0300
,
0000
0000
0000
0000
,
0000
0001
0000
0010
,
0000
0000
0001
0000
0000
0100
0000
0100
,
0000
0000
0001
0000
0000
0000
2002
3003
,
0000
0000
0000
0000
,
1000
0000
0010
0000
,
1000
0000
0000
0000
0000
0100
0000
0100
,
0000
0000
1000
0000
0000
0000
2002
3003
,
0000
0000
0000
0000
,
0001
0000
0000
0000
0000
0010
0000
0010
,
0000
0000
0000
0000
0000
0100
0000
0000
,
0100
0000
0000
0000
0000
1000
0000
1000
,
0000
0000
0000
0000
0000
0001
0000
0000
,
1000
0000
0000
0000
0000
0010
0000
0010
,
0000
0000
0000
0000
0000
0100
0000
0000
,
0100
0000
0000
0000
0000
0001
0000
0001
,
0000
0000
0000
0000
0000
1000
0000
0000
,
0000
0001
0000
0001
,
0000
0000
0000
0100
0000
0000
0000
0100
,
0000
0001
0000
0001
,
0000
0000
0000
1000
0000
0000
0000
0000
,
0000
1000
0000
1000
,
0000
0000
0000
0100
0000
0000
0000
0100
,
0000
0000
1000
0000
1000
0000
0000
1001
;

//---------------dance-single - S-LIGHT----------------
#NOTEDATA:;
#CHARTNAME:xRGTMx-LSP;
#STEPSTYPE:dance-single;
#DESCRIPTION:S-LIGHT;
#CHARTSTYLE:;
#DIFFICULTY:Easy;
#METER:5;
#RADARVALUES:0.284176,0.369044,0.144017,0.162019,0.000000,187.000000,16.000000,18.000000,0.000000,0.000000,0.000000,0.000000,0.000000,0.284176,0.369044,0.144017,0.162019,0.000000,187.000000,16.000000,18.000000,0.000000,0.000000,0.000000,0.000000,0.000000;
#CREDIT:xRGTMx;
#NOTES:
// measure 0
0000
0000
0000
0000
,  // measure 1
0000
0000
0000
0000
,  // measure 2
0000
0000
0000
0000
,  // measure 3
0000
0000
0000
0000
,  // measure 4
1000
0001
0000
0001
,  // measure 5
0100
0000
0000
0100
0000
0000
0010
0000
,  // measure 6
0010
0000
0000
1000
0000
0000
0000
1000
,  // measure 7
0000
0000
0000
0000
,  // measure 8
0001
0000
0010
0000
0100
0000
0000
0010
,  // measure 9
0000
0000
0000
0001
0000
0000
0000
1000
,  // measure 10
0000
0000
0001
0000
0100
0000
0000
0020
,  // measure 11
0000
0000
0000
0030
,  // measure 12
1000
0000
0010
0000
0100
0000
0000
0010
,  // measure 13
0000
0000
0000
1000
0000
0000
0000
0001
,  // measure 14
0000
0000
1000
0000
0100
0000
0000
0020
,  // measure 15
0000
0000
0000
0030
,  // measure 16
0001
0100
0000
0100
,  // measure 17
1000
0100
0000
0100
,  // measure 18
0001
0000
0100
0000
0000
0010
0000
2002
,  // measure 19
0000
0000
3003
0000
,  // measure 20
1000
0100
0000
0100
,  // measure 21
0001
0100
0000
0100
,  // measure 22
1000
0000
0100
0000
0010
0000
0000
2002
,  // measure 23
0000
0000
3003
0000
,  // measure 24
0001
0000
0000
0000
0100
0000
0000
0001
,  // measure 25
0000
0001
0000
1000
0000
0000
0000
0000
,  // measure 26
0100
0000
0000
0000
1000
0000
0000
1002
,  // measure 27
0000
0000
0103
0001
,  // measure 28
1000
0000
0000
0000
0100
0000
0000
1000
,  // measure 29
0000
1000
0000
0001
0000
0000
0000
0000
,  // measure 30
0100
0000
0000
0000
0001
0000
0000
2001
,  // measure 31
0000
0000
3000
0000
,  // measure 32
0000
0001
0001
0010
,  // measure 33
0010
0001
0000
0100
,  // measure 34
0100
0000
0010
0000
0010
0000
0000
1000
,  // measure 35
0000
0000
0001
0000
,  // measure 36
0000
1000
0010
0010
,  // measure 37
1000
1000
0000
0100
,  // measure 38
0100
0000
0010
0000
0010
0000
0000
0002
,  // measure 39
0000
0000
0003
0000
,  // measure 40
1000
0000
0000
0000
0010
0000
0000
1000
,  // measure 41
0000
0000
0000
1000
0000
0001
0000
0000
,  // measure 42
0001
0000
0000
0000
0010
0000
0000
0001
,  // measure 43
0000
0001
0000
0100
0000
0000
0001
0000
,  // measure 44
1000
0000
0000
0000
0100
0000
0000
1000
,  // measure 45
0000
0000
0000
1000
0000
0001
0000
0000
,  // measure 46
0001
0000
0000
0000
0100
0000
0000
0002
,  // measure 47
0000
0000
0000
0000
,  // measure 48
0000
0000
0003
0000
,  // measure 49
1000
0010
0000
0010
,  // measure 50
0001
0010
0000
0010
,  // measure 51
1000
0000
0010
0000
0000
0100
0000
2002
,  // measure 52
0000
0000
3003
0000
,  // measure 53
0001
0010
0000
0010
,  // measure 54
1000
0010
0000
0010
,  // measure 55
0001
0000
0010
0000
0100
0000
0000
2002
,  // measure 56
0000
0000
3003
0000
,  // measure 57
0000
1000
0100
0100
,  // measure 58
1000
0000
0000
0010
0000
0100
0000
0100
,  // measure 59
0000
0000
0001
0000
0010
0000
0000
0002
,  // measure 60
0000
1000
0000
1003
,  // measure 61
0000
0001
0100
0100
,  // measure 62
0001
0000
0000
0010
0000
0100
0000
0100
,  // measure 63
0000
0000
1000
0000
0010
0000
0000
2000
,  // measure 64
0000
0000
0000
3000
,  // measure 65
0001
0000
0000
0000
0000
1001
0000
1001
,  // measure 66
0000
0000
0000
0000
0000
0010
0000
0000
,  // measure 67
1000
0000
0000
0000
0000
0110
0000
0110
,  // measure 68
0000
0000
0000
0000
0000
0001
0000
0000
,  // measure 69
1000
0000
0000
0000
0000
1001
0000
1001
,  // measure 70
0000
0000
0000
0000
0000
0010
0000
0000
,  // measure 71
0001
0000
0000
0000
0000
0110
0000
0110
,  // measure 72
0000
0000
0000
0000
0000
1000
0000
0000
,  // measure 73
0001
0001
0010
0010
,  // measure 74
0100
0000
0000
1000
0000
0001
0000
1000
,  // measure 75
0000
0001
0100
0100
,  // measure 76
0010
0000
0000
1001
0000
0000
0000
0000
,  // measure 77
1000
1000
0100
0100
,  // measure 78
0010
0000
0000
0001
0000
1000
0000
0001
,  // measure 79
0000
0000
0100
0000
0010
0000
0000
2002
,  // measure 80
0000
0000
0000
0000
,  // measure 81
0000
0000
0000
0000
,  // measure 82
3003
0000
0000
0000
;

//---------------dance-single - S-STANDARD----------------
#NOTEDATA:;
#CHARTNAME:xRGTMx-SSP;
#STEPSTYPE:dance-single;
#DESCRIPTION:S-STANDARD;
#CHARTSTYLE:;
#DIFFICULTY:Medium;
#METER:7;
#RADARVALUES:0.465483,0.590470,0.513061,0.198023,0.000000,283.000000,57.000000,22.000000,0.000000,0.000000,0.000000,0.000000,0.000000,0.465483,0.590470,0.513061,0.198023,0.000000,283.000000,57.000000,22.000000,0.000000,0.000000,0.000000,0.000000,0.000000;
#CREDIT:xRGTMx;
#NOTES:
0000
0000
0000
0000
,
0000
0000
0000
0000
,
0000
0000
0000
0000
,
0000
0000
0000
0000
,
0001
0000
1000
0010
0000
1000
0000
0100
,
0000
0100
0000
0010
0000
0001
0100
0000
,
0001
0000
1000
0100
0000
0010
0000
2002
,
0000
0000
0000
3003
,
1000
0000
0001
0000
0010
0000
0001
0100
,
0000
0010
0000
1010
0000
0011
0000
1001
,
0000
1000
0100
0000
0010
0000
0100
2000
,
0000
0010
0000
3001
,
1000
0000
0001
0000
0100
0000
0001
0010
,
0000
0100
0000
1100
0000
0101
0000
1001
,
0000
1000
0010
0000
0100
0000
0010
2000
,
0000
0000
0000
0000
0000
0001
3000
0001
,
0000
1000
0000
1100
0000
0001
0000
0101
,
0000
1000
0000
1010
0000
0001
0000
0011
,
0000
1000
0000
1100
0000
0001
0000
0102
,
0000
1000
0000
1003
,
0000
1000
0000
1100
0000
0001
0000
0101
,
0000
1000
0000
1010
0000
0001
0000
0011
,
0000
1000
0100
0000
0110
0000
0001
2000
,
0000
0000
0000
3000
,
0010
0000
0010
0000
1000
0000
1000
0001
,
0000
0010
0000
0110
0000
0100
1000
0000
,
0001
0000
0001
0000
1000
0000
1000
0020
,
0000
0000
0130
0010
,
0100
0000
0100
0000
0001
0000
0001
1000
,
0000
0100
0000
0110
0000
0010
0001
0000
,
1000
0000
1000
0000
0001
0000
0001
0200
,
0000
0010
0300
0010
,
0000
1000
0010
1000
,
0100
0000
0100
0010
0000
0001
0010
0100
,
0000
0000
0010
0000
0001
0000
0001
2000
,
0000
0000
0001
0000
0000
0000
3100
1000
,
0000
0001
0010
0001
,
0100
0000
0100
0010
0000
1000
0010
0100
,
0000
0000
0010
0000
1000
0000
1000
0002
,
0000
0000
0003
0000
,
1010
0000
0100
0000
0001
1000
0000
1100
,
0000
0001
0000
0101
0000
1000
0100
0000
,
0110
0000
0010
0000
0001
1000
0000
0010
,
0000
1000
0100
0010
0000
0000
0001
0000
,
0011
0000
0100
0000
1000
0001
0000
0101
,
0000
1000
0000
1100
0000
0001
0100
0000
,
0110
0000
0010
0000
1000
0001
0000
0020
,
0000
0000
0000
0000
,
0000
0000
0030
0001
,
1000
0001
0000
0011
0000
1000
0000
1010
,
0000
0001
0000
0101
0000
1000
0000
1100
,
0000
0001
0000
0011
0000
1000
0000
2010
,
0000
0001
0000
3001
,
0000
0001
0000
0011
0000
1000
0000
1010
,
0000
0001
0000
0101
0000
1000
0000
1100
,
0000
0001
0010
0000
0110
0000
1000
0002
,
0000
0000
0000
0000
0000
0000
0003
1000
,
0001
0011
0110
0100
,
1000
0000
0010
1000
0000
1100
0000
0101
,
0000
0000
0001
0000
1000
0000
0100
0020
,
0000
1000
0000
0031
,
1000
1010
0110
0100
,
0001
0000
0010
0001
0000
0101
0000
1100
,
0000
0000
1000
0000
0001
0000
0100
0020
,
0000
0000
0000
0030
,
0100
0000
0100
0001
0000
1000
0000
1100
,
0000
0100
0000
0110
0000
0010
0001
0000
,
2000
0000
0000
0010
0000
0000
0000
0002
,
0000
0000
3003
0001
,
0010
0000
0010
0100
0000
1000
0000
1001
,
0000
0001
0000
0101
0000
0100
0010
1000
,
0002
0000
0000
0100
0000
0000
0000
2000
,
0000
0000
3003
0000
,
1000
0010
1000
0100
,
0010
0100
0000
0110
0000
1001
0000
0101
,
0000
0100
0010
0000
0010
0000
1000
0000
,
0001
0010
0100
2000
0000
0000
0100
0000
,
3001
0010
0001
0100
,
0010
0100
0000
0110
0000
1001
0000
1100
,
0000
0100
1000
0000
1000
0010
0200
0002
,
0000
0000
0000
0000
,
0000
0000
0000
0000
,
0303
0000
0000
0000
;

//---------------dance-single - S-HEAVY----------------
#NOTEDATA:;
#CHARTNAME:xRGTMx-HSP;
#STEPSTYPE:dance-single;
#DESCRIPTION:S-HEAVY;
#CHARTSTYLE:;
#DIFFICULTY:Hard;
#METER:9;
#RADARVALUES:0.650648,0.664278,0.693082,0.234028,0.009001,403.000000,77.000000,26.000000,0.000000,0.000000,0.000000,0.000000,0.000000,0.650648,0.664278,0.693082,0.234028,0.009001,403.000000,77.000000,26.000000,0.000000,0.000000,0.000000,0.000000,0.000000;
#CREDIT:xRGTMx;
#NOTES:
0000
0000
0000
0000
,
0000
0000
0000
0000
,
0000
0000
0000
0000
,
0000
0000
0000
0000
,
0110
0000
1000
0001
0000
0011
0000
0010
,
0001
0100
0000
1010
0000
1000
0010
0100
,
0001
0000
1000
0100
0000
0101
0000
2002
,
0000
0000
0000
3003
,
1000
0010
1000
0100
0010
0001
0000
0101
,
0000
0011
0000
1010
0000
1100
0000
1001
,
0000
0001
0100
0010
1000
0100
0010
0200
,
0000
1300
0100
1000
0010
1000
0001
1000
,
0001
0010
0001
0100
0010
1000
0000
1100
,
0000
1010
0000
0011
0000
0101
0000
1001
,
0000
1000
0100
0010
0001
0100
0010
0200
,
0000
0000
0000
0000
0000
1000
0000
0301
,
0100
0001
0010
1100
0000
1000
0010
0101
,
0000
0001
0010
1100
0000
1000
0010
0101
,
0000
0001
0010
1100
0000
1000
0010
0102
,
0000
0000
0010
0000
1000
1000
0000
0100
,
0003
1000
0010
0101
0000
0001
0010
1100
,
0000
1000
0010
0101
0000
0001
0010
1100
,
0000
1000
0010
0100
0001
0010
0100
2002
,
0000
0000
0000
3003
,
1010
0000
0010
1000
0100
1000
0000
0101
,
0000
0011
0000
0110
0000
0100
1000
0001
,
0100
0000
0010
0100
0001
1000
0100
2000
,
0000
0010
0010
0000
3001
0010
0100
1000
,
0001
0000
0010
0001
0100
0001
0000
1100
,
0000
1010
0000
0110
0000
0100
0001
1000
,
0100
0000
0010
0100
1000
0001
0100
0002
,
0000
0010
0000
1003
,
0001
0010
1000
0010
0001
0010
0000
0001
,
0100
0000
1000
0000
0100
0000
0001
0000
0000
0000
0001
1000
0001
0000
0010
0000
,
0000
0001
0010
0100
1000
0010
0001
0020
,
0000
0100
0100
0000
0001
0000
1030
0000
,
1000
0100
0001
0100
1000
0100
0000
1000
,
0010
0000
0001
0000
0010
0000
1000
0000
0000
0000
1000
0001
1000
0000
0100
0000
,
0000
1000
0100
0010
0001
0100
1000
0200
,
0000
0000
0000
0300
,
1001
0000
0001
0010
0100
0001
0000
0011
,
0000
1010
0000
1100
0000
1000
0010
0100
,
0001
0000
1010
0000
0100
0001
0000
1100
,
0000
0010
0001
0100
0000
0001
0100
0010
,
1001
0000
1000
0010
0100
1000
0000
1010
,
0000
0011
0000
0101
0000
0001
0010
0100
,
1000
0000
0011
0000
0100
1000
0000
2002
,
0000
0000
0000
0000
,
0000
0000
3003
0000
,
0001
1000
0100
0011
0000
0001
0100
1010
,
0000
1000
0100
0011
0000
0001
0100
1010
,
0000
1000
0100
0011
0000
0001
0100
2010
,
0000
3010
1000
0001
1000
0100
1000
0001
,
0000
0001
0100
1010
0000
1000
0100
0011
,
0000
0001
0100
1010
0000
1000
0100
0011
,
0000
0001
0100
0010
1000
0100
0010
2002
,
0000
0000
0000
0000
3003
1001
0000
1001
,
1000
0010
0100
0010
1000
0100
0010
0001
,
0010
0100
1000
0010
0000
1010
0000
0101
,
0000
0001
0010
1000
0010
0001
0100
0200
,
0000
0010
0010
0000
1000
0000
0301
0000
,
0001
0010
0100
0010
0001
0100
0010
1000
,
0010
0100
0001
0010
0000
0011
0000
1100
,
0000
1000
0010
0001
0010
1000
0100
0022
,
0000
0000
0000
0033
,
1001
0000
0001
1000
0000
1010
0000
0011
,
0000
0100
0000
1001
0000
1000
0010
1000
,
0020
0000
0000
0001
0000
0100
0000
0230
,
0000
0000
0000
0001
0000
1000
0000
0000
,
0301
0000
1000
0001
0000
0011
0000
1010
,
0000
0100
0000
1001
0000
0001
0010
0001
,
0020
0000
0000
1000
0000
0100
0000
0230
,
0000
0000
0000
0000
0000
0310
0000
0000
,
1001
1000
0010
0100
0001
0100
0010
1000
,
0100
1000
0000
0101
0000
1010
0000
1001
,
0000
0001
0010
0100
1000
0010
0100
1000
,
0100
0001
0100
0002
1000
0000
1003
0000
,
0001
1000
0100
0010
0001
0010
0100
1000
,
0010
1000
0000
0011
0000
1100
0000
1001
,
0000
0001
0010
1000
0001
0100
2000
0002
,
0000
0000
0000
0000
,
0000
0000
0000
0000
,
3003
0000
0000
0000
;

//---------------dance-double - D-LIGHT----------------
#NOTEDATA:;
#CHARTNAME:xRGTMx-LDP;
#STEPSTYPE:dance-double;
#DESCRIPTION:D-LIGHT;
#CHARTSTYLE:;
#DIFFICULTY:Easy;
#METER:4;
#RADARVALUES:0.204453,0.332139,0.054006,0.027003,0.000000,150.000000,6.000000,3.000000,0.000000,0.000000,0.000000,0.000000,0.000000,0.204453,0.332139,0.054006,0.027003,0.000000,150.000000,6.000000,3.000000,0.000000,0.000000,0.000000,0.000000,0.000000;
#CREDIT:xRGTMx;
#NOTES:
00000000
00000000
00000000
00000000
,
00000000
00000000
00000000
00000000
,
00000000
00000000
00000000
00000000
,
00000000
00000000
00000000
00000000
,
00010000
00000000
00000000
00000000
,
01000000
00000000
00000000
00100000
,
00100000
00000000
00000000
00000000
00000000
00000000
00000000
10010000
,
00000000
00000000
00000000
00000000
,
10000000
00000000
00000000
00000000
01000000
00000000
00000000
00100000
,
00000000
00000000
00000000
00100000
00000000
00000000
00000000
00001000
,
00000000
00000000
00010000
00000000
00000000
00000000
00000000
00000100
,
00000000
00000000
00000010
00000000
,
00000001
00000000
00000000
00000000
00000100
00000000
00000000
00000010
,
00000000
00000000
00000000
00000010
00000000
00000000
00000000
00010000
,
00000000
00000000
00001000
00000000
00000000
00000000
00000000
01000000
,
00000000
00000000
00000000
00000000
00000000
00100000
00000000
00100000
,
00000000
10000000
00000000
10000000
,
00000000
00010000
00000000
00010000
,
00000000
00000000
10000000
00000000
10000000
00000000
00000000
10000000
,
00000000
00000000
00000000
00000000
,
00000000
00001000
00000000
00001000
,
00000000
00010000
00000000
00010000
,
00000000
00000000
00001000
00000000
00001000
00000000
00000000
00001000
,
00000000
00000000
00000000
00000000
,
00010000
00000000
00000000
00000000
00000000
00000000
00000000
00000100
,
00000000
00000000
00000000
00000100
00000000
00000000
00000000
00000000
,
00001000
00000000
00000000
00000000
00000000
00000000
00000000
00000001
,
00000000
00000000
00001000
00000000
,
00000010
00000000
00000000
00000000
00010000
00000000
00000000
00001000
,
00000000
00000000
00000000
00001000
00000000
00000000
00000000
00000000
,
00100000
00000000
00000000
00000000
01000000
00000000
00000000
01000000
,
00000000
00000000
00000000
00000000
,
10000000
00000000
00000000
00100000
00000000
00000000
00000000
01000000
,
00000000
01000000
00000000
00010000
00000000
00000000
00000000
00000000
,
00100000
00000000
00000000
00001000
00000000
00000000
00000000
00010000
,
00000000
00010000
00000000
00000000
00000000
00000000
00000000
00000000
,
00000100
00000000
00000000
00001000
00000000
00000000
00000000
00000010
,
00000000
00000100
00000000
00000010
00000000
00000000
00000000
00000000
,
00001000
00000000
00000000
00000001
00000000
00000000
00000000
00000220
,
00000000
00000000
00000000
00000000
00000000
00000330
00000000
00000000
00000000
00000000
00000000
00000000
00000000
00000000
00000000
00000000
,
00001001
00000000
00000001
00000000
,
00000100
00000000
00000100
00000000
,
00000010
00000000
00010000
00000000
,
00001000
00010000
00001000
00000000
,
00100000
00000000
01000000
00000000
,
10000000
00000000
10000000
00000000
,
00100000
00000000
01000000
00000000
00100000
00000000
00000000
00011000
,
00000000
00000000
00000000
00000000
,
00000000
00000000
00000000
00000000
,
00000000
00000001
00000000
00000001
,
00000000
00001000
00000000
00001000
,
00000000
00000000
00000001
00000000
00000001
00000000
00000000
00000001
,
00000000
00000000
00000000
00000000
,
00000000
00010000
00000000
00010000
,
00000000
00001000
00000000
00001000
,
00000000
00000000
00010000
00000000
00010000
00000000
00000000
00010000
,
00000000
00000000
00000000
00000000
,
00001000
00000000
00100000
00000000
,
01000000
00000000
00000000
10000000
00000000
00010000
00000000
10000000
,
00000000
00000000
00100000
00000000
01000000
00000000
00000000
01000000
,
00000000
00000000
00000000
00000000
,
00001000
00000000
00010000
00000000
,
00000010
00000000
00000000
00001000
00000000
00000001
00000000
00001000
,
00000000
00000000
00000100
00000000
00000100
00000000
00000000
00001001
,
00000000
00000000
00000000
00000000
,
00000001
00000000
00000000
00000000
00000000
00000100
00000000
00000100
,
00000000
00000000
00000000
00000000
00000000
00000010
00000000
00000000
,
00010000
00000000
00000000
00000000
00000000
00001000
00000000
00001000
,
00000000
00000000
00000000
00000000
00000000
00100000
00000000
00000000
,
00010000
00000000
00000000
00000000
00000000
10000000
00000000
10000000
,
00000000
00000000
00000000
00000000
00000000
00100000
00000000
00000000
,
01000000
00000000
00000000
00000000
00000000
00010000
00000000
00010000
,
00000000
00000000
00000000
00000000
00000000
00100000
00000000
00000000
,
00001000
00000000
00010000
00000000
,
00001000
00000000
00000000
00010000
00000000
00010000
00000000
00000100
,
00000000
00000010
00000000
00000100
,
00000100
00000000
00000000
00001000
00000000
00000000
00000000
00000000
,
00000010
00000000
00001000
00000000
,
00000010
00000000
00000000
00010000
00000000
00001000
00000000
00010000
,
00000000
00000000
00001000
00000000
00100000
00000000
00000000
20010000
,
00000000
00000000
00000000
00000000
,
00000000
00000000
00000000
00000000
,
30000000
00000000
00000000
00000000
;

//---------------dance-double - D-STANDARD----------------
#NOTEDATA:;
#CHARTNAME:xRGTMx-SDP;
#STEPSTYPE:dance-double;
#DESCRIPTION:D-STANDARD;
#CHARTSTYLE:;
#DIFFICULTY:Medium;
#METER:5;
#RADARVALUES:0.264888,0.332139,0.090011,0.027003,0.000000,193.000000,10.000000,3.000000,0.000000,0.000000,0.000000,0.000000,0.000000,0.264888,0.332139,0.090011,0.027003,0.000000,193.000000,10.000000,3.000000,0.000000,0.000000,0.000000,0.000000,0.000000;
#CREDIT:xRGTMx;
#NOTES:
00000000
00000000
00000000
00000000
,
00000000
00000000
00000000
00000000
,
00000000
00000000
00000000
00000000
,
00000000
00000000
00000000
00000000
,
00001000
00000000
00001000
00000000
,
00000010
00000000
00000000
00000010
00000000
00000000
00000100
00000000
,
00000100
00000000
00000000
00000001
00000000
00000000
00000000
00001001
,
00000000
00000000
00000000
00000000
,
00000001
00000000
00000000
00000000
00000010
00000000
00000000
00000100
,
00000000
00000100
00000000
00010000
00000000
00001000
00000000
00010000
,
00000000
00000000
00001000
00000000
00001000
00000000
00000000
00100000
,
00000000
00000000
01000000
00000000
,
10000000
00000000
00000000
00000000
00100000
00000000
00000000
01000000
,
00000000
01000000
00000000
00001000
00000000
00010000
00000000
00001000
,
00000000
00000000
00010000
00000000
00010000
00000000
00000000
00000010
,
00000000
00000000
00000000
00000000
00000000
00000100
00000000
00000100
,
00000000
00000001
00001000
00000001
,
00000000
00001000
00000001
00001000
,
00000000
00000000
00000001
00000000
00001000
00000000
00000000
00001001
,
00000000
00000000
00000000
00000000
,
00000000
00010000
00001000
00010000
,
00000000
00001000
00010000
00001000
,
00000000
00000000
00010000
00000000
00001000
00000000
00000000
00011000
,
00000000
00000000
00000000
00000000
,
00001000
00000000
00000000
00000000
00100000
00000000
00000000
00010000
,
00000000
00010000
00000000
00100000
00000000
00000000
00000000
00000000
,
00010000
00000000
00000000
10000000
00000000
00000000
00000000
10000000
,
00000000
00010000
00000000
00000000
00010000
00000000
00000000
00000000
,
01000000
00000000
00000000
00001000
00000000
00000000
00000000
00010000
,
00000000
00001000
00000000
00010000
00000000
00000000
00000000
00000000
,
00000100
00000000
00000000
00000010
00000000
00000100
00000000
00000010
,
00000000
00000000
00000000
00000000
,
00000001
00000000
00000000
00000100
00000000
00000000
00000000
00000010
,
00000000
00001000
00000000
00000100
00000000
00010000
00000000
00000000
,
00000100
00000000
00000000
00010000
00000000
00000000
00000000
00001000
,
00000000
00001000
00000000
00000000
00100000
00000000
00000000
00000000
,
00100000
00000000
00000000
00010000
00000000
00000000
00000000
01000000
,
00000000
00100000
00000000
01000000
00000000
00010000
00000000
00000000
,
00010000
00000000
00000000
10000000
00000000
00000000
00000000
02200000
,
00000000
00000000
00000000
00000000
00000000
03300000
00000000
00000000
00000000
00000000
00000000
00000000
00000000
00000000
00000000
00000000
,
10010000
00010000
10000000
00000000
,
00100000
01000000
00100000
00000000
,
01000000
01000000
00001000
00000000
,
00010000
00001000
00010000
00000000
,
00000100
00000010
00000010
00000000
,
00000001
00001000
00000001
00000000
,
00000100
00000000
00000010
00000000
00000100
00000000
00000000
00011000
,
00000000
00000000
00000000
00000000
,
00000000
00000000
00000000
00000000
,
00000000
10000000
00010000
10000000
,
00000000
00010000
10000000
00010000
,
00000000
00000000
10000000
00000000
00010000
00000000
00000000
10010000
,
00000000
00000000
00000000
00000000
,
00000000
00001000
00010000
00001000
,
00000000
00010000
00001000
00010000
,
00000000
00000000
00001000
00000000
00010000
00000000
00000000
00011000
,
00000000
00000000
00000000
00000000
,
00010000
00000100
00000100
00000000
,
00000010
00000000
00000000
00000001
00000000
00001000
00000000
00000001
,
00000000
00000000
00000100
00000000
00000010
00000000
00000000
00000010
,
00000000
00010000
00000000
00001000
,
00010000
00000000
00001000
00100000
,
00100000
00000000
00000000
00010000
00000000
10000000
00000000
00010000
,
00000000
00000000
00100000
00000000
01000000
00000000
00000000
10010000
,
00000000
00000000
00000000
00000000
,
10000000
00000000
00000000
00100000
00000000
01000000
00000000
01000000
,
00000000
00000000
00000000
00010000
00000000
01000000
00000000
00000000
,
00001000
00000000
00000000
00010000
00000000
00001000
00000000
00010000
,
00000000
00000000
00000000
00000000
00000000
00000100
00000000
00000000
,
00001000
00000000
00000000
00000001
00000000
00000100
00000000
00000001
,
00000000
00000000
00000100
00000000
00000000
00000100
00000000
00000000
,
00000010
00000000
00000000
00001000
00000000
00000001
00000000
00001000
,
00000000
00000000
00000000
00000000
00000000
00000100
00000000
00000000
,
00010000
00001000
00001000
00000000
,
00010000
00000000
00000000
00001000
00000000
00001000
00000000
00100000
,
00000000
01000000
00000000
00100000
,
00100000
00000000
00000000
00010000
00000000
00000000
00000000
00000000
,
01000000
01000000
00010000
00000000
,
01000000
00000000
00000000
00001000
00000000
00010000
00000000
00001000
,
00000000
00000000
00010000
00000000
00000100
00000000
00000000
00001002
,
00000000
00000000
00000000
00000000
,
00000000
00000000
00000000
00000000
,
00000003
00000000
00000000
00000000
;

//---------------dance-double - D-HEAVY----------------
#NOTEDATA:;
#CHARTNAME:xRGTMx-HDP;
#STEPSTYPE:dance-double;
#DESCRIPTION:D-HEAVY;
#CHARTSTYLE:;
#DIFFICULTY:Hard;
#METER:8;
#RADARVALUES:0.570925,0.627374,0.369044,0.234028,0.004501,377.000000,41.000000,26.000000,0.000000,0.000000,0.000000,0.000000,0.000000,0.570925,0.627374,0.369044,0.234028,0.004501,377.000000,41.000000,26.000000,0.000000,0.000000,0.000000,0.000000,0.000000;
#CREDIT:xRGTMx;
#NOTES:
00000000
00000000
00000000
00000000
,
00000000
00000000
00000000
00000000
,
00000000
00000000
00000000
00000000
,
00000000
00000000
00000000
00000000
,
00100000
00000000
10000000
00010000
00000000
00100000
00000000
00101000
,
00000000
00001000
00000000
00011000
00000000
00010000
00000010
00010000
,
00000100
00000000
00000100
00000010
00000000
00000001
00000000
00002002
,
00000000
00000000
00000000
00003003
,
00000001
00001000
00000001
00001000
00000010
00001000
00000000
00001010
,
00000000
00010100
00000000
00011000
00000000
00101000
00000000
01010000
,
00000000
00100000
10000000
00010000
10000000
01000000
10000000
00020000
,
00000000
00100000
00000000
01000000
,
10030000
00010000
10000000
00010000
00100000
00010000
00100000
00010000
,
00000000
00110000
00000000
00101000
00000000
00010100
00000000
00001010
,
00000000
00000010
00001000
00000010
00001000
00000100
00001000
00000200
,
00000000
00000000
00000000
00000000
00000000
00000310
00000000
00001001
,
00000000
00000001
00000100
00000001
00000000
00001000
00000100
00001000
,
00000000
00000010
00010000
00000010
00000000
00010000
00000100
00010000
,
00000000
00001000
00100000
00001000
00000000
01000000
00010000
02000000
,
00000000
00000000
03100000
00000000
00100000
10000000
00000000
00010000
,
00000000
10000000
00100000
10000000
00000000
00010000
00100000
00010000
,
00000000
01000000
00001000
01000000
00000000
00001000
00100000
00001000
,
00000000
00010000
00000100
00010000
00000100
00000010
00000100
00000020
,
00000000
00000000
00000000
00000030
,
00000011
00000000
00000001
00000000
00001000
00000010
00000000
00011000
,
00000000
00100000
00000000
01010000
00000000
00100000
10000000
00010000
,
10000000
00000000
01000000
00000000
00100000
00001000
00000000
00011000
,
00000000
00010000
00000100
00000000
00000010
00000001
00001000
00000010
,
00000000
00000000
00001010
00000000
00001000
00000100
00000000
00001000
,
00010000
00100000
00000000
10100000
00000000
10000000
01000000
00100000
,
00010000
00000000
01000000
00000000
00100000
01000000
00000000
00022000
,
00000000
00000000
00033000
00000000
,
00010000
00000100
00000010
00000100
00010000
00000100
00000000
00000100
,
00001000
00000000
00001000
00000001
00000000
00000001
00001000
00000010
,
00000000
00010000
00001000
00010000
00100000
00010000
00001000
00200000
,
00000000
10000000
10000000
00000000
00310000
00000000
01001000
00000000
,
00010000
00000010
00000100
00000010
00010000
00000010
00000000
00000010
,
00001000
00000000
00001000
00000001
00000000
00000001
00001000
00000100
,
00000000
00010000
00001000
00010000
01000000
00010000
00001000
02000000
,
00000000
00000000
00000000
00000000
00000000
00200000
00000000
00000000
00000000
00000000
03300000
00000000
00000000
00000000
00000000
00000000
,
10010000
00000000
10000000
00000000
00100000
01000000
00000000
00101000
,
00000000
00010000
00000000
00000100
00000000
00001000
00000001
00000000
,
00000010
00000000
00000010
00000000
00000001
00001000
00000000
00000010
,
00000000
00001000
01000000
00100000
00000000
00010000
10000000
00000000
,
10010000
00000000
10000000
00000000
01000000
00100000
00000000
00101000
,
00000000
00010000
00000000
00000010
00000000
00001000
00000001
00000000
,
00000100
00000000
00000100
00000000
00000001
00001000
00000000
00220000
,
00000000
00000000
00000000
00000000
,
00000000
00000000
00330000
00000000
,
00000000
10000000
00100000
10000000
00000000
00010000
00100000
00010000
,
00000000
01000000
00001000
01000000
00000000
00001000
00100000
00001000
,
00000000
00010000
00000100
00010000
00000000
00000010
00001000
00000020
,
00000000
00000130
00000001
00000100
00000001
00000100
00000001
00001000
,
00000000
00000001
00000100
00000001
00000000
00001000
00000100
00001000
,
00000000
00000010
00010000
00000010
00000000
00010000
00000100
00010000
,
00000000
00001000
00100000
00001000
00100000
01000000
00100000
02000000
,
00000000
00000000
00000000
00000000
00000000
00100000
03000000
00100000
,
01000000
10000000
01000000
10000000
00010000
10000000
00010000
10000000
,
00100000
01000000
00100000
01000000
00000000
01010000
00000000
00011000
,
00000000
00010000
00001000
00010000
00001000
00010000
00000100
00020000
,
00000000
00000100
00001000
00030010
,
00000000
00000010
00001000
00000010
00001000
00000001
00000010
00000001
,
00000010
00000100
00001000
00000100
00000000
00010100
00000000
00011000
,
00000000
00001000
01000000
00001000
01000000
00010000
00100000
00020000
,
00000000
00000000
00000000
00030000
,
10010000
00000000
00100000
10000000
00000000
00010000
00000000
00101000
,
00000000
00010000
00000000
00001010
00000000
00000100
00000001
00001000
,
00000002
00000000
00000000
00000023
00000000
00001000
00000000
00002030
,
00000000
00000000
00000000
00000000
00000000
00103000
00000000
00000000
,
10010000
00000000
01000000
10000000
00000000
00010000
00000000
01001000
,
00000000
00010000
00000000
00001100
00000000
00000010
00000001
00001000
,
00000002
00000000
00000000
00000203
00000000
00001000
00000000
00002300
,
00000000
00000000
00000000
00000000
00000000
01003000
00000000
00000000
,
00001000
00010000
00100000
00010000
00001000
00000010
00001000
00010000
,
00001000
00000100
00000000
00001000
00000000
00011000
00000000
00110000
,
00000000
00100000
01000000
10000000
00010000
01000000
00010000
01000000
,
00001000
00010000
00001000
00020000
00000100
00000000
00031000
00000000
,
00010000
00001000
00000010
00001000
00010000
00100000
00010000
00001000
,
00000010
00001000
00000000
00011000
00000000
01010000
00000000
10100000
,
00000000
00100000
10000000
00100000
10000000
01000000
00200000
00020000
,
00000000
00000000
00000000
00000000
,
00000000
00000000
00000000
00000000
,
00330000
00000000
00000000
00000000
;
