#VERSION:0.82;
#TITLE:anemone;
#SUBTITLE:;
#ARTIST:S-C-U feat. Qrispy Joybox;
#TITLETRANSLIT:;
#SUBTITLETRANSLIT:;
#ARTISTTRANSLIT:;
#GENRE:Technopop;
#ORIGIN:;
#CREDIT:;
#BANNER:anemone-bn.png;
#BACKGROUND:anemone-bg.png;
#PREVIEWVID:;
#JACKET:anemone-jk.png;
#CDIMAGE:;
#DISCIMAGE:;
#LYRICSPATH:;
#CDTITLE:;
#MUSIC:anemone.ogg;
#OFFSET:-0.366000;
#SAMPLESTART:9.955000;
#SAMPLELENGTH:19.180000;
#SELECTABLE:YES;
#BPMS:0.000=200.000,
112.000=100.000,
120.000=200.000,
184.000=100.000,
200.000=200.000;
#STOPS:;
#DELAYS:;
#WARPS:;
#TIMESIGNATURES:0.000=4=4;
#TICKCOUNTS:0.000=4;
#COMBOS:0.000=1;
#SPEEDS:0.000=1.000=0.000=0;
#SCROLLS:0.000=1.000;
#FAKES:;
#LABELS:0.000=Song Start,
294.500=Song End;
#BGCHANGES:;
#KEYSOUNDS:;
#ATTACKS:
;

//---------------dance-single - S-HEAVY----------------
#NOTEDATA:;
#CHARTNAME:DJ OMiY-HSP;
#STEPSTYPE:dance-single;
#DESCRIPTION:S-HEAVY;
#CHARTSTYLE:;
#DIFFICULTY:Hard;
#METER:9;
#RADARVALUES:0.596339,0.582632,0.385783,0.039568,0.049459,379.000000,39.000000,4.000000,0.000000,0.000000,0.000000,0.000000,0.000000,0.596339,0.582632,0.385783,0.039568,0.049459,379.000000,39.000000,4.000000,0.000000,0.000000,0.000000,0.000000,0.000000;
#CREDIT:DJ OMiY;
#NOTES:
// measure 0
0000
0000
0000
0000
,  // measure 1
0000
0000
0000
0000
,  // measure 2
0000
0000
0000
0000
,  // measure 3
0000
0000
0000
0000
,  // measure 4
0000
0000
0000
0000
,  // measure 5
0000
0000
0000
0000
,  // measure 6
1000
0100
0010
0001
0000
0000
0001
0010
,  // measure 7
0100
1000
0000
0010
1000
0001
0010
0000
,  // measure 8
0001
1000
0001
0000
1000
0100
0000
1000
,  // measure 9
0000
0010
0100
0010
0000
1000
0100
1000
,  // measure 10
0001
0001
0100
0000
0010
0100
0001
0100
,  // measure 11
0000
0010
1000
0010
0000
0100
0001
0010
,  // measure 12
0001
1000
0001
0100
0000
0010
0000
0001
,  // measure 13
0000
0010
1000
0000
0001
0000
1100
0000
,  // measure 14
0001
0010
0001
0010
0000
0000
0100
1000
,  // measure 15
0100
1000
0000
0010
1000
0010
0100
0000
,  // measure 16
0001
1100
0001
1100
,  // measure 17
1001
0110
1001
0110
,  // measure 18
1000
0101
1000
0101
,  // measure 19
1001
0110
1001
0110
,  // measure 20
0001
1010
0001
1010
,  // measure 21
1001
0110
1001
0110
,  // measure 22
1000
0100
0100
0000
0010
0010
0001
1000
,  // measure 23
1000
0000
0001
0001
0100
0000
0010
0000
,  // measure 24
1000
0000
0101
0000
0101
0000
1000
0001
,  // measure 25
0000
0100
0000
0001
0001
0010
0100
1000
,  // measure 26
0001
0000
1100
0000
1100
0000
0001
1000
,  // measure 27
0000
0010
0000
1000
0000
0100
0100
0000
,  // measure 28
0010
0010
0010
0010
,  // measure 29
1100
1001
0101
1002
,  // measure 30
0013
0000
0100
1000
0100
0010
0000
1001
,  // measure 31
0000
1001
0000
1001
0000
0010
0001
0100
,  // measure 32
0001
0000
1000
0100
0010
0100
0000
1001
,  // measure 33
0000
1001
0000
1001
0000
0001
0010
0100
,  // measure 34
1000
0000
0010
1000
0010
0100
0000
1001
,  // measure 35
0000
1001
0000
1001
0000
0010
0001
1000
,  // measure 36
0010
0000
0100
0001
1000
0010
0000
1001
,  // measure 37
0000
1001
0000
1001
0000
0001
1000
0010
,  // measure 38
0100
0001
0010
0010
0001
1000
0100
0100
,  // measure 39
1000
0001
0100
0100
0010
1000
0010
1000
,  // measure 40
0000
0001
0010
0010
0100
1000
0100
0100
,  // measure 41
1000
0010
0100
0100
0001
1000
0010
1000
,  // measure 42
0000
0100
1000
1000
0001
0010
0001
0001
,  // measure 43
0100
0010
1000
1000
0100
0010
0001
0001
,  // measure 44
1000
0000
0001
0020
0000
0031
0000
0200
,  // measure 45
0001
0010
0001
0010
,  // measure 46
0301
0000
0000
1000
0000
0000
0100
0000
0000
1000
0000
0000
0010
0000
0000
0100
,  // measure 47
0000
0000
0001
0000
0000
0010
0000
0000
0100
0000
0000
1000
0000
0000
0010
0000
,  // measure 48
1000
0000
0000
0100
0000
0000
0001
0000
0000
1000
0000
0000
0010
0000
0000
0001
,  // measure 49
0000
0000
0100
0000
0000
0010
0000
0000
1000
0000
0000
0001
0000
0000
1000
0000
,  // measure 50
0020
0000
0030
0000
,  // measure 51
0001
0100
0001
0000
1000
0010
0000
0100
,  // measure 52
0000
0010
1000
0001
0000
0010
0100
0010
,  // measure 53
0001
0001
1000
0000
0100
1000
0001
0100
,  // measure 54
0000
0010
0100
0010
0000
1000
0001
1000
,  // measure 55
0100
0100
0010
0100
0000
1000
0000
0001
,  // measure 56
0000
0001
0100
0000
0010
0000
1000
0000
,  // measure 57
0001
0100
0001
0100
0000
0000
1000
0100
,  // measure 58
1000
0100
0000
0001
0100
1000
0100
0000
,  // measure 59
0010
0010
0100
0000
0001
0100
0000
0010
,  // measure 60
0000
1000
0100
1000
0000
0001
0100
0001
,  // measure 61
1000
1000
0010
0000
1000
0100
1000
0001
,  // measure 62
0000
1000
0100
0010
0000
0001
0010
0100
,  // measure 63
1000
1000
0001
0100
0000
0010
0000
1000
,  // measure 64
0000
1000
0001
0000
0010
0000
0001
0000
,  // measure 65
1000
0100
1000
0100
0000
0000
0010
0001
,  // measure 66
0010
0001
0000
0100
0001
0100
1000
0000
,  // measure 67
0100
0010
0100
0010
0000
0000
1000
0010
,  // measure 68
1000
0010
0000
0100
0001
0010
0100
0000
,  // measure 69
1000
0001
1000
0001
0000
0000
0010
0100
,  // measure 70
0010
0100
0000
1000
0100
0010
0001
0000
,  // measure 71
1000
1000
1000
1000
0000
0000
0100
0100
,  // measure 72
0100
0100
0000
0000
0001
0001
0001
0001
,  // measure 73
0000
0000
0010
0010
0010
0100
0000
0000
;

//---------------dance-single - S-STANDARD----------------
#NOTEDATA:;
#CHARTNAME:DJ OMiY-SSP;
#STEPSTYPE:dance-single;
#DESCRIPTION:S-STANDARD;
#CHARTSTYLE:;
#DIFFICULTY:Medium;
#METER:6;
#RADARVALUES:0.429590,0.436974,0.049459,0.089027,0.000000,290.000000,5.000000,9.000000,0.000000,0.000000,0.000000,0.000000,0.000000,0.429590,0.436974,0.049459,0.089027,0.000000,290.000000,5.000000,9.000000,0.000000,0.000000,0.000000,0.000000,0.000000;
#CREDIT:DJ OMiY;
#NOTES:
0000
0000
0000
0000
,
0000
0000
0000
0000
,
0000
0000
0000
0000
,
0000
0000
0000
0000
,
0000
0000
0000
0000
,
0000
0000
0000
0000
,
0010
0100
0010
0100
0000
0000
0001
1000
,
0001
1000
0000
1000
0001
1000
0001
0000
,
0100
0000
0100
0000
0001
0100
0000
0010
,
0000
1000
0000
0001
0000
0100
0100
0000
,
0010
0000
0010
0000
1000
0000
0100
0010
,
0000
0001
0000
1000
0000
0001
0001
0000
,
0100
0000
0010
0100
0000
0010
0000
1000
,
0000
1000
0001
0000
0100
0000
0100
0000
,
0002
0000
0000
0013
0000
0000
0200
0000
,
0000
1300
0000
0010
0100
0000
0010
0000
,
0100
0000
0001
0000
0001
0000
0000
1000
,
0000
1000
0000
1000
0000
0100
0010
0001
,
0000
0000
1000
0000
1000
0000
0000
0010
,
0000
0010
0000
0010
0010
1000
0001
1000
,
0000
0000
0001
0000
0001
0000
0000
0010
,
0000
0010
0000
0010
0000
0100
0010
0000
,
0001
1000
0001
0000
1000
0100
0000
0010
,
0001
0000
0001
0200
0000
0000
0300
0000
,
0001
0000
0110
0000
0110
0000
0000
1000
,
0000
1000
0000
0001
0001
0100
0001
0100
,
0000
0000
0110
0000
0110
0000
0000
1000
,
0000
0100
0000
0001
0000
0000
0100
0000
,
2000
0000
0000
0000
,
0001
0100
0001
3010
,
0101
0000
1000
0000
0100
0000
0000
0010
,
0000
0100
0000
0010
0000
0000
0001
0000
,
1000
0000
0010
0000
1000
0000
0000
0001
,
0000
0100
0000
1000
0000
0000
0100
0000
,
0010
0000
0100
0000
0001
0000
0000
1000
,
0000
0010
0000
0001
0000
0000
0010
0000
,
1000
0000
0001
0000
1000
0000
0000
0100
,
0000
0010
0000
0001
0000
0000
1000
0000
,
0001
0010
0001
0000
1000
0100
1000
0000
,
0010
0100
0010
0000
1000
0000
0001
0100
,
0000
0010
0100
0000
0001
0010
0001
0000
,
1000
0010
1000
0000
0100
0000
1000
0100
,
0000
0010
0100
0000
1000
0001
1000
0000
,
0001
0010
0001
0000
1000
0001
1000
0000
,
0010
0000
0100
0001
0000
0002
0000
2000
,
0000
0000
0000
3003
,
0020
1000
0000
0001
,
0000
0000
1000
0000
0000
0000
0130
0001
,
0020
1000
0000
0001
,
0000
0000
1000
0000
0000
0000
0031
0010
,
0200
0000
0300
0000
,
1000
0000
0100
0000
1000
0001
0000
0100
,
0000
0001
0000
1000
0000
0001
0010
0000
,
0100
0000
0100
0000
1000
0000
0010
0100
,
0000
0001
0000
0100
0000
0010
1000
0000
,
0001
0000
0001
0010
0000
0010
0000
0100
,
0000
0100
1000
0000
1000
0000
0001
0000
,
1000
0000
1000
0010
0000
0000
0100
0000
,
0100
0001
0000
1000
0001
0000
1000
0000
,
0010
0000
0010
0000
1000
0001
0000
0100
,
0000
0001
0000
1000
0000
0010
0100
0000
,
0001
0000
0001
0000
0010
0000
0100
0010
,
0000
0001
0000
1000
0000
0100
1000
0000
,
0001
0000
1000
0100
0000
0100
0000
0010
,
0000
0010
0001
0000
1000
0000
0001
0000
,
0100
0000
0100
0010
0000
0000
0010
0000
,
0010
0100
0000
0000
0001
1000
0001
0000
,
1000
0000
1000
0100
0000
0000
0001
0000
,
0001
0100
0000
0000
1000
0001
1000
0000
,
0001
0010
0001
0010
0000
0000
0100
1000
,
0100
1000
0000
1000
0001
1000
0001
0000
,
1000
0100
0010
0001
0000
0000
1000
0100
,
0010
0001
0000
0000
1000
0100
0010
0001
,
0000
0000
0001
0010
0100
1000
0000
0000
;

//---------------dance-single - S-LIGHT----------------
#NOTEDATA:;
#CHARTNAME:DJ OMiY-LSP;
#STEPSTYPE:dance-single;
#DESCRIPTION:S-LIGHT;
#CHARTSTYLE:;
#DIFFICULTY:Easy;
#METER:4;
#RADARVALUES:0.333498,0.473388,0.138486,0.356108,0.000000,186.000000,14.000000,36.000000,0.000000,0.000000,0.000000,0.000000,0.000000,0.333498,0.473388,0.138486,0.356108,0.000000,186.000000,14.000000,36.000000,0.000000,0.000000,0.000000,0.000000,0.000000;
#CREDIT:DJ OMiY;
#NOTES:
0000
0000
0000
0000
,
0000
0000
0000
0000
,
0000
0000
0000
0000
,
0000
0000
0000
0000
,
0000
0000
0000
0000
,
0000
0000
0000
0000
,
2002
0000
0000
3003
0000
0000
0220
0000
,
0000
0330
0000
0000
0001
0000
1000
0000
,
0010
1000
0010
1000
,
0001
0000
0100
0000
,
0001
0010
0001
0010
,
0100
0000
0010
0000
,
0100
0100
1000
1000
,
0001
0100
0010
1000
,
0022
0000
0000
0033
0000
0000
2200
0000
,
0000
3300
0000
0000
0001
0000
0100
0000
,
0001
1000
1000
0000
,
0001
0100
1000
0010
,
0001
0100
0100
0000
,
0001
0010
1000
0100
,
0001
1000
1000
0000
,
0010
0100
0001
0100
,
0010
0000
1000
0000
,
0001
0001
0100
0000
,
0010
1000
1000
0000
,
0100
0010
0001
0010
,
0100
0010
0010
0000
,
0001
1000
0001
0100
,
0020
0000
0000
0030
,
0100
1001
0010
1001
,
0010
0000
1000
0000
0010
0000
0000
0200
,
0000
0000
0000
0300
0000
0000
0000
0000
,
0001
0000
0010
0000
0001
0000
0000
0200
,
0000
0000
0000
0300
0000
0000
0000
0000
,
0001
0000
1000
0000
0001
0000
0000
0020
,
0000
0000
0000
0030
0000
0000
0000
0000
,
0100
0000
1000
0000
0100
0000
0000
0020
,
0000
0000
0000
0030
0000
0000
0000
0000
,
0001
0100
0001
0010
,
0001
0100
0001
0010
,
0000
0100
1000
0010
,
1000
0100
1000
0010
,
0000
1000
0100
0001
,
0100
1000
0100
0001
,
0100
0100
2000
0000
,
0001
0001
0001
3001
,
1001
0010
0000
0001
,
0000
0100
0000
0010
,
0110
0100
0000
0001
,
0000
0010
0000
0100
,
1000
0000
0000
0000
,
0001
0000
0001
0000
0200
0000
0000
0300
,
0000
0010
0000
1000
,
0100
0000
0100
0000
0020
0000
0000
0030
,
0000
0001
0000
0100
,
0002
0010
1003
0010
,
2000
0100
0001
3100
,
2002
0000
0000
3003
0000
0000
0220
0000
,
0000
0330
0000
0000
0001
0000
1000
0000
,
0010
0010
1000
0000
,
0100
0000
0010
0000
,
0100
1000
0100
0010
,
0001
0000
1000
0000
,
0001
0100
1000
0100
,
0001
0010
1000
0010
,
0002
0000
0000
0003
0000
0000
2000
0000
,
0000
3000
0000
0000
0010
0000
0010
0000
,
0200
0000
0000
0300
0000
0000
0020
0000
,
0000
0030
0000
0000
1000
0000
1000
0000
,
0002
0000
0000
0003
0000
0000
0020
0000
,
0000
0030
0000
0000
0100
0000
1000
0000
,
2200
0000
0000
3300
0000
0000
0202
0000
,
0000
0303
0000
0000
0220
0000
0000
0330
,
0000
0000
2002
0000
0000
3003
0000
0000
;

//---------------dance-single - BEGINNER----------------
#NOTEDATA:;
#CHARTNAME:DJ OMiY-BEG;
#STEPSTYPE:dance-single;
#DESCRIPTION:BEGINNER;
#CHARTSTYLE:;
#DIFFICULTY:Beginner;
#METER:2;
#RADARVALUES:0.170988,0.218487,0.000000,0.227513,0.000000,98.000000,0.000000,23.000000,0.000000,0.000000,0.000000,0.000000,0.000000,0.170988,0.218487,0.000000,0.227513,0.000000,98.000000,0.000000,23.000000,0.000000,0.000000,0.000000,0.000000,0.000000;
#CREDIT:DJ OMiY;
#NOTES:
0000
0000
0000
0000
,
0000
0000
0000
0000
,
0000
0000
0000
0000
,
0000
0000
0000
0000
,
0000
0000
0000
0000
,
0000
0000
0000
0000
,
2000
0000
0000
3000
0000
0000
0002
0000
,
0000
0003
0000
0000
0100
0000
0100
0000
,
0100
0000
0000
0000
,
0010
0000
0000
0000
,
1000
0000
1000
0000
,
1000
0000
0000
0000
,
0001
0000
0000
0000
,
0010
0000
0000
0000
,
0200
0000
0000
0300
0000
0000
0020
0000
,
0000
0030
0000
0000
0100
0000
0100
0000
,
0100
0000
0000
0000
,
1000
0000
0001
0000
,
0010
0000
0000
0000
,
0001
0000
0100
0000
,
0010
0000
0000
0000
,
1000
0000
0100
0000
,
0010
0000
0001
0000
,
0100
0000
0010
0000
,
1000
0000
0000
0000
,
0001
0000
0010
0000
,
0100
0000
0000
0000
,
1000
0000
0100
0000
,
0010
0000
0000
0000
,
0001
0001
0001
0001
,
0200
0000
0000
0000
0000
0000
0000
0300
,
0000
0000
0000
0000
,
0020
0000
0000
0000
0000
0000
0000
0030
,
0000
0000
0000
0000
,
2000
0000
0000
0000
0000
0000
0000
3000
,
0000
0000
0000
0000
,
0002
0000
0000
0000
0000
0000
0000
0003
,
0000
0000
0000
0000
,
0000
0100
0000
0100
,
0000
0000
0200
0000
0000
0000
0000
0300
,
0000
0010
0000
0010
,
0000
0000
0020
0000
0000
0000
0000
0030
,
0000
1000
0000
0001
,
0000
1000
0000
0001
,
0000
0000
0000
0000
,
0010
0010
0010
0010
,
0010
0000
0000
0000
,
1000
0000
0000
0100
,
0100
0000
0000
0000
,
0010
0000
0001
0000
,
0020
0000
0030
0000
,
0100
0000
0000
0000
,
1000
0000
0000
0000
,
0001
0000
0100
0000
,
0001
0000
0000
0000
,
0010
0000
0000
0000
,
1000
0000
0000
0000
,
0020
0000
0000
0030
0000
0000
0002
0000
,
0000
0003
0000
0000
0010
0000
0010
0000
,
0010
0000
0000
0000
,
0100
0000
0000
0000
,
1000
0000
0010
0000
,
0100
0000
0000
0000
,
0001
0000
0000
0000
,
1000
0000
0000
0000
,
0020
0000
0000
0030
0000
0000
0200
0000
,
0000
0300
0000
0000
0001
0000
0001
0000
,
0002
0000
0000
0003
0000
0000
2000
0000
,
0000
3000
0000
0000
0100
0000
0100
0000
,
0200
0000
0000
0300
0000
0000
2000
0000
,
0000
3000
0000
0000
0001
0000
0001
0000
,
0002
0000
0000
0003
0000
0000
0020
0000
,
0000
0030
0000
0000
0200
0000
0000
0300
,
0000
0000
2000
0000
0000
3000
0000
0000
;

//---------------dance-double - D-HEAVY----------------
#NOTEDATA:;
#CHARTNAME:DJ OMiY-HDP;
#STEPSTYPE:dance-double;
#DESCRIPTION:D-HEAVY;
#CHARTSTYLE:;
#DIFFICULTY:Hard;
#METER:9;
#RADARVALUES:0.599165,0.582632,0.316540,0.029676,0.049459,389.000000,32.000000,3.000000,0.000000,0.000000,0.000000,0.000000,0.000000,0.599165,0.582632,0.316540,0.029676,0.049459,389.000000,32.000000,3.000000,0.000000,0.000000,0.000000,0.000000,0.000000;
#CREDIT:DJ OMiY;
#NOTES:
00000000
00000000
00000000
00000000
,
00000000
00000000
00000000
00000000
,
00000000
00000000
00000000
00000000
,
00000000
00000000
00000000
00000000
,
00000000
00000000
00000000
00000000
,
00000000
00000000
00000000
00000000
,
00001000
00010000
00001000
00010000
00000000
00000000
00000100
00001000
,
00000100
00001000
00000000
00001000
00000100
00000010
00000001
00000000
,
00000100
00000010
00000100
00000000
00000010
00001000
00000000
00000100
,
00000000
00010000
00001000
00010000
00000000
00001000
00100000
00001000
,
00010000
00001000
01000000
00000000
00100000
01000000
00010000
10000000
,
00000000
01000000
00100000
00010000
00000000
00100000
01000000
10000000
,
01000000
00100000
00001000
00010000
00000000
00000100
00000000
00000010
,
00000000
00000010
00000100
00000000
00001000
00000000
00000001
00000000
,
00001000
00000100
00000010
00000001
00000000
00000000
00000001
00000010
,
00000100
00010000
00000000
00001000
00100000
01000000
10000000
00000000
,
00010000
00000000
01010000
00000000
11000000
00000000
00100000
01000000
,
00000000
10000000
00000000
01000000
00000000
00100000
00001000
00010000
,
00000100
00000000
00010100
00000000
00001001
00000000
00000010
00000001
,
00000000
00000001
00000000
00000010
00000100
00000010
00000100
00001000
,
00000100
00000000
00011000
00000000
00011000
00000000
00100000
00001000
,
00000000
00010000
00000000
00000100
00000000
00010000
00001000
00100000
,
01000000
00100000
00010000
00000000
00100000
01000000
00000000
10000000
,
01000000
00000000
10000000
00010000
01000000
00000000
01000000
00000000
,
00100000
00000000
10100000
00000000
01010000
00000000
00010000
00100000
,
00001000
00010000
00001000
00010000
00000100
00000010
00000100
00001000
,
00000001
00000000
00000110
00000000
00000101
00000000
00001000
00000010
,
00001000
00000100
00010000
00001000
00100000
00001000
00010000
01000000
,
00200000
00000000
00000000
00300000
,
10010000
00011000
00001001
00011000
,
00100000
00000000
00010000
00100000
10000000
00100000
00000000
00110000
,
00000000
00011000
00000000
00110000
00000000
00100000
00001000
00010000
,
00000100
00000000
00000010
00000001
00000010
00001000
00000000
00001010
,
00000000
00000011
00000000
00001010
00000000
00000010
00000100
00010000
,
00001000
00000000
00010000
00000100
00010000
00001000
00000000
00101000
,
00000000
00011000
00000000
01001000
00000000
00100000
10000000
01000000
,
00100000
00000000
01000000
10000000
01000000
00010000
00000000
01010000
,
00000000
00011000
00000000
00010010
00000000
00001000
00000010
00000100
,
00000001
00000010
00000010
00000010
00000100
00001000
00001000
00001000
,
00000100
00010000
00010000
00010000
00001000
01000000
00001000
01000000
,
00000000
00100000
00100000
00100000
10000000
00010000
00010000
00010000
,
10000000
01000000
01000000
01000000
00100000
00001000
00010000
00001000
,
00000000
00010000
00010000
00010000
00000100
00000010
00000010
00000010
,
00000100
00001000
00001000
00001000
00000001
00000100
00000100
00000100
,
00000010
00001000
00000010
00000001
00000000
00000010
00000000
00002000
,
00000001
00000100
00000001
00000010
,
00013000
00000000
00000000
01000000
00000000
00000000
00100000
00000000
00000000
10000000
00000000
00000000
00010000
00000000
00000000
00100000
,
00000000
00000000
00001000
00000000
00000000
00010000
00000000
00000000
00000100
00000000
00000000
00000010
00000000
00000000
00000001
00000000
,
00001000
00000000
00000000
00000100
00000000
00000000
00000001
00000000
00000000
00000100
00000000
00000000
00001000
00000000
00000000
00010000
,
00000000
00000000
01000000
00000000
00000000
10000000
00000000
00000000
01000000
00000000
00000000
00010000
00000000
00000000
00001000
00000000
,
00000200
00000000
00000300
00000000
,
00000010
00000001
00001000
00000000
00000100
00010000
00000000
00011000
,
00000000
00100000
00001000
00100000
00000000
00010000
01000000
00010000
,
10000000
10000000
01000000
00000000
00100000
01000000
10000000
00010000
,
00000000
00100000
00001000
00010000
00000000
00000100
00001000
00000100
,
00000010
00000010
00001000
00000010
00000000
00000001
00000000
00000101
,
00000000
00000010
00001000
00000000
00001100
00000000
00011000
00000000
,
00100000
00001000
00100000
01000000
00000000
00000000
10000000
01000000
,
00010000
00001000
00000000
00000010
00000001
00000100
00001000
00000000
,
00000100
00000010
00010000
00000000
00000100
00001000
00000000
00000001
,
00000000
00000010
00001000
00010000
00000000
00001000
00100000
00001000
,
00010000
00010000
01000000
00000000
00100000
00010000
01000000
10000000
,
00000000
01000000
00010000
00100000
00000000
01000000
00100000
00001000
,
00010000
00010000
00000010
00010000
00000000
00001000
00000000
00000010
,
00000000
00000100
00001000
00000000
00010100
00000000
00101000
00000000
,
00010000
01000000
00010000
01000000
00000000
00000000
00100000
10000000
,
00100000
10000000
00000000
01000000
00100000
00010000
00001000
00000000
,
00000100
00000010
00000100
00000010
00000000
00000000
00000001
00001000
,
00000001
00001000
00000000
00000010
00000100
00001000
00010000
00000000
,
00001000
00100000
00001000
00100000
00000000
00000000
00010000
00001000
,
00010000
00001000
00000000
00000100
00000010
00000100
00010000
00000000
,
00001000
00010000
00100000
01000000
00000000
00000000
00100000
00010000
,
00001000
00000100
00000000
00000000
00001000
00000100
00000010
00000001
,
00000000
00000000
00000010
00001000
00010000
00100000
00000000
00000000
;

//---------------dance-double - D-STANDARD----------------
#NOTEDATA:;
#CHARTNAME:DJ OMiY-SDP;
#STEPSTYPE:dance-double;
#DESCRIPTION:D-STANDARD;
#CHARTSTYLE:;
#DIFFICULTY:Medium;
#METER:6;
#RADARVALUES:0.397088,0.436974,0.118703,0.059351,0.000000,263.000000,12.000000,6.000000,0.000000,0.000000,0.000000,0.000000,0.000000,0.397088,0.436974,0.118703,0.059351,0.000000,263.000000,12.000000,6.000000,0.000000,0.000000,0.000000,0.000000,0.000000;
#CREDIT:DJ OMiY;
#NOTES:
00000000
00000000
00000000
00000000
,
00000000
00000000
00000000
00000000
,
00000000
00000000
00000000
00000000
,
00000000
00000000
00000000
00000000
,
00000000
00000000
00000000
00000000
,
00000000
00000000
00000000
00000000
,
00001000
00000000
00001000
00010000
00000000
00000000
00010000
00000000
,
00010000
00001000
00000000
00001000
00010000
00000000
00011000
00000000
,
00010000
00000000
00000100
00000000
00000010
00000001
00000000
00000100
,
00000000
00000001
00000000
00000010
00000000
00000000
00000100
00000000
,
00010000
00000000
00010000
00000000
00001000
00000000
00100000
00010000
,
00000000
01000000
00000000
10000000
00000000
00000000
01000000
00000000
,
00100000
00000000
10000000
01000000
00000000
00100000
00000000
00001000
,
00000000
00010000
00000010
00000100
,
00000001
00000000
00000001
00001000
00000000
00000000
00001000
00000000
,
00001000
00000100
00000000
00000100
00010000
00000000
00001000
00000000
,
00011000
00000000
00100000
00000000
00100000
00000000
00000000
00010000
,
00000000
10000000
00000000
00010000
00000000
00100000
00001000
00100000
,
00000000
00000000
00010000
00000000
00010000
00000000
00000000
10000000
,
00000000
01000000
00000000
00100000
00000000
00001000
00010000
00001000
,
00000000
00000000
00010000
00000000
00010000
00000000
00000000
00000100
,
00000000
00000010
00000000
00000100
00000000
00001000
00000001
00000000
,
00000010
00000000
00000110
00000000
00001000
00000001
00000000
00000001
,
00001000
00000000
00001000
00000200
00000000
00000000
00000300
00000000
,
00000010
00000000
00000100
00000000
00000100
00000000
00000000
00010000
,
00000000
00001000
00000000
00100000
00000000
00010000
10000000
00010000
,
00000000
00000000
00100000
00000000
00100000
00000000
00000000
10000000
,
00000000
01000000
00000000
00100000
00000000
00000000
00020000
00000000
,
02030000
00000000
00000000
03000000
,
00100000
10000000
01000000
00010000
,
00001000
00000000
00010000
00000000
00001000
00000000
00000000
00000100
,
00000000
00000100
00000000
00000100
00000000
00000000
00000001
00000000
,
00000001
00000000
00000010
00000000
00000100
00000000
00000000
00000010
,
00000000
00000010
00000000
00000010
00000000
00000000
00000001
00000000
,
00000010
00000000
00001000
00000000
00010000
00000000
00000000
00001000
,
00000000
00001000
00000000
00001000
00000000
00000000
00100000
00000000
,
00010000
00000000
00100000
00000000
10000000
00000000
00000000
00100000
,
00000000
00100000
00000000
00100000
00000000
00000000
00010000
00000000
,
10000000
00100000
00010000
00100000
,
10000000
00000000
00100000
00000000
01000000
00010000
01000000
00010000
,
00000000
00100000
00001000
00010000
,
00001000
00000000
00100000
00000000
00001000
00010000
00001000
00010000
,
00000000
00000100
00000010
00000100
,
00001000
00000100
00000010
00000100
,
00001000
00000000
00000000
00000001
00000000
00000100
00000000
00000020
,
00000000
00000000
00000000
00000030
,
00001000
00001001
00000100
00010100
,
00010000
00011000
00100000
00110000
,
01000000
10100000
01000000
01010000
,
00100000
00011000
00000100
00000110
,
00002002
00000000
00003003
00000000
,
00000010
00000000
00000001
00000000
00001000
00000100
00000000
00010000
,
00000000
00001000
00000000
00100000
00000000
00000000
00010000
00000000
,
10000000
00000000
01000000
00000000
10000000
00000000
00100000
01000000
,
00000000
00001000
00000000
00010000
00000000
00000000
01000000
00000000
,
00100000
00000000
00001000
00010000
00000000
00000100
00000000
00000010
,
00000000
00000001
00001000
00000010
,
00000100
00000000
00000100
00000010
00000000
00000000
00000010
00000000
,
00000010
00001000
00000000
00001000
00000001
00000000
00000100
00000000
,
00000001
00000000
00000010
00000000
00000100
00010000
00000000
00001000
,
00000000
00100000
00000000
00001000
00000000
00000000
00010000
00000000
,
01000000
00000000
01000000
00000000
10000000
00000000
00010000
01000000
,
00000000
00010000
00000000
01000000
00000000
00000000
00100000
00000000
,
10000000
00000000
00010000
00100000
00000000
00001000
00000000
00010000
,
00000000
00000100
00001000
00000100
,
00010000
00000000
00010000
00001000
00000000
00000000
00001000
00000000
,
00001000
00010000
00000000
00000000
00001000
00000000
00010000
00000000
,
00100000
00000000
00100000
10000000
00000000
00000000
01000000
00000000
,
01000000
00010000
00000000
00000000
00001000
00000000
00010000
00000000
,
00000100
00000000
00000100
00000010
00000000
00000000
00000001
00000000
,
00000001
00000100
00000000
00000000
00000010
00000000
00001000
00000000
,
00000100
00000000
00000100
00001000
00000000
00000000
00001000
00000000
,
00001000
00010000
00000000
00000000
00010000
00000000
00010000
00100000
,
00000000
00000000
00100000
00001000
00010000
00000100
00000000
00000000
;

//---------------dance-double - D-LIGHT----------------
#NOTEDATA:;
#CHARTNAME:DJ OMiY-LDP;
#STEPSTYPE:dance-double;
#DESCRIPTION:D-LIGHT;
#CHARTSTYLE:;
#DIFFICULTY:Easy;
#METER:4;
#RADARVALUES:0.278386,0.291316,0.059351,0.197838,0.000000,171.000000,6.000000,20.000000,0.000000,0.000000,0.000000,0.000000,0.000000,0.278386,0.291316,0.059351,0.197838,0.000000,171.000000,6.000000,20.000000,0.000000,0.000000,0.000000,0.000000,0.000000;
#CREDIT:;
#NOTES:
00000000
00000000
00000000
00000000
,
00000000
00000000
00000000
00000000
,
00000000
00000000
00000000
00000000
,
00000000
00000000
00000000
00000000
,
00000000
00000000
00000000
00000000
,
00000000
00000000
00000000
00000000
,
00002000
00000000
00000000
00003000
00000000
00000000
00020000
00000000
,
00000000
00030000
00000000
00000000
00001000
00000000
00001000
00000000
,
00000100
00000001
00000100
00000000
,
00000010
00000000
00001000
00000000
,
00000100
00000100
00010000
00000000
,
00010100
00000000
00011000
00000000
,
00100000
00010000
10000000
00000000
,
10000000
00010000
01000000
00000000
,
00200000
00000000
00000000
00300000
00000000
00000000
02000000
00000000
,
00000000
03000000
00000000
00000000
00010000
00000000
10000000
00000000
,
00000000
01000000
01000000
00000000
,
00100000
00100000
00001000
00010000
,
00000000
00001000
00001000
00000000
,
00000100
00000010
00000100
00000001
,
00000000
00000010
00000010
00000000
,
00000100
00001000
00000100
00001000
,
00000000
00000100
00000000
00010000
,
00000000
00001000
00000000
00000000
,
00100000
00010000
00010000
00000000
,
10000000
00100000
10000000
00100000
,
00000000
01000000
01000000
00000000
,
00010000
10000000
00010000
00100000
,
00100000
00000000
00000000
00000000
,
00001000
00010000
00001000
00000100
,
00000001
00000000
00000010
00000000
00000001
00000000
00000000
00002000
,
00000000
00000000
00000000
00003000
00000000
00000000
00000000
00000000
,
00000100
00000000
00010000
00000000
00001000
00000000
00000000
02000000
,
00000000
00000000
00000000
03000000
00000000
00000000
00000000
00000000
,
00010000
00000000
10000000
00000000
00010000
00000000
00000000
00200000
,
00000000
00000000
00000000
00300000
00000000
00000000
00000000
00000000
,
00001000
00000000
00010000
00000000
00001000
00000000
00000000
00000020
,
00000000
00000000
00000000
00000030
00000000
00000000
00000000
00000000
,
00000001
00000010
00001000
00000010
,
00000001
00000010
00001000
00001000
,
00000000
00010000
01000000
10000000
,
01000000
00010000
01000000
01000000
,
00000000
10000000
00100000
10000000
,
00100000
01000000
00010000
01000000
,
00010000
00000000
00100000
00000000
,
00001000
00001000
00001000
00001000
,
00010000
00000000
00000100
00000000
,
00000010
00000000
00000001
00001000
,
00000100
00000000
00010000
00000000
,
00001000
00000000
00100000
00100000
,
02000000
00000000
03000000
00000000
,
10000000
10000000
00010000
00000000
,
00100000
00000000
00001000
00000000
,
00010000
00000100
00010000
00000000
,
00010100
00000000
00001001
00000000
,
00000010
00000000
00000100
00000000
,
00001000
00000100
00000010
00000001
,
00002000
00000000
00000000
00003000
00000000
00000000
00000200
00000000
,
00000000
00000300
00000000
00000000
00010000
00000000
00001000
00000000
,
00100000
00100000
00010000
00000000
,
01000000
00000000
00001000
00000000
,
00010000
00001000
00100000
00000000
,
10010000
00000000
01100000
00000000
,
01000000
00001000
00010000
00000000
,
00000100
00001000
00000010
00000000
,
00000200
00000000
00000000
00000300
00000000
00000000
00000002
00000000
,
00000000
00000003
00000000
00000000
00000010
00000000
00000100
00000000
,
00020000
00000000
00000000
00030000
00000000
00000000
00002000
00000000
,
00000000
00003000
00000000
00000000
00100000
00000000
00010000
00000000
,
02000000
00000000
00000000
03000000
00000000
00000000
00200000
00000000
,
00000000
00300000
00000000
00000000
10000000
00000000
01000000
00000000
,
00020000
00000000
00000000
00030000
00000000
00000000
00002000
00000000
,
00000000
00003000
00000000
00000000
00200000
00000000
00000000
00300000
,
00000000
00000000
00001000
00000000
00000000
00010000
00000000
00000000
;
