#TITLE:Wuv U;
#SUBTITLE:;
#ARTIST:kors k;
#TITLETRANSLIT:;
#SUBTITLETRANSLIT:;
#ARTISTTRANSLIT:;
#GENRE:Happy Hardcore;
#CREDIT:;
#BANNER:Wuv U-bn.png;
#BACKGROUND:Wuv U-bg.png;
#LYRICSPATH:;
#CDTITLE:;
#MUSIC:Wuv U.mp3;
#OFFSET:-0.940000;
#SAMPLESTART:11.151000;
#SAMPLELENGTH:11.118000;
#LASTBEATHINT:263.000000;
#SELECTABLE:YES;
#BPMS:0.000000=173.000000
;
#STOPS:
;
#BGCHANGES:;
#KEYSOUNDS:;
#ATTACKS:;

//---------------dance-single - S-HEAVY----------------
#NOTES:
     dance-single:
     DJ OMiY-HSP:
     Hard:
     7:
     0.467235,0.475730,0.180523,0.180523,0.000000,274.000000,17.000000,17.000000,0.000000,0.000000,0.000000,0.467235,0.475730,0.180523,0.180523,0.000000,274.000000,17.000000,17.000000,0.000000,0.000000,0.000000:
0000
0000
0000
0000
,
0000
0000
0000
0000
,
0000
0000
0000
0000
,
0000
0000
0000
0000
,
0000
0000
0000
0000
,
0000
0000
0000
0000
,
0000
0000
0000
0000
,
1001
0000
0000
1000
0100
0010
0001
0010
,
0100
0000
0010
0100
1000
0000
0000
0001
,
0000
0100
0001
0000
1001
0000
0110
0000
,
0001
0000
1000
0001
1000
0000
0010
1000
,
0000
1000
0100
0000
0020
0001
0031
0000
,
0100
0000
0010
1000
0001
0000
0000
0010
,
0000
0001
1000
0001
0100
0000
0110
0000
,
0010
1000
0010
1000
0001
0100
0001
0000
,
0010
0100
1000
1001
,
0020
2030
3001
0100
,
0001
1000
0001
0100
0001
0000
0010
0100
,
1000
0000
0001
0000
0100
0010
0100
0000
,
0001
0000
0101
0000
1000
0100
2000
0000
,
3010
0200
0001
0301
,
1000
0001
1000
0010
1000
0000
0100
0010
,
0001
0000
1000
0000
0010
0100
0010
0000
,
1001
0110
1001
0110
,
0000
0000
1001
0000
1000
0100
1000
0000
,
0010
1000
0010
0100
0010
0000
1000
0001
,
0100
0000
0010
0000
1000
0100
0010
0000
,
0002
0100
2000
3003
,
1000
0100
0000
0010
0001
0000
1000
0010
,
0000
0100
0001
0000
1000
0000
0001
1000
,
0001
0100
0010
1000
,
0001
0010
0100
1000
0001
0010
0100
0000
,
2001
0000
0000
0000
,
0000
0000
0000
0000
,
0000
0000
0000
0000
,
3000
0000
0000
0000
,
0001
0000
0100
0001
0000
0100
0001
0000
,
1000
0000
0010
1000
0000
0010
1000
0000
,
0001
0000
0100
0010
0000
1000
0001
0000
,
0020
0000
0000
0001
0001
0000
0130
0000
,
1000
0000
0000
0010
0100
0000
0000
0001
,
0000
0001
0000
1000
0001
0000
0000
0000
,
0010
0001
0100
0010
,
1000
0000
0001
0010
0001
0000
0000
0000
,
1000
0000
0100
1000
0200
0000
0000
0000
,
0310
0000
0001
0010
0002
0000
1000
0000
,
0103
0010
0000
0000
0100
0010
0000
0000
,
1000
0000
0001
1000
0100
0010
0001
0010
,
0100
0000
0010
0100
1000
0000
0000
0001
,
0000
1000
0010
0000
1010
0000
0101
0000
,
1000
0001
0100
0001
1000
0000
0100
0010
,
0000
0001
0100
0000
0020
1000
1030
0000
,
1001
0000
0001
0010
0001
0000
1000
0001
,
0000
1000
0100
0010
0001
0000
0100
0000
,
0010
1000
0001
0100
0001
0000
1000
0000
,
0010
0100
0010
0100
0001
1000
0001
1000
,
0100
0000
0010
0001
0010
0000
0001
1000
,
0000
0001
1000
0000
0010
0000
1000
0000
,
0200
2300
3002
0023
,
0130
0010
0001
1000
0001
0000
0100
0000
,
0010
0000
1000
0001
1000
0000
0010
0100
,
0000
0010
0100
0000
0001
0000
1001
0000
,
1000
0100
1000
0100
0010
0001
0010
0001
,
0000
1000
0100
0010
0002
0000
0103
0000
,
1001
0000
0000
0000
;

//---------------dance-single - S-CHALLENGE----------------
#NOTES:
     dance-single:
     DJ OMiY-CSP:
     Challenge:
     9:
     0.709955,0.713596,0.371664,0.403521,0.153975,395.000000,35.000000,38.000000,0.000000,0.000000,0.000000,0.709955,0.713596,0.371664,0.403521,0.153975,395.000000,35.000000,38.000000,0.000000,0.000000,0.000000:
0000
0000
0000
0000
,
0000
0000
0000
0000
,
0000
0000
0000
0000
,
0000
0000
0000
0000
,
0000
0000
0000
0000
,
0000
0000
0000
0000
,
0000
0000
0000
0000
,
1001
0000
0000
0000
0000
0000
0001
0010
0001
0000
0010
0000
0100
0000
1000
0000
,
0010
0100
0001
0010
0200
0000
1300
0020
,
0000
0130
0001
1000
0020
0000
0230
0001
,
0301
1000
0001
0010
0001
1000
0010
0200
,
0000
0000
0301
1000
0001
0000
0010
0000
0100
0000
1000
0000
1001
0000
0000
0000
,
1100
1000
0001
1000
0200
0000
1300
0002
,
0000
0013
0001
1000
0020
0000
2030
0100
,
3100
0010
0001
0010
0100
1000
0001
0010
,
0100
0000
1000
0001
1000
0000
0001
0100
0001
0000
1000
0000
1001
0000
0000
0000
,
0200
0000
0301
1000
0001
0010
0001
1000
,
0200
1000
1000
1000
1300
0001
0100
0010
,
0100
0000
0001
0000
0010
0000
0000
0000
0001
0000
1000
0000
0010
0000
0000
1000
,
0100
0000
0000
0100
0010
0000
0000
0010
0001
0000
1000
0000
0001
0000
0100
0000
,
0001
0010
0100
1000
0010
0100
0010
1000
,
0002
0010
0010
0010
0013
0001
0100
0010
,
1000
0100
0010
0100
1000
0100
0010
0000
,
0011
1100
0101
2010
,
3001
0000
0110
0100
0001
1000
0010
1000
,
0200
0000
0010
0000
0010
0000
0010
0000
0310
0000
0100
0000
1000
0000
0001
1000
,
0100
1000
0001
0010
0100
0010
0001
0100
,
0010
1000
0001
0020
0002
0000
0033
0000
,
1100
0001
0000
0101
0010
0000
1001
0100
,
0000
0000
0011
0000
1000
0000
0000
0000
0001
0010
0100
0010
0001
0000
1000
0000
,
0100
0010
0100
0010
0001
0010
0001
0010
,
0100
0000
1000
0000
0001
0000
0100
0000
0010
1000
0001
1000
0020
0000
0000
0000
,
0130
0000
0000
0000
,
0000
0000
0000
0000
,
0000
0000
0000
0000
,
0000
0000
0000
0000
,
1001
0000
0001
0100
0001
0000
2000
0000
0000
0000
3100
0000
1000
0000
0001
0000
,
0100
0000
0010
1000
0001
0000
0020
0000
0000
0000
0130
0000
0010
0000
0001
0000
,
1000
0000
0001
0010
0100
0000
2000
0000
0000
0000
3001
0000
0100
0000
0001
0000
,
1000
0000
0000
0000
1001
0000
0001
0100
0001
0000
0010
0000
0100
0000
1000
0000
,
0020
0000
0130
0001
2000
0000
3001
0020
,
0000
0031
1000
0010
2000
0000
0001
0000
,
3100
1000
0010
1000
0002
0000
0103
0020
,
0000
0000
0130
0010
0100
0000
0001
0000
0020
0000
0000
0000
0130
0000
0000
0000
,
1001
0000
0001
1000
0010
0000
0110
0000
,
1001
0000
1000
0001
1000
0000
0100
0000
2000
0000
0001
0000
3001
0000
0010
0000
,
1001
0001
0101
0000
1010
1000
1001
0001
,
0201
0000
0000
0000
0310
0000
1000
0001
1000
0000
0100
0000
0010
0000
0001
0000
,
0100
0010
0100
0001
2000
0000
3010
2000
,
0000
0000
3100
1000
0001
0000
0100
0000
0020
0000
0000
0000
2030
0000
0001
0000
,
3001
1000
0100
0010
0100
1000
0001
0010
,
0001
0000
1000
0100
1000
0000
0001
0000
0100
0000
0001
0000
0011
0000
0000
0000
,
0110
0100
1000
0001
0200
0000
0310
2000
,
0000
0000
3001
0100
0001
0000
0010
0000
0200
0000
0000
0000
0320
0000
0100
0000
,
0130
1000
0001
0100
0010
0100
0001
1000
,
0001
0000
0100
0000
0001
0000
1000
0100
1000
0001
1000
0001
1000
0000
0010
0000
,
0110
0100
0001
0100
0010
1000
0100
0020
,
0000
0000
0130
0000
1000
0000
0001
0000
1000
0000
0010
1000
0001
0000
0000
0000
,
0010
0000
0001
0100
0001
0000
1000
0100
1000
0000
0001
0000
1000
0000
0100
0000
,
0010
0000
0001
1000
0001
0000
0100
0000
0110
0000
0000
0000
1001
0000
0000
0000
,
1000
0001
0100
0001
0010
0100
0010
0001
,
1000
0100
0010
0100
1000
0010
0100
0010
,
1010
1000
0100
0110
0010
0001
0101
1000
,
0000
1001
0001
0101
1010
1000
0100
0010
,
1001
0000
0000
0000
;

//---------------dance-single - S-STANDARD----------------
#NOTES:
     dance-single:
     DJ OMiY-SSP:
     Medium:
     5:
     0.392902,0.509711,0.084952,0.509711,0.000000,203.000000,8.000000,48.000000,0.000000,0.000000,0.000000,0.392902,0.509711,0.084952,0.509711,0.000000,203.000000,8.000000,48.000000,0.000000,0.000000,0.000000:
0000
0000
0000
0000
,
0000
0000
0000
0000
,
0000
0000
0000
0000
,
0000
0000
0000
0000
,
0000
0000
0000
0000
,
0000
0000
0000
0000
,
0000
0000
0000
0000
,
1001
0000
0000
0000
0010
1000
0010
0000
,
0100
0000
0001
0010
0001
0000
0000
2000
,
0000
3002
0020
0033
,
0100
0000
1000
0000
0200
0000
0000
2300
,
0000
3001
0100
0000
,
0010
0000
1000
0001
1000
0000
0000
0002
,
0000
0023
0200
0330
,
0100
1000
0100
0000
1000
0001
1000
0000
,
0010
0010
0020
0030
,
0100
0001
0000
1000
,
0001
0000
1000
0001
1000
0000
0010
0000
,
0100
0100
0001
1000
,
0001
0001
0010
0100
,
1000
0001
0000
0010
,
0001
0000
1000
0000
0001
1000
0001
0000
,
0100
0010
1000
1000
,
0002
0023
0230
2300
,
3000
1001
0001
0001
,
1000
0000
0010
0100
0010
0000
0100
0000
,
0001
0010
0100
1000
,
0010
0200
0020
0330
,
0002
0000
0000
0023
0000
0000
0230
0000
,
0000
2300
0000
0000
3001
0000
1001
0000
,
0001
0100
0001
0100
,
0010
0000
1000
0000
0001
1000
0200
0000
,
0020
0000
0000
0000
,
0000
0000
0300
0000
,
0002
0000
0030
0000
,
2000
0000
3003
0000
,
0001
0000
1000
0001
0000
0000
0100
0000
,
0010
0000
0100
0010
0000
0000
1000
0000
,
0001
0000
1000
0100
0000
0000
0010
0000
,
0002
0000
0000
1000
1003
0000
0001
0000
,
0100
0000
0000
0010
0100
0000
0000
0002
,
0000
2003
0200
3300
,
0010
0001
0010
0100
,
1000
0100
0020
0030
,
0001
0000
0100
0001
0200
0000
0000
0000
,
0310
0000
1000
0100
2000
0000
3000
0000
,
2200
3300
0220
0330
,
0022
0000
0033
0001
1000
0000
0010
0000
,
0100
0000
0010
1000
0001
0000
0000
2000
,
0000
3200
0020
0330
,
0001
0000
1000
0000
0002
0000
0000
0203
,
0000
0000
0310
0100
0020
0000
0030
0000
,
1000
0000
0001
0100
0001
0000
0000
0020
,
0000
0032
2000
3003
,
0001
0100
0001
0000
1000
0100
1000
0000
,
0020
0000
0000
0000
0130
0010
0100
0010
,
1000
0100
0010
0001
,
0010
0100
1000
0001
,
1000
0100
0001
0010
,
1000
0001
0200
0300
,
0001
0010
0100
1000
,
0100
0010
0001
1000
,
0001
0000
0000
1001
0000
0000
1000
0000
,
0000
0010
0000
0100
0020
0000
0030
0000
,
0110
0000
0000
0000
;

//---------------dance-single - S-LIGHT----------------
#NOTES:
     dance-single:
     DJ OMiY-LSP:
     Easy:
     3:
     0.248788,0.271846,0.095571,0.286712,0.000000,128.000000,9.000000,27.000000,0.000000,0.000000,0.000000,0.248788,0.271846,0.095571,0.286712,0.000000,128.000000,9.000000,27.000000,0.000000,0.000000,0.000000:
0000
0000
0000
0000
,
0000
0000
0000
0000
,
0000
0000
0000
0000
,
0000
0000
0000
0000
,
0000
0000
0000
0000
,
0000
0000
0000
0000
,
0000
0000
0000
0000
,
1001
0000
0001
0001
,
1000
0000
0100
0000
,
0010
0001
1000
0000
,
0020
0000
0000
0000
,
0230
0000
0000
0301
,
1000
0000
0100
0000
,
1000
0001
1000
0000
,
0002
0000
0023
0000
,
0230
0000
0000
1300
,
1001
0000
0001
0000
,
0100
0100
0100
0010
,
1000
0000
0001
0000
,
0100
0010
0100
0000
,
0001
0000
0010
0000
,
0001
0001
0001
1000
,
0010
0000
1000
0000
,
0001
0010
0100
1000
,
0000
1001
1000
0000
,
0100
0100
0100
0010
,
0001
0000
1000
0000
,
0010
0100
0002
0000
,
2003
0000
0000
3200
,
0000
0000
0320
0000
,
0031
0000
0100
0000
,
0010
0100
0010
1000
,
1001
0000
0000
0000
,
0000
0000
0000
0000
,
0000
0000
0000
0000
,
0000
0000
0000
0000
,
0020
0000
0000
0030
0000
0000
1000
0000
,
0002
0000
0000
0003
0000
0000
0001
0000
,
2000
0000
0000
3000
0000
0000
0100
0000
,
0010
0000
0010
0000
,
0001
0000
1000
0000
,
0010
0100
0010
0000
,
2000
0000
3200
0000
,
0320
0000
0032
0000
,
1003
0000
1001
0000
,
0001
0000
1001
0000
,
0110
0000
0220
0300
,
0030
0000
1000
0001
,
1000
0000
0010
0000
,
0100
0001
1000
0000
,
0001
0000
0010
0000
,
0001
0010
0100
0000
,
1000
0000
0001
0000
,
0100
0010
0100
0000
,
0001
0000
1000
0000
,
0002
0000
2000
3003
,
0001
1000
0001
0000
,
1000
0100
1000
0000
,
0020
0000
2030
0000
,
3001
1000
0100
0000
,
0020
0000
0032
0000
,
2003
0000
3020
0000
,
0230
0000
0000
0300
0000
0000
0010
0000
,
0000
1000
1000
0000
,
1001
0000
0000
0000
;

//---------------dance-single - BEGINNER----------------
#NOTES:
     dance-single:
     DJ OMiY-BEG:
     Beginner:
     1:
     0.131979,0.135923,0.010619,0.212380,0.000000,66.000000,1.000000,20.000000,0.000000,0.000000,0.000000,0.131979,0.135923,0.010619,0.212380,0.000000,66.000000,1.000000,20.000000,0.000000,0.000000,0.000000:
0000
0000
0000
0000
,
0000
0000
0000
0000
,
0000
0000
0000
0000
,
0000
0000
0000
0000
,
0000
0000
0000
0000
,
0000
0000
0000
0000
,
0000
0000
0000
0000
,
1001
0000
0000
0000
,
0020
0000
0030
0000
,
0002
0000
0003
0000
,
1000
0000
0000
0000
,
0100
0000
0000
0000
,
2000
0000
3000
0000
,
0200
0000
0300
0000
,
0010
0000
0010
0000
,
0020
0000
0000
0030
,
0010
0000
0000
0000
,
0001
0000
0000
0000
,
1000
0000
0000
0000
,
0100
0000
0000
0000
,
1000
0000
0000
0000
,
0010
0000
0000
0000
,
0100
0000
0000
0000
,
0001
0000
0001
0000
,
0000
1000
0000
0000
,
0100
0000
0000
0000
,
0010
0000
0000
0000
,
0001
0000
1000
0000
,
0020
0000
0000
0030
,
0000
0000
0100
0000
,
0100
0000
0000
0000
,
0001
0000
2000
3000
,
1000
0000
0000
0000
,
0000
0000
0000
0000
,
0000
0000
0000
0000
,
0000
0000
0000
0000
,
0010
0000
0000
0000
,
0010
0000
0000
0000
,
0100
0000
0000
0000
,
0100
0000
0001
0000
,
0020
0000
0030
0000
,
0200
0000
0300
0000
,
1000
0000
0000
0000
,
0001
0000
1000
0000
,
0020
0000
0030
0000
,
0020
0000
0030
0000
,
0010
0000
0010
0000
,
0020
0000
0000
0030
,
0020
0000
0030
0000
,
2000
0000
3000
0000
,
0001
0000
0000
0000
,
0010
0000
0001
0000
,
0200
0000
0300
0000
,
0002
0000
0003
0000
,
1000
0000
0000
0000
,
0010
0000
1000
0000
,
0200
0000
0300
0000
,
0020
0000
0030
0000
,
0001
0000
1000
0000
,
0001
0000
0000
0000
,
2000
0000
3000
0000
,
0020
0000
0030
0000
,
0100
0000
0000
0001
,
0000
0000
1000
0000
,
0010
0000
0000
0000
;

//---------------dance-double - D-CHALLENGE----------------
#NOTES:
     dance-double:
     DJ OMiY-CDP:
     Challenge:
     9:
     0.673547,0.645634,0.254856,0.318569,0.164594,390.000000,24.000000,30.000000,0.000000,0.000000,0.000000,0.673547,0.645634,0.254856,0.318569,0.164594,390.000000,24.000000,30.000000,0.000000,0.000000,0.000000:
// measure 0
00000000
00000000
00000000
00000000
,  // measure 1
00000000
00000000
00000000
00000000
,  // measure 2
00000000
00000000
00000000
00000000
,  // measure 3
00000000
00000000
00000000
00000000
,  // measure 4
00000000
00000000
00000000
00000000
,  // measure 5
00000000
00000000
00000000
00000000
,  // measure 6
00000000
00000000
00000000
00000000
,  // measure 7
00011000
00000000
00000000
00000000
00000000
00000000
00010000
00001000
00010000
00000000
00000100
00000000
00000010
00000000
00000001
00000000
,  // measure 8
00000200
00000000
00000310
00001000
00000001
00000010
00000001
00002000
,  // measure 9
00000000
00003100
00010000
00001000
00020000
00000000
02030000
10000000
,  // measure 10
13000000
00010000
01000000
00100000
00010000
00100000
01000000
00020000
,  // measure 11
00000000
00000000
00130000
00001000
00100000
00000000
00010000
00000000
10000000
00000000
00010000
00000000
10010000
00000000
00000000
00000000
,  // measure 12
00010000
00100000
00001000
00010000
00000200
00000000
00001300
00000001
,  // measure 13
00000010
00000000
00000100
00000010
00000100
00000000
00001000
00000000
00000200
00000000
00000000
00000000
00020300
00000000
00001000
00000000
,  // measure 14
00031000
00100000
00010000
10000000
01000000
00100000
00001000
00010000
,  // measure 15
00000100
00000010
00000001
00000100
00001000
00000100
00000101
00000000
,  // measure 16
00002010
00000000
00003100
00010000
00001000
00100000
00010000
00100000
,  // measure 17
02000000
00100000
00100000
00100000
03100000
01000000
10000000
00010000
,  // measure 18
00100000
00000000
00001000
00000000
00010000
00000000
00000100
00000000
00000100
00000000
00001000
00000000
00000100
00000000
00000000
00000100
,  // measure 19
00000010
00000000
00000000
00000010
00000001
00000000
00000000
00000001
00001000
00000000
00000000
00001000
00000100
00000000
00010000
00000000
,  // measure 20
00001000
00100000
00001000
00010000
00000100
00000010
00000001
00000100
,  // measure 21
00002000
00000100
00000100
00000100
00003100
00000010
00001000
00000010
,  // measure 22
00010000
00001000
00100000
00010000
00100000
01000000
10000000
00000000
,  // measure 23
10010000
00011000
00001001
00022000
,  // measure 24
00033000
00000000
10010000
10000000
00010000
00100000
01000000
00100000
,  // measure 25
00020000
00000000
00100000
00000000
00100000
00000000
00100000
00000000
00130000
00000000
00010000
00000000
00001000
00000100
00001000
00000100
,  // measure 26
00000010
00000000
00000100
00000000
00001000
00000000
00000000
00000000
00000001
00000000
00000010
00000000
00000100
00000000
00000000
00001000
,  // measure 27
00000100
00000000
00000000
00000100
00010000
00000000
00000000
00010000
00002000
00000000
00000000
00000000
00003000
00000000
00000000
00000000
,  // measure 28
00101000
00100000
00000000
00110000
00010000
00000000
01010000
01000000
,  // measure 29
00000000
00000000
01100000
00000000
00100000
00000000
00000000
00000000
10000000
00010000
10000000
00010000
10000000
00000000
01000000
00000000
,  // measure 30
00100000
00010000
00100000
00010000
00001000
00000100
00001000
00000100
,  // measure 31
00000010
00000001
00000010
00000100
00001000
00010000
00200000
00000000
,  // measure 32
01300000
00000000
00000000
00000000
,  // measure 33
00000000
00000000
00000000
00000000
,  // measure 34
00000000
00000000
00000000
00000000
,  // measure 35
00000000
00000000
00000000
00000000
,  // measure 36
00011000
00000000
00000000
00000000
00010000
00000000
00001000
00000000
00000000
00000000
00010000
00001000
00010000
00000000
00001000
00000000
,  // measure 37
00020000
00000000
00000000
00000000
00031000
00000000
00010000
00000000
00000000
00000000
00001000
00010000
00001000
00000000
00010000
00000000
,  // measure 38
00002000
00000000
00000000
00000000
00013000
00000000
00001000
00000000
00000000
00000000
00010000
00001000
00010000
00000000
00001000
00000000
,  // measure 39
00000200
00000000
00000000
00000000
00000000
00000000
00000301
00000100
00000001
00000000
00001000
00000000
00000100
00000000
00000010
00000000
,  // measure 40
00000200
00000000
00001300
00000100
00020000
00000000
00031000
00100000
,  // measure 41
00010000
00000000
10000000
00100000
10000000
00000000
00010000
00000000
00020000
00000000
00000000
00000000
10030000
00000000
00000000
00000000
,  // measure 42
01000000
00100000
00010000
00100000
01000000
10000000
00010000
00200000
,  // measure 43
00000000
00000000
00301000
00100000
00001000
00000000
00010000
00000000
00002000
00000000
00000000
00000000
00003100
00000000
00000000
00000000
,  // measure 44
00000110
00000000
00000010
00000100
00000002
00000000
00000013
00000000
,  // measure 45
00000110
00000000
00000100
00001000
00000100
00000000
00010000
00000000
00000200
00000000
00010000
00000000
00010300
00000000
00001000
00000000
,  // measure 46
00011000
00001000
00010000
00000000
00011000
00010000
00001000
00000000
,  // measure 47
00100000
00000000
00000000
00000000
00010000
00000000
10000000
00010000
10000000
00000000
01000000
00000000
00100000
00000000
00010000
00000000
,  // measure 48
10000000
00100000
01000000
00010000
00200000
00000000
00301000
00010000
,  // measure 49
00001000
00000000
00000100
00000010
00000100
00000000
00000001
00000000
00000100
00000000
00000000
00000000
00001001
00000000
00000000
00000000
,  // measure 50
00000001
00000010
00000100
00001000
00000200
00000000
00010300
00001000
,  // measure 51
00100000
00000000
00010000
10000000
00010000
00000000
01000000
00000000
00100000
00000000
00000000
00000000
10010000
00000000
00000000
00000000
,  // measure 52
10000000
01000000
00010000
01000000
20000000
00000000
30010000
00100000
,  // measure 53
00010000
00000000
00100000
00001000
00100000
00000000
00001000
00000000
00010000
00000000
00000000
00000000
00010100
00000000
00000000
00000000
,  // measure 54
00000100
00001000
00000100
00000010
00000001
00000100
00000010
00000100
,  // measure 55
00000002
00000000
00000000
00000000
00001003
00000000
00000001
00000100
00000001
00001000
00000001
00000100
00000001
00000000
00001000
00000000
,  // measure 56
00000100
00001000
00000100
00010000
00001000
00100000
00010000
10000000
,  // measure 57
01000000
00100000
00010000
00100000
00001000
00010000
00000100
00000010
,  // measure 58
00000001
00000000
00001000
00000100
00001000
00000000
00000010
00001000
00000010
00000000
00001000
00000000
00000100
00000000
00010000
00000000
,  // measure 59
00001000
01000000
00100000
01000000
00010000
10000000
01000000
00010000
,  // measure 60
00001000
00010000
00001000
00000010
00000001
00001000
00000100
00010000
,  // measure 61
00001000
00000000
00100000
00010000
10000000
00000000
01000000
00000000
00010000
00000000
01000000
00000000
10000000
00000000
00010000
00000000
,  // measure 62
10010000
00010000
01000000
01001000
00000000
00001000
00101000
00100000
,  // measure 63
00000000
01000000
00100000
00010000
00001000
00000010
00000001
00001000
,  // measure 64
00000100
00000000
00000000
00000000
;

//---------------dance-double - D-HEAVY----------------
#NOTES:
     dance-double:
     DJ OMiY-HDP:
     Hard:
     7:
     0.499092,0.543692,0.244237,0.244237,0.000000,283.000000,23.000000,23.000000,0.000000,0.000000,0.000000,0.499092,0.543692,0.244237,0.244237,0.000000,283.000000,23.000000,23.000000,0.000000,0.000000,0.000000:
// measure 0
00000000
00000000
00000000
00000000
,  // measure 1
00000000
00000000
00000000
00000000
,  // measure 2
00000000
00000000
00000000
00000000
,  // measure 3
00000000
00000000
00000000
00000000
,  // measure 4
00000000
00000000
00000000
00000000
,  // measure 5
00000000
00000000
00000000
00000000
,  // measure 6
00000000
00000000
00000000
00000000
,  // measure 7
00011000
00000000
00000000
00001000
00100000
00010000
10000000
01000000
,  // measure 8
00200000
00000000
00310000
10000000
00010000
00000000
00000000
00100000
,  // measure 9
00000000
00001000
00010000
00000000
00010100
00000000
00010010
00000000
,  // measure 10
00000010
00001000
00000010
00000000
00001000
00000000
00000001
00000010
,  // measure 11
00000000
00000100
00002000
00000000
00003020
00000100
00000130
00000000
,  // measure 12
00000001
00000000
00000010
00000001
00001000
00000000
00000000
00000100
,  // measure 13
00000000
00010000
00002000
00000000
00203000
00000000
00310000
00000000
,  // measure 14
10000000
00010000
01000000
00000000
00100000
10000000
00010000
00000000
,  // measure 15
10000000
01000000
00100000
00010000
00100000
01000000
20000000
00000000
,  // measure 16
30010000
01010000
10000000
00010000
,  // measure 17
00100000
00001000
00100000
00001000
00100000
00001000
00010000
00000100
,  // measure 18
00001000
00000000
00000001
00000000
00000010
00000100
00001000
00000000
,  // measure 19
00000001
00000101
00001000
00001010
,  // measure 20
00000100
00000000
00001100
00000000
00000100
00010000
00000100
00000000
,  // measure 21
00010000
00001000
00010000
00001000
00010000
00001000
00100000
00010000
,  // measure 22
10000000
00000000
01000000
00000000
00100000
01000000
10000000
00000000
,  // measure 23
01100000
00110000
00011000
00001100
,  // measure 24
00000000
00000000
00000110
00000000
00000001
00001000
00000001
00000000
,  // measure 25
00000100
00000001
00000100
00000001
00000100
00000001
00001000
00000010
,  // measure 26
00000100
00000000
00000010
00000000
00001000
00000100
00010000
00000000
,  // measure 27
00002000
00203000
00020000
00330000
,  // measure 28
00010000
10000000
00000000
00010000
01000000
00000000
00100000
10000000
,  // measure 29
00000000
10000000
01000000
00000000
00200000
00000000
00310000
00100000
,  // measure 30
00001000
00010000
00001000
00010000
00000100
00001000
00000100
00001000
,  // measure 31
00000001
00000010
00000100
00001000
00000100
00000010
00000002
00000000
,  // measure 32
00002000
00000000
00000000
00000000
,  // measure 33
00000000
00000000
00000003
00000000
,  // measure 34
00000200
00000000
00003000
00000000
,  // measure 35
00020000
00000000
00030300
00000000
,  // measure 36
00001000
00000000
00100000
00001000
00000000
00100000
00001000
01000000
,  // measure 37
00010000
00000000
01000000
00010000
00000000
01000000
00010000
10000000
,  // measure 38
00100000
00000000
10000000
01000000
00000000
10000000
01000000
00100000
,  // measure 39
00020000
00130000
00001000
00011000
,  // measure 40
00010000
00000000
00001000
00010000
00001000
00000000
00000000
00010000
,  // measure 41
00000000
00000100
00001000
00000000
00000001
00000000
00000000
00000000
,  // measure 42
00000010
00000000
00000100
00000000
00010000
00000000
00001000
00100000
,  // measure 43
00000000
00100000
00001000
00000000
02000000
00000000
00000000
00000000
,  // measure 44
03010000
00000000
10000000
00010000
20000000
00000000
00000000
00000000
,  // measure 45
31000000
00000000
00100000
00001000
00020000
00000000
00031000
00000000
,  // measure 46
00011000
00000100
00011000
00100000
,  // measure 47
00022000
00000000
00033000
00010000
00001000
00010000
00000100
00001000
,  // measure 48
00000100
00000000
00000010
00000001
00001000
00000000
00000000
00000001
,  // measure 49
00000000
00000100
00000001
00000000
00001001
00000000
00000110
00000000
,  // measure 50
00000001
00000000
00001000
00000100
00010000
00000000
00001000
00010000
,  // measure 51
00000000
00001000
00100000
00000000
00020000
00000000
02030000
00100000
,  // measure 52
03100000
00000000
10000000
01000000
10000000
00000000
00000000
01000000
,  // measure 53
00000000
00100000
00010000
00000000
00110000
00000000
00101000
00000000
,  // measure 54
00010000
00001000
00010000
00000100
,  // measure 55
00010000
00001000
00010000
00001000
00100000
00010000
00100000
01000000
,  // measure 56
10000000
00000000
01000000
00100000
00010000
00000000
00100000
00001000
,  // measure 57
00000000
00010000
00000100
00000000
00001000
00000000
00000001
00000000
,  // measure 58
00000010
00000000
00000001
00000100
00000010
00000000
00001000
00000100
,  // measure 59
00000010
00000000
00000001
00001000
00000001
00000000
00000101
00000000
,  // measure 60
00001001
00000000
00001000
00000100
00010000
00000000
00001000
00010000
,  // measure 61
00000000
00010000
00001000
00100000
00010000
00000000
00100000
00000000
,  // measure 62
00010000
01000000
00010000
10000000
01000000
00100000
00010000
00100000
,  // measure 63
00000000
00001000
00010000
00001000
00020000
00000000
00030000
00000000
,  // measure 64
00011000
00000000
00000000
00000000
;

//---------------dance-double - D-STANDARD----------------
#NOTES:
     dance-double:
     DJ OMiY-SDP:
     Medium:
     6:
     0.429310,0.441750,0.212380,0.276093,0.000000,237.000000,20.000000,26.000000,0.000000,0.000000,0.000000,0.429310,0.441750,0.212380,0.276093,0.000000,237.000000,20.000000,26.000000,0.000000,0.000000,0.000000:
// measure 0
00000000
00000000
00000000
00000000
,  // measure 1
00000000
00000000
00000000
00000000
,  // measure 2
00000000
00000000
00000000
00000000
,  // measure 3
00000000
00000000
00000000
00000000
,  // measure 4
00000000
00000000
00000000
00000000
,  // measure 5
00000000
00000000
00000000
00000000
,  // measure 6
00000000
00000000
00000000
00000000
,  // measure 7
00011000
00000000
00000000
00000000
00001000
00010000
00001000
00000000
,  // measure 8
00100000
00000000
00010000
01000000
00010000
00000000
00000000
20000000
,  // measure 9
00000000
32000000
00200000
03300000
,  // measure 10
00010000
00000000
00100000
00000000
00001000
00000000
00010000
00000100
,  // measure 11
00000000
00000100
00010000
00000000
00002000
00000000
00003100
00000000
,  // measure 12
00000001
00000000
00000010
00000100
00000010
00000000
00000000
00000200
,  // measure 13
00000000
00020300
00002000
00033000
,  // measure 14
00100000
00001000
00100000
00010000
,  // measure 15
10000000
00000000
00010000
01000000
00010000
10000000
02000000
00000000
,  // measure 16
03100000
00110000
00100000
00100000
,  // measure 17
00001000
00000000
00010000
00001000
00010000
00000000
00000100
00000010
,  // measure 18
00000100
00000000
00001000
00000000
00000001
00000100
00000001
00000000
,  // measure 19
00001000
00000101
00000001
00001100
,  // measure 20
00000010
00000000
00000110
00000000
00000010
00010000
00000010
00000000
,  // measure 21
00010000
00000000
00001000
00000000
00100000
00010000
00100000
00000000
,  // measure 22
01000000
00000000
01000000
00000000
10000000
00100000
10000000
00000000
,  // measure 23
10010000
01100000
10010000
01100000
,  // measure 24
00000000
00000000
10010000
00000000
10000000
01000000
00100000
00000000
,  // measure 25
00010000
00000000
00100000
00000000
00001000
00010000
00001000
00000000
,  // measure 26
00000010
00000000
00000001
00000000
00001000
00000100
00010000
00000000
,  // measure 27
00002000
00100000
00020000
00033000
,  // measure 28
00011000
00000000
00000000
00001100
00000000
00000000
00000101
00000000
,  // measure 29
00000000
00000011
00000000
00000000
00001100
00000000
00001001
00000000
,  // measure 30
00000001
00000010
00000100
00001000
,  // measure 31
00000100
00010000
00001000
00010000
00001000
00100000
00020000
00000000
,  // measure 32
20000000
00000000
00000000
00000000
,  // measure 33
00000000
00000000
00030000
00000000
,  // measure 34
02000000
00000000
30000000
00000000
,  // measure 35
00200000
00000000
03300000
00000000
,  // measure 36
00010000
00000000
00100000
00001000
00000000
00000000
00010000
00000000
,  // measure 37
00000100
00000000
00001000
00000001
00000000
00000000
00000010
00000000
,  // measure 38
00000100
00000000
00010000
00001000
00000000
00000000
00010000
00000000
,  // measure 39
00011000
00000000
00000000
00000000
00001000
00010000
00000100
00000000
,  // measure 40
00001000
00000000
00000000
00000001
00000100
00000000
00000000
00000020
,  // measure 41
00000000
00002030
00000200
00003300
,  // measure 42
00010000
00000000
00001000
00000000
00100000
00000000
00010000
10000000
,  // measure 43
00000000
10000000
00010000
00000000
00200000
00000000
01000000
00000000
,  // measure 44
02300000
00000000
13000000
00010000
20000000
00000000
00000000
00000000
,  // measure 45
30010000
00000000
01000000
00100000
02000000
00000000
00000000
00000000
,  // measure 46
03010000
00100000
00000000
00000000
00001000
00010000
00000000
00000000
,  // measure 47
00000100
00000000
00001000
00000000
00000001
00001000
00000010
00000000
,  // measure 48
00000100
00000000
00000001
00000010
00000100
00000000
00000000
00002000
,  // measure 49
00000000
00003200
00020000
00030300
,  // measure 50
00001000
00000000
00100000
00000000
00010000
00000000
01000000
00010000
,  // measure 51
00000000
00010000
00100000
00000000
00020000
00000000
10030000
00000000
,  // measure 52
01000000
00000000
00100000
00001000
00100000
00000000
00001000
00010000
,  // measure 53
00000000
00010000
00000100
00000000
00002000
00000000
00003001
00000000
,  // measure 54
00000010
00000001
00000100
00000010
,  // measure 55
00001000
00000000
00000100
00000000
00001000
00000001
00001000
00000001
,  // measure 56
00000100
00000010
00001000
00000100
,  // measure 57
00010000
00000000
00001000
00010000
00001000
00000000
00100000
00000000
,  // measure 58
00010000
01000000
00010000
00000000
10000000
01000000
10000000
00000000
,  // measure 59
01000000
00000000
00100000
00001000
00010000
00000000
00000100
00000000
,  // measure 60
00001000
00000100
00000001
00000000
00000001
00000100
00001000
00000000
,  // measure 61
00000001
00000100
00001000
00000000
00001000
00000100
00000001
00000000
,  // measure 62
00001001
00000000
00000000
00001100
00000000
00000000
00010100
00000000
,  // measure 63
00000000
00001000
00100000
00010000
00100000
00000000
01000000
00000000
,  // measure 64
10000000
00000000
00000000
00000000
;

//---------------dance-double - D-LIGHT----------------
#NOTES:
     dance-double:
     DJ OMiY-LDP:
     Easy:
     3:
     0.260924,0.373788,0.074333,0.244237,0.000000,142.000000,7.000000,23.000000,0.000000,0.000000,0.000000,0.260924,0.373788,0.074333,0.244237,0.000000,142.000000,7.000000,23.000000,0.000000,0.000000,0.000000:
// measure 0
00000000
00000000
00000000
00000000
,  // measure 1
00000000
00000000
00000000
00000000
,  // measure 2
00000000
00000000
00000000
00000000
,  // measure 3
00000000
00000000
00000000
00000000
,  // measure 4
00000000
00000000
00000000
00000000
,  // measure 5
00000000
00000000
00000000
00000000
,  // measure 6
00000000
00000000
00000000
00000000
,  // measure 7
00011000
00000000
00002000
00000000
,  // measure 8
00103000
00010000
10000000
00000000
,  // measure 9
01000000
00000000
00100000
00000000
,  // measure 10
00001000
00010000
00001000
00000000
,  // measure 11
00000100
00000001
00001000
00000000
,  // measure 12
00000001
00000000
00000100
00000000
,  // measure 13
00000010
00001000
00000001
00000000
,  // measure 14
00000010
00000000
00000100
00000000
,  // measure 15
00000010
00000100
00002000
00003100
,  // measure 16
00010100
00010100
00000000
00010000
,  // measure 17
00001000
00001000
00001000
00100000
,  // measure 18
00010000
00000000
10000000
00000000
,  // measure 19
01000000
01000000
00100000
00010000
,  // measure 20
00110000
00110000
00000000
00001000
,  // measure 21
00010000
00010000
00010000
00000100
,  // measure 22
00001000
00000000
00000001
00000010
,  // measure 23
00000200
00000320
00000032
00002003
,  // measure 24
00003000
00001001
00000000
00000100
,  // measure 25
00000010
00000010
00000010
00001000
,  // measure 26
00000100
00000000
00010000
00001000
,  // measure 27
00100000
00100000
00020000
00000000
,  // measure 28
20030000
00000000
00000000
30000000
00000000
00000000
02000000
00000000
,  // measure 29
00000000
03000000
00000000
00000000
00100000
00000000
00010000
00000000
,  // measure 30
00200000
00000000
00302000
00000000
,  // measure 31
00023000
00032000
00023000
00031000
,  // measure 32
00011000
00000000
00000000
00000000
,  // measure 33
00000000
00000000
00000000
00000000
,  // measure 34
00000000
00000000
00000000
00000000
,  // measure 35
00000000
00000000
00000000
00000000
,  // measure 36
00000000
00001000
00000000
00001000
,  // measure 37
00000000
00010000
00000000
00010000
,  // measure 38
00000000
01000000
00000000
01000000
,  // measure 39
20000000
00000000
00020000
30030000
,  // measure 40
00020000
00000000
01030000
00000000
,  // measure 41
20000000
00000000
31000000
00000000
,  // measure 42
00010000
00000000
00100000
00000000
,  // measure 43
00001000
00010000
00000100
00000000
,  // measure 44
00002000
00000000
00003100
00000100
,  // measure 45
00000002
00000000
00000103
00000100
,  // measure 46
00001000
00000000
00000001
00000000
,  // measure 47
00000020
00000000
00000100
00000130
,  // measure 48
00000010
00000000
00000001
00000000
,  // measure 49
00001000
00000100
00001000
00000000
,  // measure 50
00000100
00000000
00010000
00000000
,  // measure 51
00001000
00010000
00001000
00000000
,  // measure 52
00100000
00000000
00010000
00000000
,  // measure 53
10000000
01000000
00100000
00000000
,  // measure 54
00010000
00000000
01000000
00000000
,  // measure 55
00001000
00010000
00001000
00010000
,  // measure 56
00000100
00000000
00000010
00000000
,  // measure 57
00000001
00000000
00000100
00000000
,  // measure 58
00001000
00000000
00010000
00000000
,  // measure 59
01000000
10000000
00010000
00000000
,  // measure 60
00100000
00000000
00001000
00000000
,  // measure 61
00010000
00000000
00000100
00000000
,  // measure 62
00000020
00000000
00000000
00000030
00000000
00000000
00000002
00000000
,  // measure 63
00000000
00001003
00000001
00000100
,  // measure 64
00000001
00000000
00000000
00000000
;
