#TITLE:The Sampling Paradise;
#SUBTITLE:;
#ARTIST:Mamonis;
#TITLETRANSLIT:;
#SUBTITLETRANSLIT:;
#ARTISTTRANSLIT:;
#GENRE:Hard Trance;
#CREDIT:;
#BANNER:The Sampling Paradise-bn.png;
#BACKGROUND:The Sampling Paradise-bg.png;
#LYRICSPATH:;
#CDTITLE:;
#MUSIC:The Sampling Paradise.mp3;
#OFFSET:-0.540000;
#SAMPLESTART:13.320000;
#SAMPLELENGTH:12.820000;
#SELECTABLE:YES;
#DISPLAYBPM:150.000000;
#BPMS:0.000000=150.000000
,202.500000=75.000000
,203.000000=37.500000
,203.250000=75.000000
,203.500000=150.000000
,204.000000=300.000000
,207.000000=150.000000
,247.000000=300.000000
,248.000000=150.000000
;
#STOPS:247.000000=0.200000
;
#BGCHANGES:;
#KEYSOUNDS:;
#ATTACKS:;

//---------------dance-single - S-HEAVY----------------
#NOTES:
     dance-single:
     DJ OMiY-HSP:
     Hard:
     10:
     0.793431,0.793322,0.277281,0.142842,1.000000,611.000000,33.000000,17.000000,0.000000,0.000000,0.000000,0.793431,0.793322,0.277281,0.142842,1.000000,611.000000,33.000000,17.000000,0.000000,0.000000,0.000000:
0000
0000
0000
0000
,
0000
0000
0000
0000
,
1000
0100
1000
0100
0020
0000
0000
0000
0031
0010
0100
1000
0010
0000
1000
0001
,
0100
0000
0010
0000
0001
0000
0010
0000
0100
0001
1000
0010
1000
0000
0100
0000
,
0110
0000
0010
0000
0100
0000
1000
0001
1000
0000
0010
0000
1000
0000
0100
0000
,
0010
0001
0010
0000
0100
1000
0100
0000
0010
0001
1000
0010
0100
0000
0010
1000
,
0001
0000
0100
0000
0010
0000
1000
0000
0100
0000
0001
0000
0100
0000
1000
0100
,
0020
0031
0101
0120
,
1030
0000
0001
0010
0000
0001
0000
1000
0000
0010
1000
0000
0100
0000
0010
0000
,
0001
0000
1000
0100
0000
1000
0000
0010
0000
0100
0001
0000
1000
0000
0001
0000
,
0011
0000
0001
0100
0000
0001
0000
0010
0000
0100
0010
0000
0001
0000
1000
0000
,
0100
1000
0001
0000
0010
0000
0001
1000
0200
0000
1000
0000
1300
0000
0100
0000
,
0110
0000
0010
0001
0000
1000
0000
0001
0000
0100
0010
0000
0100
0000
0001
1000
,
0001
0000
0010
0001
0100
0000
0010
1000
0000
0001
0000
0010
0000
0001
1000
0010
,
1000
0000
0100
1000
0000
0001
0000
0100
0001
1000
0001
0010
0001
0100
0010
1000
,
0001
0000
1000
0001
0000
0100
0001
0000
1000
0100
1000
0000
0010
0000
1001
0000
,
1100
0000
1000
0010
0000
1000
0010
0100
0000
0001
0010
0000
0001
0000
0100
0000
,
0010
1000
0001
0000
0100
0000
0001
1000
0000
0010
0100
0000
0001
0000
1001
0000
,
0010
0000
1000
0100
0010
0000
0001
0100
0000
0010
0000
0001
0000
0010
1000
0001
,
0100
0000
0001
0010
0000
0001
0100
0010
0100
0000
0001
0000
0100
0000
1001
0000
,
1000
0000
0001
0100
0001
1000
0010
0000
1000
0000
0010
1000
0001
0010
0100
0010
,
0001
0000
1000
0010
0100
0000
1001
0000
0010
1000
0100
0010
0001
1000
0001
0010
,
0001
0100
0001
0000
1000
0010
0100
0001
0000
1001
0000
1000
0000
0001
0010
0100
,
2000
0000
0000
3000
,
1001
0000
0000
0000
,
0000
0000
0000
0000
,
0000
0000
0000
0000
,
0000
0000
0000
0000
0000
1000
0001
1000
0000
0001
0100
0000
0001
0010
0100
1000
,
0010
0010
0010
0010
,
0010
0000
0000
0000
0010
1000
0000
0001
0000
1000
0000
0010
0000
0100
0001
1000
,
0200
0000
0000
0000
0310
0100
1000
0100
0010
0100
1000
0001
0100
0001
1000
0100
,
2000
0000
0000
0000
3002
0000
0000
0000
1003
0100
0000
0010
0000
0001
1000
0001
,
0100
0000
0010
0000
1000
0001
0000
2002
0000
0000
0000
0000
0000
0000
3003
0000
,
0001
0000
0011
0000
0010
0100
0000
2200
0000
0000
0000
0000
3300
0000
1000
0001
,
1000
0000
1010
0000
0010
0000
0100
0001
0000
1000
0001
1000
0000
0001
0100
0001
,
0010
0000
0001
1000
0000
0010
0100
0010
1000
0000
0110
0000
0001
0010
0100
1000
,
0001
0000
0100
0000
0001
0100
0000
0001
1000
0000
0010
0000
1000
0010
0000
1000
,
0100
0000
0010
0000
0100
0010
0000
0100
1000
0000
0001
0000
0010
0001
0000
1000
,
0001
0100
0000
0001
1000
0100
0000
1000
0010
0100
0001
1000
0010
1000
0100
0010
,
0001
0010
0100
1000
0011
1000
1100
0001
,
1001
0000
1000
0000
0100
1000
0000
0001
0000
0100
0000
0001
0000
1000
0100
0010
,
0100
0000
0010
0000
0001
1000
0000
0010
0000
0001
0000
0010
0000
1000
0010
0100
,
0001
0000
1000
0000
0100
0000
1000
0001
0000
0010
0100
0010
0000
0001
1000
0010
,
0100
0000
0010
1000
0000
0001
1000
0100
0010
0000
0001
0000
0010
0100
1000
0001
,
0010
0000
0001
0000
1000
0100
0000
1000
0000
0001
0000
0100
0000
0010
0100
0001
,
1000
0000
0100
0000
0010
0001
0000
1000
0000
0001
0000
0100
0000
0001
0010
0100
,
1000
0000
0001
0000
0010
0000
0001
0100
0000
0010
0100
0000
0001
0000
1000
0000
,
0001
0000
0100
0010
0000
1000
0100
0000
1000
0001
0000
0010
0000
0001
1000
0010
,
1000
0000
0100
0000
1000
0001
0000
1001
0000
1000
0100
0000
2100
0000
0000
0000
,
3010
0000
1000
0000
0001
0010
0000
0011
0000
0001
0100
0000
0102
0000
0000
0000
,
2000
0000
0000
0000
,
0000
0000
0000
3003
,
1000
0001
0000
0001
1000
0000
1100
0000
0010
0000
0001
1000
0001
0000
0100
0000
,
0010
1000
0000
1000
0001
0000
0010
0000
0100
0000
1000
0001
0100
0000
0010
1000
,
0001
0000
0010
0000
0100
0000
1000
0000
0100
0000
0010
0000
0001
1000
0001
1000
,
0100
0000
0010
0100
0000
1000
0100
0000
0010
0000
0001
0000
0100
0000
0110
0000
,
1001
0000
0101
0000
1000
0000
0010
0100
0010
1000
0100
0000
0010
0000
0001
0000
,
1100
0000
0001
0100
0010
0100
0001
1000
0100
1000
0000
0010
0100
0001
0100
0000
,
0001
0000
1001
0000
1000
0000
0100
0000
0010
0100
1000
0000
1000
0000
0001
0000
,
0200
0000
0000
0000
0000
0000
0000
0000
0000
0000
0000
0000
0000
0000
0000
0000
0000
0000
0000
0000
0000
0000
0000
0000
0000
0000
0000
0301
0000
0000
0000
0000
0000
0000
0000
0000
0100
0000
0000
0000
0001
0000
0000
0000
1000
0000
0000
0000
,
0020
0000
0000
0000
,
1030
0000
0100
0010
0001
0000
1000
0001
0100
0000
0010
0000
0110
0000
0000
0000
,
1001
0000
0100
0000
1000
0100
0000
0010
0000
0100
0000
1000
0000
0001
0100
0010
,
0100
0000
0001
0000
0010
0001
0000
1000
0000
0010
0000
0100
0000
0001
0010
0100
,
1000
0000
0001
0000
0100
0000
0010
1000
0000
0001
0010
0001
0000
0100
0010
1000
,
0001
0000
0010
0100
0000
1000
0100
0010
0001
1000
0010
1000
0001
0100
0010
0000
,
0101
0000
1000
0000
0010
1000
0000
0001
0000
0100
0000
0001
0000
0010
0100
1000
,
0010
0000
0100
0000
0001
0010
0000
0001
0000
1000
0000
0010
0000
0100
0010
1000
,
0001
0000
0100
0000
0001
0000
0010
0100
0000
1000
0001
0000
0100
0000
0010
0100
,
0001
0000
0010
0001
0000
1000
0010
0000
0100
0010
0000
1000
0000
0100
0010
0001
;

//---------------dance-single - S-STANDARD----------------
#NOTES:
     dance-single:
     DJ OMiY-SSP:
     Medium:
     8:
     0.522152,0.528881,0.218464,0.168049,0.222665,389.000000,26.000000,20.000000,0.000000,0.000000,0.000000,0.522152,0.528881,0.218464,0.168049,0.222665,389.000000,26.000000,20.000000,0.000000,0.000000,0.000000:
0000
0000
0000
0000
,
0000
0000
0000
0000
,
1000
0010
0100
0001
1000
0001
0010
0000
,
0001
0000
0010
0000
0100
1000
2100
0000
,
3001
0100
0001
1000
0000
1000
0100
0000
,
0010
0100
0010
0001
0100
0010
0100
0000
,
0001
0010
0100
1000
0001
0010
0100
1000
,
1100
1010
0011
0101
,
1000
0000
0100
0000
0010
0000
0001
1000
0000
0001
1000
0000
0010
0000
0000
0000
,
0100
0001
0010
0001
1000
0100
0010
0000
,
0100
0000
1000
0000
0001
0000
0100
0010
0000
0100
0010
0000
1000
0000
0000
0000
,
0100
0010
0001
0010
0100
1000
0010
0010
,
1000
0000
0001
0000
0100
0000
0001
0010
0000
0001
0010
0000
0100
0000
0000
0000
,
1000
0010
0100
0001
1000
0100
1000
0000
,
0001
0000
1000
0000
0100
0000
1000
0010
0000
1000
0010
0000
0100
0000
0010
0000
,
0100
0000
0000
0101
0000
0000
1100
0000
0010
0000
0100
0000
0001
0000
1000
0000
,
0100
0000
0000
0100
0000
0000
0010
0000
0001
0000
1000
0000
0001
0000
0000
0000
,
0100
0001
0010
0100
1000
0001
0100
0110
,
0000
0010
1000
0001
0010
0001
1000
0000
,
0100
0010
0001
1000
0001
0010
0001
0101
,
0100
0010
0100
0000
0001
1000
0001
0000
,
1000
0100
0010
0000
0001
0010
0100
0010
,
0010
0000
0100
0000
1000
0000
0000
1001
0000
0000
0000
0001
0000
0100
0001
0000
,
0020
0000
0000
0000
,
0130
0000
0000
0000
,
0000
0000
0000
0000
,
0000
0000
0000
0000
,
0000
0000
0000
0000
0000
0000
0000
0100
0000
1000
0000
0000
0100
0000
0010
0000
,
0001
1000
0001
1000
,
0001
0000
0000
0000
1000
0000
0000
0001
0000
1000
0000
0001
0000
0000
0100
0000
,
0110
0000
0100
0010
0100
0010
0100
0001
,
2000
0000
3010
1001
,
0011
0000
0000
0000
0001
1000
0000
2001
0000
0000
0000
0000
3010
0000
0000
0000
,
1100
0000
0000
0000
0010
0001
0000
0012
0000
0000
0000
0000
1003
0000
0000
0000
,
0010
0000
0100
0000
0010
0000
1000
0200
0000
0000
0000
0000
1300
0000
0100
0000
,
0010
0000
0010
0001
0000
1000
0000
0002
0000
0000
0000
0000
0013
0000
0001
0000
,
0100
0001
1000
0000
0010
1000
0001
0000
,
0100
0001
1000
0000
0010
1000
0001
0000
,
1000
0100
0010
0001
1000
0100
0010
0001
,
0200
0320
1030
1001
,
0001
0000
0100
0000
0010
0000
0000
1000
0000
0000
0100
0000
0010
0000
0000
0000
,
0001
0000
1000
0000
0100
0000
0000
1000
0000
0000
0010
0000
0100
0000
0000
0000
,
0010
0000
1000
0000
0100
0000
0000
0010
0000
0000
0001
0000
1000
0000
0000
0000
,
0001
0000
0100
0000
0001
0000
0000
1000
0000
0000
0100
0000
0010
0000
0100
0000
,
1000
0000
0010
0000
1000
0000
0000
0001
0000
0000
0100
0000
0010
0000
0000
0000
,
0100
0000
0001
0000
0010
0000
0000
0100
0000
0000
1000
0000
0001
0000
0000
0000
,
0010
0000
0001
0000
1000
0000
0000
0001
0000
0000
0100
0000
0010
0000
0000
0000
,
1000
0000
0000
0001
0000
0000
1000
0000
0000
0010
0000
0000
0100
0000
0001
0000
,
2000
0000
0000
0000
3100
0000
0000
0210
0000
0000
0000
0000
1300
0000
0000
0000
,
0002
0000
0000
0000
0103
0000
0000
0201
0000
0000
0000
0000
0310
0000
0000
0000
,
2000
0000
0000
0000
,
0000
0000
0000
3000
,
1001
0000
0001
0100
0001
1000
1010
0010
,
0100
0000
0001
0000
1000
0000
0000
0000
0001
0000
0010
0000
0100
0000
0000
1000
,
0001
0100
0010
1000
1100
0100
0010
0001
,
1000
0000
0000
1001
0000
0000
0001
0000
0100
0000
0010
0000
0200
0000
0001
0000
,
0301
1000
0000
0010
1000
0001
1000
0100
,
0020
0000
0000
0000
0001
0000
0000
0031
0000
1000
0000
0000
0010
0000
0010
0000
,
0110
0100
0001
0000
0010
0001
1000
0100
,
2000
0000
0000
3001
,
0220
0000
0000
0330
,
0001
1000
0001
1000
0100
0010
0002
0000
,
1003
0000
0001
0000
0010
0000
0000
0100
0000
0000
1000
0000
0010
0000
0000
0000
,
0100
0000
0001
0000
0100
0000
0000
0010
0000
0000
1000
0000
0001
0000
0000
0000
,
0010
0000
0100
0000
0010
0000
0000
0001
0000
0000
1000
0000
0010
0000
0000
0000
,
0100
0000
0001
0000
1000
0000
0000
0100
0000
0000
1000
0000
0010
0000
0100
0000
,
0001
0000
0010
0000
0100
0000
0000
1000
0000
0000
0010
0000
0100
0000
0000
0000
,
0010
0000
1000
0000
0100
0000
0000
0010
0000
0000
0100
0000
0010
0000
0000
0000
,
0001
0000
1000
0000
0010
0000
0000
0100
0000
0000
0010
0000
1000
0000
0100
0000
,
1000
0000
0000
1001
0000
0000
0010
0000
0000
0001
0000
0100
0000
0001
0000
1000
;

//---------------dance-single - S-LIGHT----------------
#NOTES:
     dance-single:
     DJ OMiY-LSP:
     Easy:
     5:
     0.398516,0.440341,0.210061,0.184854,0.037811,285.000000,25.000000,22.000000,0.000000,0.000000,0.000000,0.398516,0.440341,0.210061,0.184854,0.037811,285.000000,25.000000,22.000000,0.000000,0.000000,0.000000:
0000
0000
0000
0000
,
0000
0000
0000
0000
,
1000
0100
1000
0100
,
0010
0000
0001
0000
1000
0001
1000
0000
,
0110
0001
0001
1000
,
0010
1000
0100
0010
,
0001
1000
0001
1000
0001
1000
0001
1000
,
0200
0320
0032
1003
,
1100
0000
1000
0000
0010
0100
0001
0000
,
1000
0001
1000
0000
0001
0000
0010
0000
,
0100
0000
1000
0000
0001
0100
0010
0000
,
1000
0100
0010
0000
0001
0000
1000
0001
,
0100
0000
0010
0000
0100
0001
1000
0000
,
0010
1000
0010
0000
0100
0000
0001
0000
,
1000
0000
0001
0000
0010
0100
1000
0000
,
0010
0100
0010
0000
0110
0000
1001
0000
,
0010
0000
1000
0000
0001
0010
0001
0000
,
1000
0000
0100
0000
1000
0000
0010
1000
,
0100
0000
0010
0000
0001
1000
0001
0000
,
0010
0000
0001
0000
0100
0000
0001
1000
,
0020
0130
0002
1003
,
0200
0000
0310
0000
0001
1000
0001
1000
,
0020
2030
3001
0110
,
2002
0000
0000
3003
,
1001
0000
0000
0000
,
0000
0000
0000
0000
,
0000
0000
0000
0000
,
0000
0000
0000
0000
0000
0000
0000
0100
0000
0000
0001
0000
1000
0000
0000
0000
,
1001
0001
1000
0001
,
1000
0000
0000
0000
0001
0000
0000
2000
0000
0000
0000
3000
0000
0000
0000
0000
,
0011
0000
1000
0001
1000
0001
1000
0001
,
2000
0000
0000
3001
,
0100
0000
0000
0000
0010
0000
0000
0010
0000
0000
0000
0000
0000
0000
0000
0000
,
1000
0000
0000
0000
0001
0000
0000
1000
0000
0000
0000
0000
0000
0000
0000
0000
,
0010
0000
0000
0000
0100
0000
0000
0001
0000
0000
0000
0000
0000
0000
0000
0000
,
0010
0000
0000
0010
0000
0000
0000
0100
0000
0000
0000
0000
0000
0000
0000
0000
,
1100
0001
0101
0010
,
0110
1000
1010
0001
,
0200
0302
2003
3002
,
0013
0100
0010
0100
0010
0000
0110
0000
,
1001
0000
1000
0000
0010
0100
0001
0000
,
1000
0000
0001
0000
0010
0100
1000
0000
,
0010
0100
0001
1000
,
0010
0000
1000
0000
0001
0100
0001
0000
,
1001
0000
0010
0000
0100
1000
0100
0000
,
1000
0000
0010
0000
0100
0001
0100
0000
,
0010
0000
1000
0000
0001
1000
0001
0000
,
0010
0000
0100
0000
1000
0100
0010
0000
,
0001
0000
0000
0000
1000
0000
0000
0001
0000
0000
0000
0000
0200
0000
0000
0000
,
0301
0000
0000
0000
0010
0000
0000
0100
0000
0000
0000
0000
2000
0000
0000
0000
,
0002
0000
0000
0000
,
0000
0000
3003
0000
,
1001
0010
1001
0100
,
0001
0000
0010
0000
0100
1000
0001
0000
,
0110
1000
0110
0100
,
0001
0000
0010
0000
0001
1000
0001
0000
,
1001
0010
1001
0100
,
0001
1000
0001
0000
2000
0000
3100
0010
,
0110
0000
0001
0000
0110
0000
1000
0001
,
0020
0000
0000
0130
,
1001
0000
0000
0000
,
0001
0000
1000
0000
0001
1000
0002
0000
,
0103
0000
0010
0000
1000
0000
0100
0010
,
0001
0000
1000
0000
0001
0000
0100
0010
,
1000
0000
0001
0000
0010
0000
0100
0010
,
0001
0000
1000
0000
0010
0000
1000
0100
,
1000
0000
0001
0000
0100
0000
0010
0100
,
0001
0000
1000
0000
0001
0000
0010
0100
,
1000
0000
0010
0000
0100
0000
0001
0100
,
0001
0000
0010
0000
0001
0010
1000
0010
;

//---------------dance-single - BEGINNER----------------
#NOTES:
     dance-single:
     DJ OMiY-BEG:
     Beginner:
     2:
     0.176451,0.238629,0.092427,0.134439,0.000000,120.000000,11.000000,16.000000,0.000000,0.000000,0.000000,0.176451,0.238629,0.092427,0.134439,0.000000,120.000000,11.000000,16.000000,0.000000,0.000000,0.000000:
0000
0000
0000
0000
,
0000
0000
0000
0000
,
0020
0000
0000
0000
,
0000
0000
0030
0000
,
0110
0000
0000
0000
,
0100
0000
0000
0000
,
0001
0000
1000
0000
,
0001
0001
0001
0001
,
0001
0000
1000
0000
,
0100
0000
0000
0000
,
0010
0000
0100
0000
,
1000
0000
0001
0000
,
0010
0000
0100
0000
,
0010
0000
0000
0000
,
0001
0000
1000
0000
,
0010
0010
0010
0000
,
1001
0000
1000
0000
,
0010
0000
0000
0000
,
0100
0000
0001
0000
,
1000
0000
0100
0000
,
0010
0000
0001
0000
,
1000
0000
0001
0000
,
0100
0100
0100
0100
,
0200
0000
0300
0000
,
0110
0000
0000
0000
,
0000
0000
0000
0000
,
0000
0000
0000
0000
,
0000
0000
1000
1000
,
2000
0000
0000
0000
,
0000
3000
0000
0001
,
0001
0001
0001
0000
,
1001
0000
0110
0000
,
2002
0000
0000
0000
0000
3003
0000
0000
0000
0000
0000
0000
,
0220
0000
0000
0000
0000
0330
0000
0000
0000
0000
0000
0000
,
2002
0000
0000
0000
0000
3003
0000
0000
0000
0000
0000
0000
,
0220
0000
0000
0000
0000
0330
0000
0000
0000
0000
0000
0000
,
0001
0000
0100
0000
,
0010
0000
1000
0000
,
0010
0010
0010
0010
,
0010
0000
0100
0000
,
1001
0000
1000
0000
,
0001
0000
0100
0000
,
0010
0000
1000
0000
,
0100
0000
0010
0000
,
0001
0000
0010
0000
,
0100
0000
0010
0000
,
0001
0000
0100
0000
,
1000
0000
0100
0000
,
0002
0000
0000
0000
0000
0000
0000
0003
0000
0000
0000
0000
0100
0000
0000
0000
,
0200
0000
0000
0000
0000
0000
0000
0300
0000
0000
0000
0000
0010
0000
0000
0000
,
0020
0000
0000
0000
,
0000
0000
0030
0000
,
0110
0000
1000
0000
,
0001
0000
1000
0000
,
0010
0000
0100
0000
,
0010
0000
0100
0000
,
0001
0000
0010
0000
,
0001
0000
0010
0000
,
0100
0000
1000
0000
,
0200
0000
0300
0000
,
1000
0000
0000
0000
,
0100
0000
0000
0010
,
0010
0000
0001
0000
,
1000
0000
0001
0000
,
0100
0000
0010
0000
,
1000
0000
0001
0000
,
0010
0000
0100
0000
,
1000
0000
0001
0000
,
0100
0000
0010
0000
,
1000
0000
0001
0000
,
2000
0000
0000
0000
,
3000
0000
0000
0000
;

//---------------dance-double - D-HEAVY----------------
#NOTES:
     dance-double:
     DJ OMiY-HDP:
     Hard:
     10:
     0.794631,0.734557,0.268878,0.109232,1.000000,617.000000,32.000000,13.000000,0.000000,0.000000,0.000000,0.794631,0.734557,0.268878,0.109232,1.000000,617.000000,32.000000,13.000000,0.000000,0.000000,0.000000:
// measure 0
00000000
00000000
00000000
00000000
,  // measure 1
00000000
00000000
00000000
00000000
,  // measure 2
00001000
00000000
00010000
00000100
00010000
00000000
00001000
00000000
00100000
00010000
00100000
00010000
10000000
00000000
01000000
00000000
,  // measure 3
00100000
00000000
01000000
10000000
00010000
00000000
01000000
00000000
00010000
00100000
00010000
00100000
00001000
00000000
00010000
00000000
,  // measure 4
00010100
00000000
00010000
00000000
00001000
00000000
00000100
00000010
00000100
00000000
00000001
00000000
00000110
00000000
00001000
00000000
,  // measure 5
00000001
00000000
00000010
00000100
00001000
00000000
00000100
00000010
00000001
00000000
00001000
00000000
00000010
00001000
00000010
00001000
,  // measure 6
00000001
00000010
00000100
00001000
00000100
00001000
00010000
00100000
,  // measure 7
02000000
23000000
30100000
01010000
,  // measure 8
01001000
00000000
01000000
00010000
00000000
00100000
00000000
00001000
00000000
00010000
00001000
00000000
00000100
00000000
00000010
00000000
,  // measure 9
00000100
00000000
00000001
00000010
00000000
00000001
00000000
00001000
00000000
00000100
00001000
00000000
00000010
00000100
00000010
00000100
,  // measure 10
00000001
00000000
00001000
00000100
00000000
00010000
00000000
00001000
00000000
00100000
00001000
00000000
00010000
00000000
00001000
00000000
,  // measure 11
01000000
00100000
01000000
00000000
00100000
00000000
10000000
00010000
10000000
00100000
00000000
01000000
00010000
01000000
00100000
10000000
,  // measure 12
01000000
00000000
01000000
10000000
00000000
00010000
00000000
01000000
00000000
00100000
01000000
00000000
00010000
00000000
00100000
00000000
,  // measure 13
00001000
00000000
00010000
00001000
00010000
00000000
00001000
00000100
00000000
00000001
00000000
00001000
00000000
00000010
00000100
00000001
,  // measure 14
00001000
00000000
00000100
00000010
00000000
00000100
00000000
00001000
00000100
00001000
00000100
00000010
00000001
00000010
00000100
00001000
,  // measure 15
00000001
00000000
00001000
00000100
00000000
00010000
00001000
00000000
00010000
00001000
00100000
00000000
00010000
00000000
01010000
00000000
,  // measure 16
10010000
00000000
10000000
01000000
00000000
10000000
00100000
01000000
00000000
00100000
10000000
00000000
00010000
00000000
00100000
00001000
,  // measure 17
00100000
00001000
00010000
00000000
00000100
00000000
00000010
00000001
00001000
00000010
00000000
00001000
00000100
00000000
00001001
00000000
,  // measure 18
00000100
00000000
00000010
00000001
00000010
00000000
00000100
00001000
00000000
00000100
00010000
00001000
00000000
00100000
00001000
00000000
,  // measure 19
00100000
00000000
00010000
10000000
00000000
10000000
00100000
01000000
00010000
00000000
10000000
00000000
01000000
00000000
10010000
00000000
,  // measure 20
00010000
00000000
00100000
00001000
00000000
00001000
00010000
00000000
00001000
00000000
00010000
00000100
00000000
00000100
00000010
00000000
,  // measure 21
00000001
00000000
00001000
00000100
00000000
00000100
00010000
00001000
00100000
00010000
00100000
00010000
10000000
00010000
10000000
01000000
,  // measure 22
10000000
00100000
10000000
00000000
00100000
01000000
00010000
00100000
00000000
01100000
00000000
11000000
00000000
10000000
00010000
00000000
,  // measure 23
00200000
00000000
00000000
00300000
,  // measure 24
00011000
00000000
00000000
00000000
,  // measure 25
00000000
00000000
00000000
00000000
,  // measure 26
00000000
00000000
00000000
00000000
,  // measure 27
00000000
00000000
00000000
00000000
00000000
00001000
00010000
00001000
00000000
00010000
00000100
00000000
00001000
00000100
00000010
00000100
,  // measure 28
00001000
00000001
00001000
00000010
,  // measure 29
00010000
00000000
00000000
00000000
00001000
00010000
00000000
00011000
00000000
00101000
00000000
00110000
00000000
00100000
01000000
00100000
,  // measure 30
00010000
00000000
10000000
00010000
01000000
00010000
10000000
00100000
01000000
00010000
00100000
00010000
10000000
00010000
00100000
00001000
,  // measure 31
00020000
00000000
00002000
00033000
,  // measure 32
00011000
00000000
00010000
00000000
00000100
00001000
00000000
00002100
00000000
00000000
00000000
00000000
00000000
00000000
00003001
00000000
,  // measure 33
00000101
00000000
00000001
00000000
00000010
00000100
00000000
00000210
00000000
00000000
00000000
00000000
00001300
00000100
00010000
00000100
,  // measure 34
00010000
00000000
00011000
00000000
00001000
00000000
00100000
00020000
00000000
10000000
00000000
10000000
00000000
10030000
00000000
00010000
,  // measure 35
01000000
00000000
00100000
10000000
00000000
00010000
10000000
00100000
10000000
01000000
00100000
00010000
00100000
00001000
01000000
00001000
,  // measure 36
00010000
00000000
00001000
00000000
00100000
00001000
00000000
00010000
00001000
00000000
00001000
00000000
00010000
00000100
00000000
00010000
,  // measure 37
00001000
00000000
00000100
00000000
00000001
00000100
00000000
00000001
00001000
00000000
00000100
00000000
00000010
00000100
00000000
00000010
,  // measure 38
00000001
00001000
00000000
00000100
00010000
00001000
00000000
00010000
00001000
00100000
00000000
00010000
00100000
01000000
00000000
00100000
,  // measure 39
02000000
10000000
10000000
13000000
01000000
00100000
00110000
00000000
,  // measure 40
10010000
00000000
00010000
00000000
01000000
00100000
00000000
10000000
00000000
00010000
00000000
10000000
00000000
00100000
01000000
00010000
,  // measure 41
01000000
00000000
00010000
00000000
00100000
00001000
00000000
00010000
00000000
00000100
00000000
00001000
00000000
00000100
00000010
00000001
,  // measure 42
00000010
00000000
00000100
00000000
00001000
00000000
00000100
00010000
00000000
00001000
00100000
00001000
00000000
01000000
00010000
01000000
,  // measure 43
00100000
00000000
10000000
00010000
00000000
00100000
00001000
00000000
00010000
00000000
00000100
00001000
00000010
00000100
00000010
00001000
,  // measure 44
00000001
00000000
00001000
00000000
00000100
00001000
00000000
00000010
00000000
00001000
00000000
00000100
00000000
00010000
00000100
00010000
,  // measure 45
00001000
00000000
00010000
00000000
01000000
10000000
00000000
00010000
00000000
01000000
00000000
00100000
00000000
01000000
00010000
00100000
,  // measure 46
00010000
00000000
10000000
00000000
00100000
01000000
00010000
10000000
00000000
10000000
01000000
00000000
00100000
00000000
00001000
00010000
,  // measure 47
00001000
00000000
00010000
00000100
00000000
00001000
00000100
00000000
00001000
00000001
00000000
00000100
00000000
00000001
00000010
00000100
,  // measure 48
00000010
00000100
00001000
00000000
00000100
00010000
00000000
00001000
00000000
00010000
00001000
00000000
00000200
00000000
00000000
00000000
,  // measure 49
00000310
00000000
00001000
00000000
00000100
00010000
00000000
00001000
00000000
00100000
01000000
00000000
20000000
00000000
00000000
00000000
,  // measure 50
00200000
00000000
00000000
00000000
,  // measure 51
00000000
00000000
00000000
30300000
,  // measure 52
10010000
00000000
00000000
00010000
01000000
00000000
01100000
00000000
00100000
00000000
10000000
01000000
00100000
00000000
00110000
00000000
,  // measure 53
00010000
00000000
00001000
00000000
00000100
00000000
00000010
00000000
00000100
00000000
00001000
00000001
00001000
00000000
00001000
00000100
,  // measure 54
00001000
00000001
00001000
00000010
00000110
00000110
00000100
00000001
,  // measure 55
00000010
00000000
00000100
00010000
00000000
00001000
00100000
00000000
00010000
10000000
00010000
00000000
10000000
00000000
00100000
00000000
,  // measure 56
10100000
00000000
10000000
00000000
01000000
00000000
00100000
00000000
00010000
00100000
00001000
00000000
00010000
00000100
00001000
00000000
,  // measure 57
00000100
00000000
00000010
00000100
00000010
00000100
00000010
00000001
00000000
00000100
00000000
00000010
00001000
00000010
00001000
00000000
,  // measure 58
00000100
00000000
00010100
00000000
00010000
00000000
00001000
00000000
01000000
00010000
01000000
00010000
10000000
00010000
01000000
00000000
,  // measure 59
00200000
00000000
00000000
00000000
00000000
00000000
00000000
00000000
00000000
00000000
00000000
00000000
00000000
00000000
00000000
00000000
00000000
00000000
00000000
00000000
00000000
00000000
00000000
00000000
00000000
00000000
00000000
10300000
00000000
00000000
00000000
00000000
00000000
00000000
00000000
00000000
00010000
00000000
00000000
00000000
10000000
00000000
00000000
00000000
01000000
00000000
00000000
00000000
,  // measure 60
00100000
00010000
00100000
00001000
00010000
00001000
00010000
00001000
,  // measure 61
00000100
00000000
00000010
00000000
00000100
00000001
00000000
00001000
00000100
00000000
00000010
00000000
00000110
00000000
00000000
00000000
,  // measure 62
00001001
00000000
00000001
00000000
00001000
00000100
00000000
00010000
00000000
00001000
00000000
00100000
00000000
01000000
10000000
00010000
,  // measure 63
01000000
00000000
00100000
00000000
01000000
00010000
00000000
10000000
00000000
00010000
00000000
00100000
00000000
00001000
00010000
00001000
,  // measure 64
00010000
00000000
00000010
00000000
00001000
00000000
00000100
00001000
00000000
00000001
00000100
00000001
00000000
00001000
00000001
00001000
,  // measure 65
00000100
00000000
00010000
00001000
00000000
00100000
00001000
00100000
00010000
01000000
00010000
00100000
01000000
10000000
00100000
10000000
,  // measure 66
00010000
00000000
00110000
00000000
00100000
00001000
00000000
01000000
00000000
00001000
00000000
00010000
00000000
00001000
00010000
00000100
,  // measure 67
00001000
00000000
00000100
00000000
00000010
00000001
00000000
00000100
00000000
00000010
00000000
00000100
00000000
00000001
00001000
00000001
,  // measure 68
00000010
00000000
00000100
00000000
00001000
00000100
00010000
00001000
00000000
00001000
00100000
00000000
00010000
10000000
00010000
00000000
,  // measure 69
10010000
00000000
10000000
00100000
00000000
01000000
00001000
00000000
01000000
00010000
00000000
10000000
00000000
00010000
00100000
00001000
;

//---------------dance-double - D-STANDARD----------------
#NOTES:
     dance-double:
     DJ OMiY-SDP:
     Medium:
     8:
     0.519751,0.499499,0.210061,0.176451,0.277281,387.000000,25.000000,21.000000,0.000000,0.000000,0.000000,0.519751,0.499499,0.210061,0.176451,0.277281,387.000000,25.000000,21.000000,0.000000,0.000000,0.000000:
// measure 0
00000000
00000000
00000000
00000000
,  // measure 1
00000000
00000000
00000000
00000000
,  // measure 2
00010000
00001000
00010000
00001000
00000100
00000010
00000100
00000010
,  // measure 3
00001000
00000000
00000001
00000000
00000010
00000100
00020000
00000000
,  // measure 4
00031000
00001000
00100000
00000000
00010000
10000000
00100000
00000000
,  // measure 5
01000000
00010000
10000000
00100000
01000000
00010000
00100000
00001000
,  // measure 6
00010000
00000100
00000010
00000001
00000010
00000100
00001000
00000100
,  // measure 7
00020000
02030000
13000000
10010000
,  // measure 8
00010000
00000000
01000000
00000000
00010000
00000000
10000000
00010000
00000000
10000000
00010000
00000000
10000000
00000000
00000000
00000000
,  // measure 9
01000000
00000000
00100000
00000000
00010000
00000000
00100000
00001000
00000000
00100000
00001000
00000000
00010000
00000000
00000000
00000000
,  // measure 10
00001000
00000000
00000010
00000000
00000001
00000000
00000100
00000010
00000000
00000100
00000010
00000000
00001000
00000000
00000000
00000000
,  // measure 11
00000001
00000010
00000100
00000010
00000001
00001000
00000100
00000000
,  // measure 12
00010000
00000000
00000100
00000000
00010000
00000000
00001000
00010000
00000000
00001000
00010000
00000000
00100000
00000000
00000000
00000000
,  // measure 13
01000000
00000000
00010000
00000000
10000000
00000000
00010000
01000000
00000000
00010000
01000000
00000000
00100000
00000000
10000000
00000000
,  // measure 14
01000000
10000000
00010000
00100000
00001000
00010000
00000010
00001000
,  // measure 15
00000001
00000000
00000000
00001001
00000000
00000000
00000110
00000000
00000100
00000000
00000001
00000000
00001000
00000000
00000100
00000000
,  // measure 16
00001000
00000000
00000100
00000000
00010000
00000000
00000100
00010000
00000000
00000100
00010000
00000000
00001000
00000000
00000000
00000000
,  // measure 17
00100000
00010000
00100000
01000000
10000000
00100000
01000000
01010000
,  // measure 18
00000000
00010000
00100000
00010000
00100000
00001000
00010000
00000100
,  // measure 19
00000010
00000000
00000000
00000001
00000000
00000000
00001000
00000000
00000010
00000000
00000100
00000000
00000010
00000000
00001010
00000000
,  // measure 20
00001000
00000001
00001000
00000000
00000010
00010000
00000010
00000000
,  // measure 21
00010000
00001000
00010000
00000000
00001000
00100000
00001000
00100000
,  // measure 22
00010000
00000000
10000000
00000000
00010000
00000000
00000000
01000000
00000000
00000000
00000000
00100000
00000000
00000000
01000000
00000000
,  // measure 23
00002000
00000000
00000000
00000000
,  // measure 24
00013000
00000000
00000000
00000000
,  // measure 25
00000000
00000000
00000000
00000000
,  // measure 26
00000000
00000000
00000000
00000000
,  // measure 27
00000000
00000000
00000000
00000000
00000000
00001000
00000000
00010000
00000000
00001000
00000000
00000000
00010000
00000000
00001000
00000000
,  // measure 28
00010000
00010000
00010000
00010000
,  // measure 29
00010000
00000000
00000000
00000000
00001000
00000000
00000000
00100000
00000000
00010000
00000000
00100000
00000000
00010000
10000000
00000000
,  // measure 30
01000000
10000000
01000000
10000000
01000000
10000000
01000000
10000000
,  // measure 31
00020000
00000000
00130000
00110000
,  // measure 32
00100000
00000000
00000000
00000000
00002000
00000000
00000000
00020000
00000000
00000000
00000000
00000000
00033000
00000000
00000000
00000000
,  // measure 33
00001000
00000000
00000000
00000000
00000200
00000000
00000000
00000020
00000000
00000000
00000000
00000000
00000330
00000000
00000100
00000000
,  // measure 34
00000001
00000000
00001000
00000000
00000002
00000000
00000000
00000020
00000000
00000000
00000000
00000000
00000033
00000000
00000000
00000000
,  // measure 35
00000010
00000000
00000000
00000100
00000000
00000000
00020000
00000000
00002000
00000000
00000000
00000000
00033000
00000000
00000000
00000000
,  // measure 36
00011000
00100000
00011000
00000100
,  // measure 37
00011000
01000000
00011000
00000010
,  // measure 38
00010000
00001000
00010000
00001000
00010000
00001000
00010000
00001000
,  // measure 39
00020000
00000100
00030100
00000000
00010100
00000000
00011000
00000000
,  // measure 40
00101000
00000000
00100000
00000000
00010000
00000000
00000000
10000000
00000000
00000000
00010000
00000000
01000000
00000000
00000000
00000000
,  // measure 41
01100000
00000000
01000000
00000000
00010000
00000000
00000000
00100000
00000000
00000000
00001000
00000000
00010000
00000000
00000000
00000000
,  // measure 42
00011000
00000000
00010000
00000000
00000100
00000000
00000000
00000010
00000000
00000000
00000001
00000000
00000100
00000000
00000000
00000000
,  // measure 43
00000101
00000000
00000001
00000000
00001000
00000000
00000000
00000100
00000000
00000000
00010000
00000000
00001000
00000000
00100000
00000000
,  // measure 44
00010000
00000000
00010000
00000000
01000000
00000000
00000000
00100000
00000000
00000000
10000000
00000000
00010000
00000000
00000000
00000000
,  // measure 45
10010000
00000000
10000000
00000000
01000000
00000000
00000000
00100000
00000000
00000000
00001000
00000000
00010000
00000000
00000000
00000000
,  // measure 46
00011000
00000000
00001000
00000000
00000100
00000000
00000000
00000010
00000000
00000000
00000100
00000000
00000001
00000000
00000000
00000000
,  // measure 47
00000010
00000000
00000000
00000100
00000000
00000000
00001000
00000000
00000000
00010000
00000000
00000000
00100000
00000000
00000000
00000000
,  // measure 48
02000000
00000000
00000000
00000000
13000000
00000000
00000000
00010000
00000000
01000000
00000000
00000000
01100000
00000000
00000000
00000000
,  // measure 49
02000000
00000000
00000000
00000000
03001000
00000000
00000000
00010000
00000000
00000100
00000000
00000000
00002000
00000000
00000000
00000000
,  // measure 50
00000200
00000000
00000000
00000000
,  // measure 51
00000000
00000000
00000000
00003300
,  // measure 52
00001001
00000000
00000000
00000001
00000100
00000000
00000000
00000000
00000110
00000000
00000000
00000010
00001000
00000000
00000100
00000000
,  // measure 53
00010000
00000000
00000000
00001000
00010000
00000000
00000000
00000000
00101000
00000000
00000000
00100000
00010000
00000000
10000000
00000000
,  // measure 54
00010000
00000000
00000000
01000000
00100000
00000000
10000000
00000000
01000000
00000000
00100000
00000000
00010000
00000000
00100000
00000000
,  // measure 55
00001000
00000000
00000000
00011000
00000000
00000000
00010000
00000000
00001000
00000000
00010000
00000000
00000100
00000000
00000010
00000000
,  // measure 56
00000100
00000000
00000000
00000010
00000100
00000000
00000000
00000000
00001100
00000000
00000000
00001000
00000001
00000000
00001000
00000000
,  // measure 57
00000200
00000000
00000000
00000000
00001300
00000000
00000000
00000100
00000000
00010000
00000000
00000000
00001000
00000000
00100000
00000000
,  // measure 58
00010000
00000000
10000000
00000000
00010000
00000000
00000000
01000000
00100000
00000000
01000000
00000000
00010000
00000000
00100000
00000000
,  // measure 59
00002000
00000000
00000000
00000000
00000000
00000000
00000000
00000000
00000000
00000000
00000000
00000000
00000000
00000000
00000000
00000000
00000000
00000000
00000000
00000000
00000000
00000000
00000000
00000000
00000000
00000000
00000000
00013000
00000000
00000000
00000000
00000000
00000000
00000000
00000000
00000000
00001000
00000000
00000000
00000000
00010000
00000000
00000000
00000000
00001000
00000000
00000000
00000000
,  // measure 60
00010000
00000000
00000000
00000000
,  // measure 61
00000100
00000010
00000001
00000010
00000100
00001000
00000100
00000000
,  // measure 62
00001100
00000000
00000100
00000000
00010000
00000000
00000000
00001000
00000000
00000000
00100000
00000000
00001000
00000000
00000000
00000000
,  // measure 63
00100000
00000000
00010000
00000000
01000000
00000000
00000000
00100000
00000000
00000000
01000000
00000000
00010000
00000000
00000000
00000000
,  // measure 64
10000000
00000000
00010000
00000000
01000000
00000000
00000000
00100000
00000000
00000000
10000000
00000000
01000000
00000000
00000000
00000000
,  // measure 65
00100000
00000000
00001000
00000000
00010000
00000000
00000000
00001000
00000000
00000000
00000010
00000000
00000002
00000000
00000000
00000000
,  // measure 66
00000103
00000000
00000010
00000000
00000100
00000000
00000000
00000001
00000000
00000000
00000010
00000000
00000100
00000000
00000000
00000000
,  // measure 67
00001000
00000000
00000100
00000000
00010000
00000000
00000000
00000100
00000000
00000000
00001000
00000000
00000100
00000000
00000000
00000000
,  // measure 68
00010000
00000000
00001000
00000000
00100000
00000000
00000000
00010000
00000000
00000000
00100000
00000000
00001000
00000000
00000000
00000000
,  // measure 69
00100000
00000000
00000000
01000000
00000000
00000000
10000000
00000000
00000000
00010000
00000000
10000000
00000000
01000000
00000000
10000000
;

//---------------dance-double - D-LIGHT----------------
#NOTES:
     dance-double:
     DJ OMiY-LDP:
     Easy:
     6:
     0.403317,0.381628,0.260476,0.176451,0.058817,284.000000,31.000000,21.000000,0.000000,0.000000,0.000000,0.403317,0.381628,0.260476,0.176451,0.058817,284.000000,31.000000,21.000000,0.000000,0.000000,0.000000:
// measure 0
00000000
00000000
00000000
00000000
,  // measure 1
00000000
00000000
00000000
00000000
,  // measure 2
00010000
00001000
00010000
00001000
,  // measure 3
00100000
01000000
10000000
00010000
,  // measure 4
10010000
00010000
01000000
00100000
,  // measure 5
01000000
00000000
00010000
00000000
00100000
00001000
00100000
00001000
,  // measure 6
00010000
00000000
00000100
00000000
00000010
00000001
00001000
00000000
,  // measure 7
00000110
00000101
00001100
00001010
,  // measure 8
00010100
00000000
00010000
00001000
00100000
00000000
00001000
00000000
,  // measure 9
00010000
00000000
00001000
00100000
01000000
00000000
10000000
00000000
,  // measure 10
00010000
01000000
00100000
01000000
,  // measure 11
00010000
10000000
00010000
00000000
00100000
00000000
00001000
00000000
,  // measure 12
00010000
00000000
00000100
00000000
00000010
00000001
00001000
00000000
,  // measure 13
00000010
00000100
00000010
00000000
00001000
00000000
00000100
00000000
,  // measure 14
00010000
00000000
00001000
00000000
00100000
00001000
00010000
00000000
,  // measure 15
00000100
00000000
00000010
00000000
00000001
00001000
00000100
00001000
,  // measure 16
00000010
00000000
00001000
00000000
00000100
00010000
00001000
00000000
,  // measure 17
00100000
00000000
00010000
00000000
10000000
00000000
00010000
01010000
,  // measure 18
00000000
10000000
01000000
00100000
,  // measure 19
00010000
00000000
00100000
00000000
00001000
00000000
00010000
00010100
,  // measure 20
00000000
00001100
00001000
00000101
,  // measure 21
00000100
00000000
00000110
00000000
00000010
00001000
00000001
00001000
,  // measure 22
00000010
00000000
00000000
00000000
00000100
00000000
00000000
00000001
00000000
00000000
00000000
00001000
00000000
00000000
00000000
00000000
,  // measure 23
00002200
00000000
00000000
00003300
,  // measure 24
00011000
00000000
00000000
00000000
,  // measure 25
00000000
00000000
00000000
00000000
,  // measure 26
00000000
00000000
00000000
00000000
,  // measure 27
00000000
00000000
00000000
00000000
00000000
00000000
00000000
00100000
00000000
00000000
00010000
00000000
00100000
00000000
00001000
00000000
,  // measure 28
01000000
01000000
01000000
01000000
,  // measure 29
01000000
00000000
00000000
00000000
01000000
00000000
00000000
00100000
00000000
00100000
00000000
00100000
00000000
00000000
00000000
00000000
,  // measure 30
10010000
00000000
00010000
00100000
01000000
10000000
00010000
00100000
,  // measure 31
02000000
00000000
03100000
01100000
,  // measure 32
00100000
00000000
00000000
00000000
00001000
00000000
00000000
00002000
00000000
00000000
00000000
00000000
00003000
00000000
00000000
00000000
,  // measure 33
00010000
00000000
00000000
00000000
00000100
00000000
00000000
00000200
00000000
00000000
00000000
00000000
00000310
00000000
00000000
00000000
,  // measure 34
00000001
00000000
00000000
00000000
00001000
00000000
00000000
00002000
00000000
00000000
00000000
00000000
00003100
00000000
00001000
00000000
,  // measure 35
00000100
00000000
00010000
00001000
00000000
00000000
00000000
00020000
00000000
00000000
00000000
00000000
00031000
00000000
00000000
00000000
,  // measure 36
00011000
00000000
00011000
00000000
,  // measure 37
00011000
00000000
00011000
00000000
,  // measure 38
00011000
00011000
00011000
00011000
,  // measure 39
00022000
00000000
00033000
00001000
,  // measure 40
00011000
00000000
00100000
00001000
00100000
00000000
00010000
00000000
,  // measure 41
10000000
00000000
01000000
00100000
00010000
00000000
00100000
00000000
,  // measure 42
00001000
00000000
00000100
00000010
00000100
00000000
00000001
00000000
,  // measure 43
00000010
00000000
00000100
00001000
00000001
00000000
00001000
00000000
,  // measure 44
00001100
00000000
00000100
00010000
00001000
00000000
00100000
00000000
,  // measure 45
00010000
00000000
01000000
00100000
01000000
00000000
00010000
00000000
,  // measure 46
10000000
00000000
00010000
00100000
00001000
00000000
00010000
00000000
,  // measure 47
00000100
00000000
00000010
00000100
00001000
00000000
00000001
00000000
,  // measure 48
00000100
00000000
00000000
00000000
00000010
00000000
00000000
00002000
00000000
00000000
00000000
00000000
00003100
00000000
00000000
00000000
,  // measure 49
00001000
00000000
00000000
00000000
00000100
00000000
00000000
00020000
00000000
00000000
00000000
00000000
00031000
00000000
00000000
00000000
,  // measure 50
00022000
00000000
00000000
00000000
,  // measure 51
00000000
00000000
00033000
00000000
,  // measure 52
00020000
00000000
00031000
00100000
00000000
00010000
01000000
00000000
,  // measure 53
00100000
00000000
10000000
00000000
00010000
00100000
00020000
00000000
,  // measure 54
01030000
00000000
00001000
00010000
00001000
00010000
00000100
00000000
,  // measure 55
00000010
00000000
00000000
00000010
00000000
00000000
00000010
00000000
00000001
00000000
00000000
00000000
00002000
00000000
00000000
00000000
,  // measure 56
00003010
00000000
00000100
00000000
00000001
00000000
00000010
00000001
,  // measure 57
00002000
00000000
00000100
00000000
00003100
00010000
00001000
00010000
,  // measure 58
00100000
00000000
10000000
00000000
00010000
00000000
00100000
00010000
,  // measure 59
00220000
00000000
00030000
00310000
,  // measure 60
00202000
00000000
00000000
00003000
,  // measure 61
00301000
00000000
00010000
00000000
00001000
00000100
00000001
00000000
,  // measure 62
00001001
00000000
00000010
00000000
00000100
00001000
00000100
00000000
,  // measure 63
00010000
00000000
00001000
00000000
01000000
00010000
01000000
00000000
,  // measure 64
00100000
00000000
10000000
00000000
01000000
00000000
00100000
00001000
,  // measure 65
00010000
00000000
00001000
00000000
00000100
00000010
00000100
00000000
,  // measure 66
00001001
00000000
00000010
00000000
00000001
00001000
00000001
00000000
,  // measure 67
00000010
00000000
00001000
00000000
00010000
01000000
10000000
00000000
,  // measure 68
00100000
00000000
01000000
00000000
00010000
00100000
01000000
00000000
,  // measure 69
00100000
00000000
00001000
00000000
00010000
00000000
00001000
00000100
;
