#TITLE:Summer Vacation;
#SUBTITLE:(CU mix);
#ARTIST:OutPhase;
#TITLETRANSLIT:;
#SUBTITLETRANSLIT:;
#ARTISTTRANSLIT:;
#GENRE:Big Beat;
#CREDIT:;
#BANNER:Summer Vacation (CU mix)-bn.png;
#BACKGROUND:Summer Vacation (CU mix)-bg.png;
#LYRICSPATH:;
#CDTITLE:;
#MUSIC:Summer Vacation (CU mix).mp3;
#OFFSET:0.380000;
#SAMPLESTART:59.155998;
#SAMPLELENGTH:14.242000;
#SELECTABLE:YES;
#BPMS:0.000000=135.000000
;
#STOPS:194.000000=0.222000,
194.500000=0.222000,
195.000000=0.222000,
195.500000=0.222000
;
#BGCHANGES:;
#KEYSOUNDS:;
#ATTACKS:;

//---------------dance-single - S-HEAVY----------------
#NOTES:
     dance-single:
     DJ OMiY-HSP:
     Hard:
     8:
     0.508087,0.490468,0.305945,0.095608,0.172094,330.000000,32.000000,10.000000,0.000000,0.000000,0.000000,0.508087,0.490468,0.305945,0.095608,0.172094,330.000000,32.000000,10.000000,0.000000,0.000000,0.000000:
0000
0000
0000
0000
,
0000
0000
0000
0000
,
0000
0000
0000
0000
,
0000
0000
0000
0000
,
0000
0000
1000
0100
,
0010
0001
0100
0010
,
0100
0000
0001
0000
1000
0001
0100
0001
,
1000
0100
1000
0001
0010
0010
0010
0100
,
0010
0000
0000
0000
0110
0000
0000
0000
1001
0000
0001
0000
1000
0000
0010
0100
,
0000
0010
0100
0000
0001
0000
0000
0000
1000
0000
0001
0000
1000
0000
0010
1000
,
0000
0010
1000
0000
0100
0000
0000
0000
0010
0000
0001
0000
1000
0000
0001
0010
,
0000
0001
0010
0000
0100
0000
0010
0000
0002
0000
0000
0000
0000
0000
0000
0000
,
1003
0000
0001
0000
0101
0000
0000
0000
1001
0000
1000
0000
0010
0000
0100
0001
,
0000
0100
0001
0000
1000
0000
0000
0000
0100
0000
1000
0000
0001
0000
0100
0010
,
0000
0100
0010
0000
1000
0000
0000
0000
0100
0000
0010
0000
0001
0000
1000
0001
,
0000
1000
0001
0000
0100
0000
0000
0000
0020
0000
0000
0000
0000
0000
0000
0000
,
1030
0001
2000
0000
3100
1000
0002
0000
,
0013
0002
0100
0003
1001
0000
1000
0000
,
0001
0010
0100
0000
0010
0000
0001
0000
,
1000
0010
0100
0000
0001
0000
1000
0000
,
0100
0010
0001
0000
0100
0000
1000
0000
,
0100
0001
1000
0000
0110
0000
1000
0000
,
0001
0100
0010
0000
1000
0000
0001
0000
,
1000
0100
0010
0000
0100
0000
1000
0000
,
0001
0100
0001
0000
0010
0000
0001
0000
,
1000
0000
0000
0100
0110
0000
0001
0000
,
1000
0001
0010
0100
1000
0000
0001
0000
,
0100
0010
0100
0001
1000
0000
0100
0000
,
0010
0001
1000
0100
0010
0000
0001
0000
,
1000
0001
0100
0001
1001
0000
0100
0000
,
1001
0010
1001
0100
,
1001
0000
0010
0000
1000
0100
1000
0001
,
0100
0001
1000
0010
0100
0010
0100
0010
,
1000
0001
1000
0001
1000
0000
0000
0000
1001
0000
0000
0000
0100
0000
0001
0000
,
0010
0000
0000
0110
0000
0000
2100
0000
0000
0000
3001
0000
0100
0000
0001
0000
,
1000
0100
0010
0000
0001
1000
0010
0100
,
0001
0000
0000
0101
0000
0000
1002
0000
0000
0000
0013
0000
0001
0000
1000
0000
,
0100
0010
0100
0000
1000
0001
1000
0100
,
0010
0000
0000
0110
0000
0000
0021
0000
0000
0000
0031
0000
1000
0000
0001
0000
,
0010
0100
1000
0000
0100
1000
0001
0100
,
0001
0000
0000
1001
0000
0000
1000
0000
1001
0000
0000
0000
0101
0000
0000
0000
,
1010
1000
0100
0001
0100
1000
0001
0100
,
0001
0000
0000
1000
0000
0000
0010
0000
0100
0000
0001
0000
0010
0000
0100
0000
,
1000
0000
0000
0001
0000
0000
0010
0000
0001
0000
0100
0000
0010
0000
0100
0000
,
1000
0000
0000
0100
0000
0000
0001
0000
1000
0000
0100
0000
0010
0000
0001
0000
,
0010
0000
0000
0001
0000
0000
1000
0000
0010
0000
0100
0000
0001
0000
1000
0000
,
0001
0000
0000
0010
0000
0000
0100
0000
0010
0000
0001
0000
1000
0000
0010
0000
,
0100
0000
0000
0010
0000
0000
0100
0000
0001
0000
0010
0000
0100
0000
1000
0000
,
0100
0000
0000
1000
0000
0000
0020
0000
0030
0000
1001
0000
1100
0000
0101
0000
,
1001
0000
0000
0000
1000
0000
0000
0001
0000
0000
1000
0000
1100
0000
0000
0000
,
1001
0000
0000
0000
0100
0000
0000
0010
0000
0000
0100
0000
0101
0000
0000
0000
,
1010
0000
0000
0000
0001
0000
0000
0010
0000
0000
0100
0000
1100
0000
0000
0000
,
1010
0000
0000
0100
0000
0000
0001
0000
0000
1000
0001
0000
0200
0000
0000
0000
,
0310
1000
0001
0100
0001
1000
0100
1000
,
0001
0100
0010
0100
0001
0010
0100
1000
,
0100
0010
0100
1000
0001
0100
0001
1000
,
0001
0010
0000
0100
0000
1000
0000
0100
0000
0010
0001
0000
0000
1000
0000
0000
,
0100
0000
0000
0000
;

//---------------dance-single - S-STANDARD----------------
#NOTES:
     dance-single:
     DJ OMiY-SSP:
     Medium:
     5:
     0.370139,0.381475,0.124290,0.143412,0.071706,243.000000,13.000000,15.000000,0.000000,0.000000,0.000000,0.370139,0.381475,0.124290,0.143412,0.071706,243.000000,13.000000,15.000000,0.000000,0.000000,0.000000:
0000
0000
0000
0000
,
0000
0000
0000
0000
,
0000
0000
0000
0000
,
0000
0000
0000
0000
,
0000
0000
1000
0000
,
0001
0100
0001
0000
,
0010
0100
1000
0100
,
1000
0000
0001
0000
0100
0000
0010
0100
,
0020
0030
1001
1000
,
0001
0100
0001
0000
0010
0000
0100
0000
,
1000
0000
0001
1000
0100
0000
1000
0000
,
0010
0100
0010
0000
0100
0000
0001
1000
,
0001
1000
0100
0000
0010
0000
0001
0000
,
1000
0000
0010
0100
0001
0000
0010
0000
,
0001
0000
1000
0100
1000
0000
0010
0000
,
0100
0001
0020
0000
,
0000
0031
0200
0000
0000
0310
2000
0000
,
3002
0200
0000
0303
1001
0000
1000
0000
,
0100
0100
0010
0000
0001
0000
0100
0000
,
0001
0001
1000
0000
0010
0000
0100
0000
,
0010
0010
1000
0000
0100
0000
0010
0000
,
0001
0001
1000
0000
0100
0000
0010
0000
,
0100
0100
1000
0000
0001
0000
0100
0000
,
0010
0010
1000
0000
0100
0000
0010
0000
,
0001
0001
1000
0000
0020
0000
0000
0000
,
0030
0000
0000
0000
1001
0000
0000
0000
0100
0000
0000
0001
0000
0000
0000
0000
,
1000
0000
0000
0000
0001
0000
0000
0000
0010
0000
0000
0100
0000
0000
0000
0000
,
0010
0000
0000
0000
0001
0000
0000
0000
1000
0000
0000
0010
0000
0000
0000
0000
,
1000
0000
0000
0000
0001
0000
0000
0000
0100
0000
0000
0001
0000
0000
0000
0000
,
1000
0000
0100
1000
1100
0000
0100
0000
,
0110
0010
0011
0001
,
1001
0000
1000
0000
0001
0100
0001
0100
,
0001
0100
0001
0100
0001
1000
0001
1000
,
0001
1000
0002
0000
1003
0000
0100
0000
,
0010
0000
0000
0010
0000
0000
0002
0000
0000
0000
1003
0000
0100
0000
0000
0000
,
0010
0001
1000
0000
0010
0000
0100
0000
,
0001
0000
0000
0001
0000
0000
0200
0000
0000
0000
0310
0000
0100
0000
0000
0000
,
0001
1000
0001
0000
0110
0000
0100
0000
,
1000
0000
0000
1000
0000
0000
0020
0000
0000
0000
1030
0000
0001
0000
0000
0000
,
1000
0000
0100
0010
0110
0000
0000
0000
,
0011
0000
1001
1010
,
0001
0100
0020
0000
1030
0000
0001
0000
,
0100
0000
0000
0100
0000
0000
0010
0000
0100
0000
0000
0000
0001
0000
0000
0000
,
1000
0000
0000
0001
0000
0000
1000
0000
0100
0000
0000
0000
0010
0000
0000
0000
,
0001
0000
0000
0001
0000
0000
0100
0000
0010
0000
0000
0000
1000
0000
0000
0000
,
0001
0000
0000
0010
0000
0000
0100
0000
1000
0000
0000
0000
0001
0000
0000
0000
,
0100
0000
0000
0001
0000
0000
0010
0000
0001
0000
0000
0000
1000
0000
0000
0000
,
0010
0000
0000
0100
0000
0000
0010
0000
1000
0000
0000
0000
0100
0000
0000
0000
,
0010
0000
0000
0010
0000
0000
0020
0000
0030
0000
0001
0000
1000
0000
0001
0000
,
1000
0000
0000
0000
0010
0000
1000
0100
,
1000
0000
0000
0000
0001
0000
0010
0001
,
0100
0000
0000
0000
0010
0000
1000
0001
,
0010
0001
1000
0210
,
0301
0000
1000
0000
0001
0000
0010
0001
,
0100
0000
0010
0000
1000
0000
0100
1000
,
0010
0000
0100
0000
0001
0000
1000
0010
,
2000
0000
0000
0000
0000
0000
0000
0000
0000
0000
3001
0000
0000
0100
0000
0000
,
0001
0000
0000
0000
;

//---------------dance-single - S-LIGHT----------------
#NOTES:
     dance-single:
     DJ OMiY-LSP:
     Easy:
     3:
     0.282726,0.326979,0.200776,0.258141,0.000000,159.000000,21.000000,27.000000,0.000000,0.000000,0.000000,0.282726,0.326979,0.200776,0.258141,0.000000,159.000000,21.000000,27.000000,0.000000,0.000000,0.000000:
0000
0000
0000
0000
,
0000
0000
0000
0000
,
0000
0000
0000
0000
,
0000
0000
0000
0000
,
0000
0000
2000
0000
,
3001
0100
0002
0000
,
0013
0001
0200
0010
,
0310
1000
0002
0100
,
1003
0010
1001
0000
,
1000
0100
0110
0000
,
0001
0100
0101
0000
,
1000
0001
0020
0000
,
0030
1001
0100
0000
,
1000
0100
0110
0000
,
0001
1000
1001
0000
,
0001
0100
0020
0000
,
0130
0002
0103
0020
,
2000
3030
0000
0000
1001
0000
0000
0000
,
0010
0010
0100
0000
,
0001
0001
1000
0000
,
0100
0100
0010
0000
,
0100
0100
1000
0000
,
1000
1000
0001
0000
,
0010
0010
0100
0000
,
0010
0010
0002
0000
,
0003
1001
2000
0000
,
3010
0100
0002
0000
,
1003
0010
0200
0000
,
0310
1000
0020
0000
,
0130
0001
1001
0000
,
0110
0000
1001
0000
,
0110
0000
0001
0010
,
0100
1000
0002
0203
,
0320
1030
1002
0000
,
1000
0103
1000
0100
,
0010
0001
2000
0000
,
0001
3100
0001
0010
,
0100
0010
0012
0000
,
1000
0100
1003
0100
,
0010
0001
1001
0000
,
0110
0000
1001
0110
,
1000
0002
2003
0000
,
0010
3100
0001
0100
,
0010
1000
0002
0000
,
0010
0103
1000
0100
,
0010
0001
2001
0000
,
0001
3100
0001
0100
,
0010
1000
1001
0000
,
0020
0000
0000
0030
0000
0100
0100
0100
,
0100
0000
0001
0000
,
1000
0000
0100
0000
,
1000
0000
0001
0000
,
0020
0000
0000
0031
,
1001
0000
0010
0100
,
0001
0000
0100
0010
,
1000
0000
0010
0100
,
0002
0000
0000
0000
,
1003
0000
0000
0000
;

//---------------dance-single - BEGINNER----------------
#NOTES:
     dance-single:
     DJ OMiY-BEG:
     Beginner:
     1:
     0.116095,0.163489,0.028682,0.162533,0.000000,65.000000,3.000000,17.000000,0.000000,0.000000,0.000000,0.116095,0.163489,0.028682,0.162533,0.000000,65.000000,3.000000,17.000000,0.000000,0.000000,0.000000:
0000
0000
0000
0000
,
0000
0000
0000
0000
,
0000
0000
0000
0000
,
0000
0000
0000
0000
,
0000
0000
2000
0000
,
0000
0000
3000
0000
,
0000
0000
0002
0000
,
0000
0000
0003
0000
,
0000
0100
0100
0000
,
0000
0000
0010
0000
,
0000
0000
1000
0000
,
0000
0000
0002
0000
,
0003
0000
0010
0000
,
0000
0000
0001
0000
,
0000
0000
1000
0000
,
0000
0000
0200
0000
,
0300
0200
0300
0200
,
0300
0000
1001
0000
,
0000
0000
0001
0000
,
0000
0000
0100
0000
,
0000
0000
0010
0000
,
0000
0000
0100
0000
,
0000
0000
0001
0000
,
0000
0000
1000
0000
,
0000
0000
0002
0000
,
0003
0001
0002
0000
,
0003
0000
2000
0000
,
3000
0000
0200
0000
,
0300
0000
0020
0000
,
0030
0000
1001
0000
,
0001
0000
0100
0000
,
0100
0000
0020
0000
,
0030
0000
2000
0000
,
3000
0000
1001
0000
,
0010
0000
1000
0000
,
0000
0000
0100
0000
,
0010
0000
0001
0000
,
0000
0000
0010
0000
,
0001
0000
1000
0000
,
0000
0000
0100
0000
,
0100
0000
1000
1000
,
2000
3000
1000
0000
,
0001
0000
0100
0000
,
0000
0000
0010
0000
,
1000
0000
0100
0000
,
0000
0000
0010
0000
,
0001
0000
0010
0000
,
0000
0000
0001
0000
,
0010
0020
0000
0000
,
0030
0000
0000
0000
,
0100
0000
0000
0000
,
1000
0000
0000
0000
,
0002
0000
0003
0000
,
0010
0000
0000
0000
,
0100
0000
0000
0000
,
1000
0000
0000
0000
,
0200
0000
0000
0000
,
0300
0000
0000
0000
;

//---------------dance-double - D-HEAVY----------------
#NOTES:
     dance-double:
     DJ OMiY-HDP:
     Hard:
     8:
     0.546330,0.490468,0.191216,0.105169,0.195996,369.000000,20.000000,11.000000,0.000000,0.000000,0.000000,0.546330,0.490468,0.191216,0.105169,0.195996,369.000000,20.000000,11.000000,0.000000,0.000000,0.000000:
// measure 0
00000000
00000000
00000000
00000000
,  // measure 1
00000000
00000000
00000000
00000000
,  // measure 2
00000000
00000000
00000000
00000000
,  // measure 3
00000000
00000000
00000000
00000000
,  // measure 4
00000000
00000000
00000000
00000000
00100000
00001000
00000000
00010000
,  // measure 5
00001000
00010000
00000100
00000000
00001000
00000001
00000000
00000010
,  // measure 6
00000100
00000010
00000001
00000000
00001000
00000100
00010000
00001000
,  // measure 7
01000000
00100000
01000000
00010000
10000000
01000000
00100000
00001000
,  // measure 8
00010000
00000000
00000000
00000000
00011000
00000000
00000000
00000000
00001000
00000000
00000100
00000000
00000010
00000000
00000100
00000001
,  // measure 9
00000000
00001000
00000001
00000000
00000100
00000000
00000001
00000000
00000010
00000000
00000100
00000000
00010000
00000000
00001000
00100000
,  // measure 10
00000000
00010000
00100000
00000000
01000000
00000000
10000000
00000000
00010000
00000000
01000000
00000000
00100000
00000000
10000000
00010000
,  // measure 11
00000000
10000000
00100000
00000000
01000000
00000000
00010000
00000000
00200000
00000000
00000000
00000000
00301000
00000000
00100000
00000000
,  // measure 12
00001000
00000000
00010000
00000000
00011000
00000000
00000000
00000000
00100000
00000000
00010000
00000000
10000000
00000000
00010000
01000000
,  // measure 13
00000000
00100000
01000000
00000000
00010000
00000000
00100000
00000000
00001000
00000000
00010000
00000000
00000100
00000000
00000010
00000001
,  // measure 14
00000000
00001000
00000010
00000000
00000100
00000000
00000001
00000000
00001000
00000000
00000100
00000000
00000010
00000000
00000100
00001000
,  // measure 15
00000000
00000100
00010000
00000000
00001000
00000000
00100000
00000000
00020000
00000000
00000000
00000000
01000000
00000000
00000000
00000000
,  // measure 16
10030000
00010000
02000000
00000000
03100000
00010000
00002000
00000000
,  // measure 17
00013000
00000200
00000010
00000310
00000110
00000001
00001000
00000100
,  // measure 18
00010000
00001000
00100000
00000000
00010000
10000000
01000000
00100000
,  // measure 19
01000000
10000000
01000000
00000000
00100000
00001000
00010000
00000010
,  // measure 20
00001000
00000001
00000010
00000000
00000100
00001000
00000100
00001000
,  // measure 21
00010000
01000000
00100000
00000000
10000000
00010000
00100000
00001000
,  // measure 22
00100000
00010000
00001000
00000000
00000100
00000010
00000001
00000010
,  // measure 23
00000100
00001000
00000001
00000000
00000100
00000010
00001000
00000010
,  // measure 24
00010000
00001000
00100000
00000000
00010000
10000000
00000000
00010000
,  // measure 25
00000000
00000000
00100000
00000000
01100000
00000000
00000000
00000000
00100000
00000000
00000000
00001000
00000000
00000000
00000000
00000000
,  // measure 26
00010000
00000000
00000100
00000000
00001000
00000000
00000001
00000000
00001000
00000000
00000000
00000100
00000000
00000000
00000000
00000000
,  // measure 27
00010000
00000000
00001000
00000000
00100000
00000000
01000000
00000000
10000000
00000000
00000000
01000000
00000000
00000000
00000000
00000000
,  // measure 28
10000000
00000000
00010000
00000000
00100000
00000000
00001000
00000000
01000000
00000000
00000000
00010000
00000000
00000000
00000000
00000000
,  // measure 29
00100000
00001000
00010000
00000100
00001100
00000000
00000010
00000000
,  // measure 30
00000101
00000100
00001001
00000100
,  // measure 31
00010100
00000000
00010000
00000000
00001000
00100000
00001000
01000000
,  // measure 32
00010000
10000000
01000000
10000000
00010000
00100000
00001000
00010000
,  // measure 33
00000100
00001000
00000100
00001000
00000002
00000000
00000000
00000000
00000013
00000000
00001000
00000000
00000010
00000000
00000001
00000000
,  // measure 34
00001000
00000000
00000000
00001100
00000000
00000000
00000120
00000000
00000000
00000000
00000130
00000000
00000010
00000000
00000100
00000000
,  // measure 35
00010000
00001000
00100000
00010000
01000000
00100000
01000000
00010000
,  // measure 36
10000000
00000000
00000000
10100000
00000000
00000000
01020000
00000000
00000000
00000000
10030000
00000000
00010000
00000000
01000000
00000000
,  // measure 37
00100000
01000000
10000000
01000000
00010000
00100000
00001000
00100000
,  // measure 38
00010000
00000000
00000000
00110000
00000000
00000000
00201000
00000000
00000000
00000000
00301000
00000000
00010000
00000000
00000100
00000000
,  // measure 39
00000010
00000001
00000010
00000100
00001000
00000001
00000100
00000010
,  // measure 40
00000100
00000000
00000000
00000101
00000000
00000000
00000001
00000000
00001001
00000000
00000000
00000000
00001010
00000000
00000000
00000000
,  // measure 41
00000100
00000000
00010000
00000000
00001000
00010000
00001000
00010000
00100000
00000000
01000000
00000000
00010000
00000000
10000000
00000000
,  // measure 42
01000000
00000000
00000000
01000000
00000000
00000000
00100000
00000000
00001000
00000000
00010000
00000000
00000100
00000000
00001000
00000000
,  // measure 43
00000010
00000000
00000000
00000010
00000000
00000000
00000100
00000000
00000001
00000000
00000010
00000000
00001000
00000000
00000010
00000000
,  // measure 44
00000001
00000000
00000000
00000001
00000000
00000000
00001000
00000000
00000100
00000000
00010000
00000000
00001000
00000000
00010000
00000000
,  // measure 45
00100000
00000000
00000000
00100000
00000000
00000000
01000000
00000000
01010000
00000000
00010000
00000000
01000000
00000000
00100000
00000000
,  // measure 46
10000000
00000000
00000000
10000000
00000000
00000000
00010000
00000000
00100000
00000000
00010000
00000000
01000000
00000000
00001000
00000000
,  // measure 47
00010000
00000000
00000000
00010000
00000000
00000000
00001000
00000000
00000100
00000000
00000010
00000000
00000100
00000000
00001000
00000000
,  // measure 48
00010000
01000000
10000000
20010000
30000000
01000000
00010000
00001000
,  // measure 49
00001100
00000000
00000100
00000000
00000001
00000000
00000000
00001000
00000000
00000000
00000010
00000000
00001000
00000000
00000000
00000000
,  // measure 50
00000001
00000000
00000010
00000000
00000100
00000000
00000000
00000010
00000000
00000000
00000100
00000000
00001000
00000000
00000000
00000000
,  // measure 51
00000100
00000000
00010000
00000000
00001000
00000000
00000000
00010000
00000000
00000000
00100000
00000000
01000000
00000000
00000000
00000000
,  // measure 52
00010000
00000000
00000000
10000000
00000000
00000000
01000000
00000000
00000000
00100000
00001000
00000000
00020000
00000000
00001000
00000000
,  // measure 53
00031000
00010000
00000100
00001000
00000010
00000100
00001000
00000100
,  // measure 54
00000001
00001000
00000100
00010000
01000000
00100000
00010000
10000000
,  // measure 55
01000000
00100000
01000000
10000000
00010000
00100000
00001000
00010000
,  // measure 56
00000100
00001000
00000000
00000010
00000000
00001000
00000000
00000100
00000000
00010000
00001000
00000000
00000000
00010000
00000000
00000000
,  // measure 57
00100000
00000000
00000000
00000000
;

//---------------dance-double - D-STANDARD----------------
#NOTES:
     dance-double:
     DJ OMiY-SDP:
     Medium:
     5:
     0.338725,0.354227,0.152972,0.095608,0.100388,222.000000,16.000000,10.000000,0.000000,0.000000,0.000000,0.338725,0.354227,0.152972,0.095608,0.100388,222.000000,16.000000,10.000000,0.000000,0.000000,0.000000:
// measure 0
00000000
00000000
00000000
00000000
,  // measure 1
00000000
00000000
00000000
00000000
,  // measure 2
00000000
00000000
00000000
00000000
,  // measure 3
00000000
00000000
00000000
00000000
,  // measure 4
00000000
00000000
00001000
00000000
,  // measure 5
00010000
00000000
00100000
00000000
,  // measure 6
10000000
00000000
00010000
10000000
,  // measure 7
01000000
00000000
00100000
00000000
00001000
00000000
00010000
00000100
,  // measure 8
00010000
00000000
00000000
00000000
00011000
00000000
00000000
00000000
00000100
00000000
00000000
00000000
00000010
00000000
00000000
00000001
,  // measure 9
00000000
00000000
00000001
00000000
00000000
00000000
00000000
00000000
00000010
00000000
00000000
00000000
00000100
00000000
00000000
00001000
,  // measure 10
00000000
00001000
00000000
00000000
00010000
00000000
00100000
00010000
,  // measure 11
00000000
00010000
00000000
00000000
00000000
00000000
00000000
00000000
20000000
00000000
00000000
00000000
00000000
00000000
00000000
00000000
,  // measure 12
30010000
00000000
01000000
00000000
00010000
00000000
00000000
00000000
10010000
00000000
00000000
00000000
10000000
00000000
00000000
01000000
,  // measure 13
00000000
00000000
01000000
00000000
00000000
00000000
00000000
00000000
00100000
00000000
00000000
00000000
00010000
00000000
00000000
00001000
,  // measure 14
00000000
00000000
00001000
00000000
00000000
00000000
00000000
00000000
00000100
00000000
00000000
00000000
00001000
00000000
00000000
00000010
,  // measure 15
00000000
00000010
00000000
00000000
00000100
00000000
00000002
00000000
,  // measure 16
00000000
00001003
00000200
00000000
00000000
00010300
00002000
00000000
,  // measure 17
00103000
00001000
00010000
00000000
00011000
00000000
00100000
00000000
,  // measure 18
00010000
10000000
00010000
00000000
10000000
00000000
01000000
00000000
,  // measure 19
00100000
01000000
00100000
00000000
00010000
00000000
00100000
00000000
,  // measure 20
00001000
00010000
00001000
00000000
00010000
00000000
00000100
00000000
,  // measure 21
00000010
00000001
00000010
00000000
00000001
00000000
00001000
00000000
,  // measure 22
00000100
00010000
00000100
00000000
00010000
00000000
00001000
00000000
,  // measure 23
00100000
01000000
00100000
00000000
01000000
00000000
10000000
00000000
,  // measure 24
00010000
01000000
00010000
00000000
20000000
00000000
00000000
00000000
,  // measure 25
30000000
00000000
00000000
00000000
11000000
00000000
00000000
00000000
00110000
00000000
00000000
00010000
00000000
00000000
00000000
00000000
,  // measure 26
00100000
00000000
00000000
00000000
00001000
00000000
00000000
00000000
00010000
00000000
00000000
00000100
00000000
00000000
00000000
00000000
,  // measure 27
00001000
00000000
00000000
00000000
00000001
00000000
00000000
00000000
00000010
00000000
00000000
00000100
00000000
00000000
00000000
00000000
,  // measure 28
00001000
00000000
00000000
00000000
00000100
00000000
00000000
00000000
00010000
00000000
00000000
00001000
00000000
00000000
00000000
00000000
,  // measure 29
00100000
00010000
01010000
00000000
,  // measure 30
10010000
00000000
11000000
00000000
,  // measure 31
10100000
00000000
00010000
00100000
,  // measure 32
00001000
00000000
00010000
00000000
00000100
00001000
00000100
00001000
,  // measure 33
00000100
00001000
00000002
00000000
00000013
00000000
00000100
00000000
,  // measure 34
00001000
00000000
00000000
00000100
00000000
00000000
00010000
00000000
00000000
00000000
00000000
00000000
00001000
00000000
00000000
00000000
,  // measure 35
00100000
01000000
10000000
00010000
,  // measure 36
01000000
00000000
00000000
00010000
00000000
00000000
00100000
00000000
00000000
00000000
00000000
00000000
00001000
00000000
00000000
00000000
,  // measure 37
00010000
00000100
00000010
00000100
,  // measure 38
00001000
00000000
00000000
00000001
00000000
00000000
00000010
00000000
00000000
00000000
00000000
00000000
00000100
00000000
00000000
00000000
,  // measure 39
00000010
00000100
00001100
00000100
,  // measure 40
00010100
00010000
00011000
00011000
,  // measure 41
00001000
00100000
00020000
00000000
10030000
00000000
01000000
00000000
,  // measure 42
00100000
00000000
00000000
00010000
00000000
00000000
00000000
00000000
01000000
00000000
00000000
00000000
00100000
00000000
00000000
00000000
,  // measure 43
10000000
00000000
00000000
00010000
00000000
00000000
00000000
00000000
00100000
00000000
00000000
00000000
00001000
00000000
00000000
00000000
,  // measure 44
00010000
00000000
00000000
00001000
00000000
00000000
00000000
00000000
00000100
00000000
00000000
00000000
00000001
00000000
00000000
00000000
,  // measure 45
00001000
00000000
00000000
00000010
00000000
00000000
00000000
00000000
00000110
00000000
00000000
00000000
00000100
00000000
00000000
00000000
,  // measure 46
00000010
00000000
00000000
00001000
00000000
00000000
00000000
00000000
00000100
00000000
00000000
00000000
00010000
00000000
00000000
00000000
,  // measure 47
00001000
00000000
00000000
00100000
00000000
00000000
01000000
00000000
00100000
00000000
00000000
00000000
00010000
00000000
00000000
00000000
,  // measure 48
01000000
00000000
00000000
00001000
00000000
00000000
00012000
00000000
00000000
00000000
00013000
00000000
00001000
00000000
00010000
00000000
,  // measure 49
00000100
00000000
00000010
00000000
00000001
00000100
00000001
00000000
,  // measure 50
00001000
00000010
00001000
00000100
,  // measure 51
00010000
00000000
00001000
00000000
00100000
00010000
10000000
00000000
,  // measure 52
00100000
01000000
00100000
01020000
,  // measure 53
10030000
00000000
01000000
00000000
00100000
00001000
00100000
00000000
,  // measure 54
00001000
00000000
00010000
00000000
00001000
00000000
01000000
00010000
,  // measure 55
10000000
00000000
01000000
00000000
00100000
00000000
00001000
00010000
,  // measure 56
00000200
00000000
00000000
00000000
00000000
00000000
00000000
00000000
00001300
00000000
00000100
00000000
00000000
00000010
00000000
00000000
,  // measure 57
00000001
00000000
00000000
00000000
;

//---------------dance-double - D-LIGHT----------------
#NOTES:
     dance-double:
     DJ OMiY-LDP:
     Easy:
     4:
     0.295018,0.381475,0.191216,0.315506,0.000000,163.000000,20.000000,33.000000,0.000000,0.000000,0.000000,0.295018,0.381475,0.191216,0.315506,0.000000,163.000000,20.000000,33.000000,0.000000,0.000000,0.000000:
// measure 0
00000000
00000000
00000000
00000000
,  // measure 1
00000000
00000000
00000000
00000000
,  // measure 2
00000000
00000000
00000000
00000000
,  // measure 3
00000000
00000000
00000000
00000000
,  // measure 4
00000000
00000000
00001000
00000000
,  // measure 5
00100000
00000000
00001000
00000000
,  // measure 6
00010000
00000000
00000200
00000000
,  // measure 7
00000320
00000000
00000031
00000000
,  // measure 8
00000100
00000101
00001100
00000100
,  // measure 9
00000010
00000000
00001000
00000100
,  // measure 10
00010000
00000000
00001000
00100000
,  // measure 11
01000000
00000000
20000000
00000000
,  // measure 12
30010000
10010000
00100000
00010000
,  // measure 13
10000000
00000000
01000000
00100000
,  // measure 14
00010000
00000000
00100000
00001000
,  // measure 15
00010000
00000000
00000200
00000000
,  // measure 16
00001300
00000020
00000130
00000002
,  // measure 17
00000013
00000110
00001100
00000100
,  // measure 18
00010000
00001000
01000000
01000000
,  // measure 19
00010000
10000000
01000000
01000000
,  // measure 20
00100000
00010000
00100000
00100000
,  // measure 21
00001000
00010000
00000100
00000100
,  // measure 22
00001000
00000001
00000010
00000010
,  // measure 23
00000001
00001000
00000010
00000010
,  // measure 24
00010000
00001000
00200000
00000000
,  // measure 25
00300000
00110000
10010000
00000000
,  // measure 26
10000000
01000000
01100000
00000000
,  // measure 27
00100000
00001000
00011000
00000000
,  // measure 28
00010000
00000010
00001010
00000000
,  // measure 29
00001000
00000001
00000202
00000303
,  // measure 30
00002002
00003003
00002200
00003300
,  // measure 31
00002002
00003003
00000001
00000010
,  // measure 32
00000100
00001000
00010000
00100000
,  // measure 33
01000000
20000000
30010000
01000000
,  // measure 34
00200000
00000000
00000000
00300000
10000000
00000000
00010000
00000000
,  // measure 35
00100000
00000000
00001000
00010000
,  // measure 36
00000200
00000000
00000000
00000300
00000010
00000000
00000001
00000000
,  // measure 37
00001000
00000000
00000110
00010000
,  // measure 38
00002000
00000000
00000000
00003000
00100000
00000000
00010000
00000000
,  // measure 39
01000000
00000000
02200000
03300000
,  // measure 40
20200000
30300000
00010000
00100000
,  // measure 41
00002000
00023000
00030100
00001000
,  // measure 42
00000002
00000003
00000010
00000100
,  // measure 43
00002000
00003000
00000100
00010000
,  // measure 44
00002000
00003000
00100000
01000000
,  // measure 45
20000000
30000000
01010000
01000000
,  // measure 46
00200000
00300000
01000000
00001000
,  // measure 47
00020000
00030000
00001000
00010000
,  // measure 48
00000200
00000000
00000000
00000300
00000000
00001000
00001000
00001000
,  // measure 49
00001000
00000000
00000100
00010000
,  // measure 50
00001000
00000000
00100000
00010000
,  // measure 51
00100000
00000000
01000000
10000000
,  // measure 52
00100000
00000000
01000000
01100000
,  // measure 53
10010000
10000000
01000000
00000000
,  // measure 54
00100000
00001000
00010000
00000000
,  // measure 55
00000100
00001000
00000010
00001000
,  // measure 56
00020000
00000000
00000000
00000000
,  // measure 57
01030000
00000000
00000000
00000000
;
