#VERSION:0.82;
#TITLE:Stay my side;
#SUBTITLE:;
#ARTIST:DJ Yoshitaka feat. RINA;
#TITLETRANSLIT:;
#SUBTITLETRANSLIT:;
#ARTISTTRANSLIT:;
#GENRE:R&B;
#ORIGIN:;
#CREDIT:;
#BANNER:Stay my side-bn.png;
#BACKGROUND:Stay my side-bg.png;
#PREVIEWVID:;
#JACKET:Stay my side-jk.png;
#CDIMAGE:;
#DISCIMAGE:zWHITE.png;
#LYRICSPATH:;
#CDTITLE:;
#MUSIC:Stay my side.mp3;
#OFFSET:-0.420000;
#SAMPLESTART:59.799999;
#SAMPLELENGTH:19.219999;
#SELECTABLE:YES;
#BPMS:0.000=100.000;
#STOPS:;
#DELAYS:;
#WARPS:;
#TIMESIGNATURES:0.000=4=4;
#TICKCOUNTS:0.000=4;
#COMBOS:0.000=1;
#SPEEDS:0.000=1.000=0.000=0;
#SCROLLS:0.000=1.000;
#FAKES:;
#LABELS:0.000=Song Start;
#BGCHANGES:;
#KEYSOUNDS:;
#ATTACKS:
;

//---------------dance-single - S-HEAVY----------------
#NOTEDATA:;
#CHARTNAME:DJ OMiY-HSP;
#STEPSTYPE:dance-single;
#DESCRIPTION:S-HEAVY;
#CHARTSTYLE:;
#DIFFICULTY:Hard;
#METER:7;
#RADARVALUES:0.431306,0.399377,0.156331,0.371286,0.122134,255.000000,16.000000,38.000000,0.000000,0.000000,0.000000,0.000000,0.000000,0.431306,0.399377,0.156331,0.371286,0.122134,255.000000,16.000000,38.000000,0.000000,0.000000,0.000000,0.000000,0.000000;
#CREDIT:DJ OMiY;
#NOTES:
0000
0000
0000
0000
,
0000
0000
0000
0000
,
0000
0000
0000
0000
,
1000
0000
0001
0100
0010
0000
0200
0000
0000
0000
0310
0000
0100
0000
0010
0000
,
1000
0000
0100
1000
0010
0000
0120
0000
0000
0000
1030
0000
0100
0000
0010
0000
,
0002
0000
0000
1003
0001
0000
0020
0000
0000
0000
0031
0000
0010
0000
0100
0000
,
2000
0000
0000
3010
0100
0000
0002
0000
0000
0000
0013
0000
0001
0000
1000
0000
,
0100
0000
1000
0001
0010
0000
0200
0000
0000
0000
1300
0000
0001
0000
0100
0000
,
0020
0000
0000
1030
0001
0000
0020
0000
0000
0000
0130
0000
1001
0000
0000
0000
,
0110
0001
0100
0000
0010
1000
0100
1000
,
0001
0000
0000
0010
0000
0000
0100
0000
0010
0000
0001
0000
1000
0000
0010
0000
,
0200
0000
2300
0000
3100
0001
1000
0100
,
0010
0000
0000
0001
0000
0000
1000
0000
0001
0000
0010
0000
0110
0000
0000
0000
,
1001
0000
2000
0000
3001
0010
0100
1000
,
0010
0100
0010
2000
0000
3001
0010
0001
,
1000
0000
0000
0000
0010
0000
0001
0000
0010
0000
0000
1000
0000
0000
0001
0000
,
0021
0000
0130
2000
0000
3001
0100
0010
,
0100
0000
0000
0101
0000
0000
0001
0000
0000
0000
1000
0000
0100
0000
0010
0000
,
0200
0000
1300
2000
0000
3010
0200
0000
,
0310
0000
0000
1010
0000
0000
1000
0000
0001
0000
0010
0000
0100
0000
0010
0000
,
0002
0203
2300
3200
,
0301
0000
1000
0020
0000
0030
0100
0001
,
2000
0000
3001
0020
0000
0030
0001
1000
,
0100
0000
0010
0001
0000
1000
0001
0100
,
0000
0000
0010
0000
0110
0000
0101
0000
1000
0100
1000
0100
0010
0001
0010
0100
,
1000
0000
1000
0001
0101
0000
0001
0010
,
0110
0000
0100
1000
0001
0100
0010
0100
,
0001
0000
0000
0010
0100
0000
2000
0000
0000
0000
3001
0000
0010
0000
0001
0000
,
1000
0000
0000
0100
0010
0000
0002
0000
0000
0000
1003
0000
0100
0000
0010
0000
,
0110
0000
0001
0100
0101
0000
1000
0010
,
1010
0000
0001
1000
0100
0001
0100
1000
,
0010
0000
0000
0100
0001
0000
2000
0000
0000
0000
3010
0000
0100
0000
0001
0000
,
0100
0000
0000
0010
1000
0000
0002
0000
0000
0000
0013
0000
0001
0000
1000
0000
,
1100
0000
0000
0001
1000
0000
0020
0000
0000
0000
0130
0000
0001
0000
0010
0000
,
0100
0000
0000
1000
0001
0000
0200
0000
0000
0000
0301
0000
1000
0000
0010
0000
,
1000
0000
0100
1000
0010
0000
0200
0000
0000
0000
0301
0000
0010
0000
0100
0000
,
1000
0000
0001
1000
0100
0000
0020
0000
0000
0000
0031
0000
0100
0000
0001
0000
,
0020
0000
0001
0031
0000
1000
0001
1000
,
0200
0000
1000
1300
0000
0100
0010
0001
,
1000
0000
0010
1000
0100
0000
0020
0000
0000
0000
0031
0000
0100
0000
0010
0000
,
2000
0000
0000
3001
0100
0000
0002
0000
0000
0000
0013
0000
0100
0000
1000
0000
;

//---------------dance-single - S-STANDARD----------------
#NOTEDATA:;
#CHARTNAME:DJ OMiY-SSP;
#STEPSTYPE:dance-single;
#DESCRIPTION:S-STANDARD;
#CHARTSTYLE:;
#DIFFICULTY:Medium;
#METER:4;
#RADARVALUES:0.295912,0.259595,0.117248,0.136790,0.014656,186.000000,12.000000,14.000000,0.000000,0.000000,0.000000,0.000000,0.000000,0.295912,0.259595,0.117248,0.136790,0.014656,186.000000,12.000000,14.000000,0.000000,0.000000,0.000000,0.000000,0.000000;
#CREDIT:DJ OMiY;
#NOTES:
0000
0000
0000
0000
,
0000
0000
0000
0000
,
0000
0000
0000
0000
,
1000
0000
0001
0010
0000
0000
0001
0000
,
1000
0000
0100
0010
0000
0000
0100
1000
,
0001
0000
0100
0001
1000
0000
0010
0000
,
0100
0000
0001
0100
0000
0000
0010
0000
,
1000
0010
1000
0001
0000
0000
0001
0010
,
0100
0000
0100
1000
0000
0001
1001
0000
,
0110
0000
0001
1000
0100
1000
0001
0000
,
0100
0000
0000
0100
0000
0000
0010
0000
0000
0000
1000
0000
0100
0000
0000
0000
,
1000
0000
0001
0000
0010
0001
0100
0000
,
0010
0000
0000
0010
0000
0000
0100
0000
0000
0000
0010
0000
1010
0000
0000
0000
,
1001
0000
1000
0000
0100
0010
0001
0000
,
0100
0000
0000
1000
0000
0000
0100
0000
0000
0000
0001
0000
1000
0000
0000
0000
,
0200
0000
0310
0001
2000
0000
3010
0100
,
0001
0000
1000
0001
0000
1000
0001
0010
,
0100
0000
1000
0001
0000
0001
0100
0000
,
0020
0000
0030
2010
0000
3000
0001
0000
,
1000
0000
1000
0100
0000
0100
0010
0000
,
0001
0101
1000
1010
,
0001
0000
1000
0010
0000
0010
0100
0000
,
0002
0000
0003
0021
0000
0030
1001
0000
,
1000
0000
0001
0100
0000
0010
1000
0001
,
0000
0100
0100
0100
0010
0100
0020
0000
,
1030
0000
0100
1000
0000
0001
0100
0000
,
0010
0000
1000
0010
0000
0100
0001
0000
,
1000
0000
0100
0010
0000
0001
0100
0000
,
0001
0000
0010
0100
0000
1000
0100
0010
,
0001
0000
1000
0010
0000
0100
0001
0000
,
0010
0000
0001
0010
0000
0100
1000
0000
,
0001
0000
0010
0100
0000
1000
0001
0000
,
0100
0000
0010
1000
0000
0001
0100
0001
,
2000
0000
0010
3010
0000
0000
0110
0000
,
0020
0000
1000
1030
0000
0000
1001
0000
,
0200
0000
0001
0301
0000
0000
0110
0000
,
0002
0000
0100
0103
0000
0010
1000
0100
,
0020
0000
0000
0031
0000
0000
0100
0000
,
0020
0000
0000
1030
0000
0000
0100
0000
,
2000
0000
0000
3001
0000
0100
0001
1000
,
0001
0000
0100
0010
0000
1000
0100
0001
;

//---------------dance-single - S-LIGHT----------------
#NOTEDATA:;
#CHARTNAME:DJ OMiY-LSP;
#STEPSTYPE:dance-single;
#DESCRIPTION:S-LIGHT;
#CHARTSTYLE:;
#DIFFICULTY:Easy;
#METER:2;
#RADARVALUES:0.194018,0.238893,0.136790,0.283350,0.000000,96.000000,14.000000,29.000000,0.000000,0.000000,0.000000,0.000000,0.000000,0.194018,0.238893,0.136790,0.283350,0.000000,96.000000,14.000000,29.000000,0.000000,0.000000,0.000000,0.000000,0.000000;
#CREDIT:DJ OMiY;
#NOTES:
0000
0000
0000
0000
,
0000
0000
0000
0000
,
0000
0000
0000
0000
,
2000
0000
0000
3000
0000
0000
0001
0000
,
0002
0000
0000
0003
0000
0000
0100
0000
,
0020
0000
0000
0030
0000
0000
1000
0000
,
0200
0000
0000
0300
0000
0000
0010
0000
,
0002
0000
0000
0003
0000
0000
0010
0000
,
2000
0000
0000
3000
0000
0000
0110
0000
,
0001
1000
0000
1000
,
0001
0100
0000
0010
,
1000
0010
0000
0100
,
0001
1000
0000
1000
,
0100
0010
0000
0001
,
1000
0010
0000
0000
,
0100
0001
0010
0000
,
0100
1000
0100
0000
,
2002
0000
0000
3003
0000
0000
0100
0000
,
0020
0000
0000
0030
0000
0000
1000
0000
,
0220
0000
0000
0330
0000
0000
0001
0000
,
0020
0230
2300
3001
,
0202
0000
0000
0303
0000
0000
1000
0000
,
2200
0000
0000
3300
0000
0000
0001
0000
,
0220
0000
0000
0330
0000
0000
0001
0000
,
1000
0001
1000
0110
,
1001
0010
1001
0010
,
1001
0000
0001
0100
,
0001
0000
1000
0000
,
0010
1000
0000
1000
,
0110
0001
0110
1000
,
0110
0000
0001
0010
,
0001
0000
1000
0100
,
0020
0000
0000
0031
,
1002
0000
0000
0003
0000
0000
1000
0000
,
0200
0000
0000
0300
0000
0000
0100
0000
,
0020
0000
0000
0030
0000
0000
0001
0000
,
2000
0000
0000
3000
0000
0000
0010
0000
,
0200
0000
0000
0300
0000
0000
0001
0000
,
0020
0000
0000
0030
0000
0000
0010
0000
,
0200
0000
0000
0300
0000
0000
1000
0000
,
0002
0000
0000
0003
0100
0000
0010
0000
;

//---------------dance-single - BEGINNER----------------
#NOTEDATA:;
#CHARTNAME:DJ OMiY-BEG;
#STEPSTYPE:dance-single;
#DESCRIPTION:BEGINNER;
#CHARTSTYLE:;
#DIFFICULTY:Beginner;
#METER:1;
#RADARVALUES:0.082353,0.118714,0.039083,0.048853,0.000000,50.000000,4.000000,5.000000,0.000000,0.000000,0.000000,0.000000,0.000000,0.082353,0.118714,0.039083,0.048853,0.000000,50.000000,4.000000,5.000000,0.000000,0.000000,0.000000,0.000000,0.000000;
#CREDIT:DJ OMiY;
#NOTES:
0000
0000
0000
0000
,
0000
0000
0000
0000
,
0000
0000
0000
0000
,
2000
0000
0000
3000
0000
0000
0000
0000
,
0002
0000
0000
0003
0000
0000
0000
0000
,
0100
0000
0000
0000
,
0010
0000
0000
0000
,
1000
0000
0000
0000
,
0100
0000
0000
0000
,
0110
0000
0000
0000
,
0010
0000
0000
0000
,
0001
0000
0000
0000
,
1000
0000
0000
0000
,
0010
0000
0000
0000
,
0100
0000
0000
0000
,
0001
0000
0000
0000
,
0010
0000
0100
0000
,
1001
0000
0000
0000
,
0010
0000
0000
0000
,
1000
0000
0000
0000
,
0001
0001
0001
0000
,
1000
0000
0000
0000
,
0100
0000
0000
0000
,
0010
0000
0000
0000
,
0100
0100
0100
0000
,
1001
0000
0001
0000
,
0001
0000
0000
0000
,
0010
0000
0000
0000
,
0100
0000
0000
0000
,
1001
0000
1000
0000
,
1000
0000
0000
0000
,
0010
0000
0000
0000
,
0100
0000
0000
0000
,
0001
0000
0000
0010
,
0010
0000
0000
0100
,
0100
0000
0000
1000
,
1000
0000
0000
0010
,
0020
0000
0000
0030
0000
0000
0000
0000
,
0200
0000
0000
0300
0000
0000
0000
0000
,
0002
0000
0000
0003
0000
0000
0000
0000
,
1000
0000
0001
0000
;

//---------------dance-double - D-HEAVY----------------
#NOTEDATA:;
#CHARTNAME:DJ OMiY-HDP;
#STEPSTYPE:dance-double;
#DESCRIPTION:D-HEAVY;
#CHARTSTYLE:;
#DIFFICULTY:Hard;
#METER:7;
#RADARVALUES:0.436889,0.419345,0.156331,0.302891,0.156331,266.000000,16.000000,31.000000,0.000000,0.000000,0.000000,0.000000,0.000000,0.436889,0.419345,0.156331,0.302891,0.156331,266.000000,16.000000,31.000000,0.000000,0.000000,0.000000,0.000000,0.000000;
#CREDIT:DJ OMiY;
#NOTES:
// measure 0
00000000
00000000
00000000
00000000
,  // measure 1
00000000
00000000
00000000
00000000
,  // measure 2
00000000
00000000
00000000
00000000
,  // measure 3
00001000
00000000
00010000
00000100
00000010
00000000
00000002
00000000
00000000
00000000
00001003
00000000
00000100
00000000
00010000
00000000
,  // measure 4
00001000
00000000
00100000
00001000
00010000
00000000
02000000
00000000
00000000
00000000
13000000
00000000
01000000
00000000
00100000
00000000
,  // measure 5
00110000
00000000
00000000
00010000
00001000
00000000
00000020
00000000
00000000
00000000
00001030
00000000
00000001
00000000
00000010
00000000
,  // measure 6
00000100
00000000
00000000
00001000
00000100
00000000
00020000
00000000
00000000
00000000
00031000
00000000
01000000
00000000
10000000
00000000
,  // measure 7
01000000
00000000
00100000
10000000
01000000
00000000
02100000
00000000
00000000
00000000
03100000
00000000
00010000
00000000
10000000
00000000
,  // measure 8
00010000
00000000
00100000
00001000
00010000
00000000
00002000
00000000
00000000
00000000
00003100
00000000
00000101
00000000
00000000
00000000
,  // measure 9
00001001
00000000
00001000
00000000
00000100
00010000
00001000
00000100
,  // measure 10
00000001
00000000
00000000
00000001
00000000
00000000
00000100
00000000
00000010
00000000
00001000
00000000
00010000
00000000
00100000
00000000
,  // measure 11
01000000
00000000
10000000
00010000
00010000
00100000
00001000
00010000
,  // measure 12
01000000
00000000
00000000
00100000
00000000
00000000
00010000
00000000
10000000
00000000
00100000
00000000
01000000
00000000
00000000
00000000
,  // measure 13
01010000
00000000
00010000
00000000
00100000
00001000
00010000
00000100
,  // measure 14
00000010
00000001
00000010
00000100
00000000
00001000
00000100
00010000
,  // measure 15
00002000
00000000
00000000
00000000
00103000
00000000
00010000
00000000
10000000
00000000
00000000
01000000
00000000
00000000
00100000
00000000
,  // measure 16
00010000
00000000
00001000
00000100
00000000
00000010
00000001
00001000
,  // measure 17
00000010
00000000
00000000
00001010
00000000
00000000
00000110
00000000
00000010
00000000
00001000
00000000
00000100
00000000
00010000
00000000
,  // measure 18
00011000
00001000
00100000
00110000
00000000
00010000
01000000
10000000
,  // measure 19
01000000
00000000
00000000
01100000
00000000
00000000
01010000
00000000
10000000
00000000
01000000
00000000
00100000
00000000
00010000
00000000
,  // measure 20
00200000
00302000
00023000
00030200
,  // measure 21
00000310
00000000
00000000
00000001
00001000
00000000
00000200
00000000
00000000
00000000
00010300
00000000
00001000
00000000
01000000
00000000
,  // measure 22
00100000
00000000
00000000
00010000
00100000
00000000
20000000
00000000
00000000
00000000
31000000
00000000
00100000
00000000
00010000
00000000
,  // measure 23
02000000
00000000
03010000
20000000
00000000
32000000
00000000
03020000
,  // measure 24
00000000
00000000
00031000
00000000
00001100
00000000
00000101
00000000
00001000
00000010
00001000
00000010
00000100
00000001
00000010
00000100
,  // measure 25
00001000
00000000
00000000
00000100
00010000
00000000
00002000
00000000
00000000
00000000
00103000
00000000
00001000
00000000
00010000
00000000
,  // measure 26
01000000
00000000
00000000
10000000
00100000
00000000
02000000
00000000
00000000
00000000
03010000
00000000
00100000
00000000
00010000
00000000
,  // measure 27
10000000
00000000
00100000
10000000
01000000
00000000
00200000
00000000
00000000
00000000
00310000
00000000
01000000
00000000
00001000
00000000
,  // measure 28
00010000
00000000
00000100
00001000
00000010
00000000
00000200
00000000
00000000
00000000
00000301
00000000
00000011
00000000
00000010
00000000
,  // measure 29
00000110
00000000
00000000
00000100
00001000
00000000
00000002
00000000
00000000
00000000
00000013
00000000
00000001
00000000
00001000
00000000
,  // measure 30
00000100
00000000
00000000
00001000
00010000
00000000
02000000
00000000
00000000
00000000
03010000
00000000
10000000
00000000
01000000
00000000
,  // measure 31
00100000
00000000
00010000
01000000
00100000
00000000
20000000
00000000
00000000
00000000
30010000
00000000
00100000
00000000
00001000
00000000
,  // measure 32
00010000
00000000
00000000
00010000
00001000
00000000
00000200
00000000
00000000
00000000
00000301
00000000
00000010
00000000
00000100
00000000
,  // measure 33
00001000
00000000
00000000
00000100
00001000
00000000
00000002
00000000
00000000
00000000
00001003
00000000
00000100
00000000
00010000
00000000
,  // measure 34
00001000
00000000
00000000
00001000
00100000
00000000
02000000
00000000
00000000
00000000
03100000
00000000
00010000
00000000
10000000
00000000
,  // measure 35
00010000
00000000
01000000
00010000
00100000
00000000
00002000
00000000
00000000
00000000
00013000
00000000
00000100
00000000
00000010
00000000
,  // measure 36
00000001
00000000
00000010
00000001
00000100
00000000
00002000
00000000
00000000
00000000
00013000
00000000
01000000
00000000
10000000
00000000
,  // measure 37
10010000
00000000
00000000
10000000
00010000
00000000
01000000
00000000
00000000
00000000
00100000
00000000
01000000
00000000
00000000
00000000
,  // measure 38
00010000
00000000
00000000
00100000
00001000
00000000
00010000
00000000
00000000
00000000
00001000
00000000
00010000
00000000
00001000
00000000
,  // measure 39
00000100
00000000
00000000
00000010
00000100
00000000
00000001
00000000
00000000
00000000
00001000
00000000
00000010
00000000
00001000
00000000
,  // measure 40
00000200
00000000
00000310
00000200
00000000
00000301
00000010
00000100
;

//---------------dance-double - D-STANDARD----------------
#NOTEDATA:;
#CHARTNAME:DJ OMiY-SDP;
#STEPSTYPE:dance-double;
#DESCRIPTION:D-STANDARD;
#CHARTSTYLE:;
#DIFFICULTY:Medium;
#METER:5;
#RADARVALUES:0.304287,0.299532,0.117248,0.156331,0.009771,190.000000,12.000000,16.000000,0.000000,0.000000,0.000000,0.000000,0.000000,0.304287,0.299532,0.117248,0.156331,0.009771,190.000000,12.000000,16.000000,0.000000,0.000000,0.000000,0.000000,0.000000;
#CREDIT:DJ OMiY;
#NOTES:
// measure 0
00000000
00000000
00000000
00000000
,  // measure 1
00000000
00000000
00000000
00000000
,  // measure 2
00000000
00000000
00000000
00000000
,  // measure 3
00001000
00000000
00010000
00001000
00000000
00000000
00000100
00000000
,  // measure 4
00000001
00000000
00000010
00000100
00000000
00000000
00001000
00000100
,  // measure 5
00010000
00000000
00001000
00010000
00001000
00000000
00010000
00001000
,  // measure 6
00010000
00000000
00100000
01000000
00000000
00000000
00100000
00000000
,  // measure 7
10000000
00000000
01000000
00100000
00000000
00000000
00001000
00000000
,  // measure 8
00010000
00000000
00000010
00001000
00000000
00000001
00000100
00000000
,  // measure 9
00000101
00000000
00000001
00000000
00000001
00001000
00000001
00001000
,  // measure 10
00000200
00000000
00000000
00010000
00000000
00000000
00010300
00000000
00000000
00000000
00000000
00000000
00001000
00000000
00000000
00000000
,  // measure 11
00100000
00000000
00010000
00000000
10000000
00000000
01000000
00100000
,  // measure 12
00020000
00000000
00000000
00100000
00000000
00000000
00031000
00000000
00000000
00000000
00010000
00000000
00011000
00000000
00000000
00000000
,  // measure 13
00000100
00000010
00000001
00000010
,  // measure 14
00000100
00001000
00000100
00001000
00000000
00000100
00001000
00000100
,  // measure 15
00010000
00000000
00001000
00000000
00100000
00000000
00010000
10000000
,  // measure 16
01000000
00000000
10000000
00100000
00000000
01000000
00010000
10000000
,  // measure 17
10010000
00000000
00010000
01000000
00000000
01000000
00010000
00000000
,  // measure 18
00200000
00000000
00300000
00102000
00000000
00003000
00010000
00000000
,  // measure 19
00000100
00000000
00000010
00000001
00000000
00001000
00000010
00000000
,  // measure 20
00000200
00000302
00000023
00000230
,  // measure 21
00002300
00000000
00003000
00001200
00000000
00000300
00010000
00000000
,  // measure 22
00002000
00000000
00003000
00201000
00000000
00300000
00010000
10000000
,  // measure 23
10000000
00000000
01000000
00100000
00000000
00020000
00000000
02030000
,  // measure 24
00000000
03010000
00100000
01000000
10000000
01000000
20000000
00010000
,  // measure 25
30010000
00000000
00100000
00001000
00101000
00000000
00010000
00000100
,  // measure 26
00010100
00000000
00000100
00000010
00000000
00000100
00001000
00000000
,  // measure 27
00000010
00000000
00000100
00000001
00000000
00001000
00000100
00000000
,  // measure 28
00010000
00000000
00001000
00010000
00000000
00010000
00001000
00010000
,  // measure 29
00011000
00000000
00001000
00100000
00110000
00000000
00100000
01000000
,  // measure 30
01100000
00000000
10000000
00010000
00000000
00100000
00001000
00000000
,  // measure 31
00010000
00000000
00000100
00000010
00000000
00000001
00000100
00000000
,  // measure 32
00000020
00000000
00001000
00001000
00000000
00010000
00010030
00000000
,  // measure 33
00011000
00000000
00010000
00001000
00000000
00001000
00010000
00000000
,  // measure 34
00100000
00000000
01000000
00010000
00000000
00010000
10000000
00000000
,  // measure 35
01000000
00000000
00100000
00001000
00000000
00001000
00010000
00000000
,  // measure 36
00000100
00000000
00001000
00000001
00000000
00000001
00000010
00000100
,  // measure 37
00001000
00000000
00000100
00001000
00000000
00000000
00000001
00000000
,  // measure 38
00000010
00000000
00000001
00001000
00000000
00000000
00000100
00000000
,  // measure 39
00010000
00001000
00100000
00001000
00000000
01000000
00010000
00000000
,  // measure 40
10000000
00000000
01000000
00100000
00000000
00010000
10000000
00010000
;

//---------------dance-double - Blank----------------
#NOTEDATA:;
#CHARTNAME:DJ OMiY-LDP;
#STEPSTYPE:dance-double;
#DESCRIPTION:Blank;
#CHARTSTYLE:;
#DIFFICULTY:Easy;
#METER:2;
#RADARVALUES:0.189830,0.199078,0.078165,0.166102,0.000000,111.000000,8.000000,17.000000,0.000000,0.000000,0.000000,0.000000,0.000000,0.189830,0.199078,0.078165,0.166102,0.000000,111.000000,8.000000,17.000000,0.000000,0.000000,0.000000,0.000000,0.000000;
#CREDIT:DJ OMiY;
#NOTES:
// measure 0
00000000
00000000
00000000
00000000
,  // measure 1
00000000
00000000
00000000
00000000
,  // measure 2
00000000
00000000
00000000
00000000
,  // measure 3
00001000
00020000
00000000
00031000
,  // measure 4
00000100
00000002
00000000
00000013
,  // measure 5
00000100
00000000
00001000
00000000
,  // measure 6
00000100
00020000
00000000
00031000
,  // measure 7
00100000
02000000
00000000
13000000
,  // measure 8
00010000
00200000
00000000
00301000
,  // measure 9
00011000
00001000
00010000
00001000
,  // measure 10
00000100
00000000
00000001
00000000
,  // measure 11
00000010
00000100
00001000
00000000
,  // measure 12
00000100
00000000
00010000
00001000
,  // measure 13
00011000
00000000
00001000
00000000
,  // measure 14
00100000
01000000
00000000
10000000
,  // measure 15
00010000
01000000
00100000
00000000
,  // measure 16
20000000
00000000
32000000
00000000
,  // measure 17
03100000
00000000
00010000
00100000
,  // measure 18
00001000
00000000
00010000
00000000
,  // measure 19
00000100
00000000
00000010
00000001
,  // measure 20
00000100
00000100
00000010
00001000
,  // measure 21
00000200
00000000
00010300
00001000
,  // measure 22
00200000
00000000
00310000
10000000
,  // measure 23
01000000
00000000
00100000
00000000
,  // measure 24
00001000
00010000
00000100
00001000
,  // measure 25
00001001
00000010
00001001
00000100
,  // measure 26
00001001
00000000
00000010
00000000
,  // measure 27
00001000
00000000
00000100
00010000
,  // measure 28
00002000
00000000
00103000
00010000
,  // measure 29
01100000
10000000
01100000
00010000
,  // measure 30
01100000
00000000
10000000
01000000
,  // measure 31
00200000
00000000
00302000
00000000
,  // measure 32
00023000
00000000
00000100
00000000
,  // measure 33
00031000
00000200
00000000
00000301
,  // measure 34
00000010
00000200
00000000
00001300
,  // measure 35
00000100
00020000
00000000
00031000
,  // measure 36
01000000
00200000
00000000
10300000
,  // measure 37
00010000
00100000
00000000
00001000
,  // measure 38
00010000
00000010
00000000
00000100
,  // measure 39
00000001
00000010
00000000
00000100
,  // measure 40
00001000
00000100
00010000
00001000
;
