#TITLE:Round and Round;
#SUBTITLE:;
#ARTIST:Masayoshi Minoshima feat. 綾倉盟;
#TITLETRANSLIT:;
#SUBTITLETRANSLIT:;
#ARTISTTRANSLIT:Masayoshi Minoshima feat. Mei Ayakura;
#GENRE:Electro;
#CREDIT:;
#BANNER:Round and Round-bn.png;
#BACKGROUND:Round and Round-bg.png;
#LYRICSPATH:;
#CDTITLE:;
#MUSIC:Round and Round.mp3;
#OFFSET:-0.520000;
#SAMPLESTART:81.586998;
#SAMPLELENGTH:13.259000;
#SELECTABLE:YES;
#BPMS:0.000000=145.029999
;
#STOPS:
;
#BGCHANGES:;
#KEYSOUNDS:;
#ATTACKS:;

//---------------dance-single - S-HEAVY----------------
#NOTES:
     dance-single:
     DJ OMiY-HSP:
     Hard:
     8:
     0.555016,0.519861,0.142428,0.079126,0.138471,463.000000,18.000000,10.000000,0.000000,0.000000,0.000000,0.555016,0.519861,0.142428,0.079126,0.138471,463.000000,18.000000,10.000000,0.000000,0.000000,0.000000:
0000
0000
0000
0000
,
0000
0000
0000
0000
,
0000
0000
0000
0000
,
0000
0000
0000
0000
,
1000
0001
0010
0100
1000
0100
0010
0001
,
0100
0010
0100
0001
0010
1000
0010
0001
,
1000
1100
0000
1001
0000
0101
0000
1001
,
0020
0000
0130
0110
,
0001
1000
0000
0010
1000
0100
0000
0010
,
0100
0010
0000
0001
1000
0001
0000
0100
,
0010
1000
0000
0001
0010
0100
0000
0010
,
0100
1000
0000
0001
0100
0010
1000
0100
,
0010
0001
0000
1000
0010
0100
0000
0001
,
1000
0100
0000
1000
0001
0100
0000
0010
,
0100
0001
0000
0010
0100
1000
0000
0010
,
1000
0000
0100
0000
0000
0000
0010
0000
0001
0000
1000
0001
1000
0000
0010
0000
,
0200
0000
0320
0000
2030
0000
3001
0100
,
0000
0001
1000
0001
0000
1000
0100
0010
,
0000
0100
0010
0001
0000
0010
0100
1000
,
0000
0001
0100
0001
1000
0100
0010
0000
,
1001
0000
1100
0000
0101
0000
1000
0010
,
0000
0100
0001
1000
0000
0001
0010
0100
,
0000
0010
0100
1000
0000
0001
0100
0001
,
0000
0000
1000
0000
0100
0000
1000
0000
0001
0100
0001
0100
0000
0010
1000
0010
,
1000
0000
1100
0000
0110
0000
0011
0001
,
1000
0010
0100
0010
0000
1000
0100
0010
,
0000
0100
0010
0001
0000
1000
0001
1000
,
0000
0010
0100
0001
0010
0100
1000
0000
,
1002
0000
2003
0000
3200
0000
0310
0001
,
0010
0100
1000
0001
0000
0100
0010
0100
,
0000
0001
1000
0010
0000
1000
0001
0100
,
0000
0010
0100
0001
1000
0100
0010
0100
,
1000
0000
0001
1000
0000
1000
0100
0000
,
0010
0001
0000
0001
0010
0000
0100
1000
,
0000
1000
0100
0000
0010
0001
0000
0001
,
0100
0000
0010
1000
0000
1000
0001
0000
,
1000
0010
0000
0100
0001
0000
0010
0001
,
0000
0010
0100
0000
1000
0001
0000
0100
,
0001
0000
1000
0010
0000
0100
0010
0000
,
1000
0100
0000
1000
0010
0000
0110
0000
,
0001
1000
0001
1000
0001
0000
0100
0001
,
0100
0001
0100
0000
0010
1000
0010
1000
,
0010
0000
0100
0010
0100
0010
0100
0000
,
0001
1000
0001
1000
0001
0010
0100
1000
,
0001
0100
0001
1000
0001
0000
1000
0100
,
1000
0001
1000
0000
0001
0010
0100
1000
,
0010
0000
1000
0100
0010
0001
0100
0000
,
0010
0100
0010
1000
0001
0010
1000
0010
,
0001
0000
0000
1000
0000
0000
0001
0000
0000
0100
0000
0000
0001
0000
0010
0000
0100
0000
1000
0000
0100
0000
0010
0000
,
0001
0000
1000
0100
0000
0000
1000
0000
0001
0000
0100
0001
0000
0000
0010
0000
,
0001
0000
0100
0010
0000
0000
1000
0000
0001
0000
0100
0000
0001
0000
1000
0000
,
0001
0000
0010
0100
0000
0000
1000
0000
0010
0000
0100
0001
0000
0000
1000
0000
,
0100
0000
0100
1000
0000
0001
0000
0000
0100
0000
0010
0000
1000
0000
0001
0000
,
0010
0000
0001
1000
0000
0000
0100
0000
1000
0000
0010
0100
0000
0000
0001
0000
,
0010
0000
0001
1000
0000
0000
0010
0000
1000
0000
0001
0000
1000
0000
0100
0000
,
0020
0000
0031
1001
,
0001
0000
0100
0000
0000
0010
0000
1000
0000
0001
0000
0000
1000
0000
0010
0000
,
0110
0000
0100
0001
0000
0000
1000
0000
0001
0000
0010
0100
0000
0000
1000
0000
,
0010
0000
0100
0001
0000
0000
1000
0000
0001
0000
0010
0000
0100
0000
1000
0000
,
0001
0000
0100
0010
0000
0000
0100
0000
0001
0000
1000
0100
0000
0000
1000
0000
,
0001
0000
0100
0001
0000
1000
0000
0000
1000
0000
0001
0000
0010
0000
0001
0000
,
0100
0000
0010
0100
0000
0000
0001
0000
0010
0000
0001
1000
0000
0000
0100
0000
,
0010
0000
0100
1000
0000
0000
0001
0000
0100
0000
0010
0000
0100
0000
0001
0000
,
0020
0000
0130
0110
,
2000
0001
0001
3100
,
1001
1000
0010
0100
0001
0100
0010
0100
,
0001
0100
0010
0100
0001
0100
0010
1000
,
0001
1000
0100
1000
0001
1000
0100
1000
,
0001
0000
1000
0000
0100
0000
1000
0000
0010
0000
0100
0001
0100
0000
0010
0000
,
1000
0100
0010
0100
0010
0001
1000
0010
,
0100
0001
0010
0100
1000
0010
0100
0001
,
0010
0001
1000
0100
1000
0010
0001
0010
,
1000
0000
0000
0100
0000
0000
0001
0000
0000
0100
0000
0000
1000
0000
0000
0001
1000
0001
1000
0000
0000
0001
0000
0000
,
1001
0000
0000
0000
;

//---------------dance-single - S-STANDARD----------------
#NOTES:
     dance-single:
     DJ OMiY-SSP:
     Medium:
     6:
     0.434065,0.462098,0.166166,0.261117,0.007913,330.000000,21.000000,33.000000,0.000000,0.000000,0.000000,0.434065,0.462098,0.166166,0.261117,0.007913,330.000000,21.000000,33.000000,0.000000,0.000000,0.000000:
0000
0000
0000
0000
,
0000
0000
0000
0000
,
0000
0000
0000
0000
,
0000
0000
0000
0000
,
1000
0001
1000
0000
0001
0100
0001
0000
,
1000
0010
1000
0000
0001
1000
0001
0000
,
0010
0002
0000
0203
0000
0320
0000
1030
,
1001
0000
0010
0100
,
0101
1000
0000
0001
1000
0001
0000
1000
,
0001
0100
0001
1001
,
1000
0100
0000
0010
0001
1000
0000
0001
,
0100
0010
2000
3200
,
0310
0001
0000
1000
0001
1000
0000
0010
,
0100
0001
1000
0001
,
0010
0100
0000
1000
0100
0010
0000
0100
,
0010
0000
0001
0000
1000
0001
1000
0001
,
0010
0000
0010
0000
0010
0000
0001
0100
,
0000
0100
0000
0100
0000
0010
0000
0010
,
0000
1000
0000
1000
0000
0001
0000
0001
,
0000
0010
0001
0000
1000
0000
0110
0000
,
0001
0000
0010
0000
0100
0000
1000
0001
,
0000
0100
0000
0100
0000
0001
0000
0001
,
0000
0010
0000
0010
0000
0100
0000
0100
,
2000
0000
0000
0000
3001
1000
0001
0010
,
0100
0000
0100
0000
1000
0000
1000
0001
,
0000
0100
0000
0001
0000
1000
0000
0010
,
0000
1000
0000
0100
0000
0010
0000
0001
,
0000
1000
0000
0001
0100
0000
0110
0000
,
0110
0000
0100
0000
0100
0000
0001
1000
,
0000
0001
0000
0001
0000
0010
0000
0010
,
0000
0100
0000
0100
0000
1000
0000
1000
,
0000
0010
0100
0000
0001
0000
1000
0100
,
0020
0001
0031
0002
,
0100
0103
0200
0010
,
0310
0020
1000
1030
,
1000
0000
0001
0000
1000
0100
0010
0001
,
2000
0100
3100
0200
,
0010
0310
0020
0001
,
0031
0002
1000
1003
,
0001
0000
1000
0000
0001
0010
0100
0010
,
0001
0001
0001
0000
1000
0000
0010
0010
,
0010
0000
0010
0000
1000
1000
1000
0000
,
0001
0000
0010
0010
0010
0000
0001
0000
,
1000
0000
0001
0000
1000
0001
1000
0001
,
0010
0010
0010
0000
0001
0000
1000
1000
,
1000
0000
1000
0000
0010
0010
0010
0000
,
0100
0000
0001
0001
0001
0000
1000
0000
,
0001
0000
0010
0000
0100
1000
0100
1000
,
0200
0000
0000
0000
0000
0000
1300
0000
1000
0001
0000
0001
,
0100
0001
1001
0100
,
0110
0000
0100
0000
0001
1000
0001
1000
,
0001
0100
0110
0010
,
1010
0000
0001
0000
1000
0100
1000
0010
,
1000
0001
1001
1000
,
0110
0000
0001
0000
0010
0001
0100
0001
,
0200
0000
0310
1000
,
0002
2000
0000
0000
3003
0000
1010
0000
,
0101
0001
1001
0100
,
1100
0000
1000
0000
0001
0100
0010
1000
,
0001
1000
1100
0100
,
0110
0000
0001
0000
1000
0001
0100
0010
,
0100
0001
0011
0010
,
1100
0000
1000
0000
0001
0010
0001
1000
,
0200
0000
1300
0001
,
0100
0100
0100
0100
,
0010
0000
1000
0001
1000
0000
0001
0000
,
0100
0000
0010
0100
0010
0000
1000
0000
,
0001
0000
1000
0100
1000
0000
0001
0000
,
0010
0000
0001
0100
0001
0000
1000
0000
,
0020
0230
0302
2003
,
3200
0000
0320
0000
0032
0000
1003
0001
,
0200
0320
2030
3002
,
0023
0000
0230
0000
2300
0001
3001
1000
,
0110
0000
0000
0000
;

//---------------dance-single - S-LIGHT----------------
#NOTES:
     dance-single:
     DJ OMiY-LSP:
     Easy:
     4:
     0.296159,0.317693,0.110777,0.245292,0.000000,217.000000,14.000000,31.000000,0.000000,0.000000,0.000000,0.296159,0.317693,0.110777,0.245292,0.000000,217.000000,14.000000,31.000000,0.000000,0.000000,0.000000:
0000
0000
0000
0000
,
0000
0000
0000
0000
,
0000
0000
0000
0000
,
0000
0000
0000
0000
,
1000
0001
0100
0001
,
1000
0100
1000
0001
,
0200
0010
0000
0010
0000
0010
0300
0010
,
0100
0000
0001
1001
,
2000
3001
0200
0310
,
2000
3100
0020
0030
,
0002
0103
0020
1030
,
0002
1003
0200
0300
,
2000
3001
0020
0130
,
2000
3001
0020
0030
,
0002
1003
0200
0310
,
0200
1300
0002
0000
,
1003
1000
1000
0001
,
0000
0100
0000
0010
,
0000
0100
0000
0001
,
0000
1000
0001
1000
,
0010
1000
0001
0010
,
0000
0100
0000
1000
,
0000
0001
0000
1000
,
0000
0010
0100
0110
,
1001
0001
0001
1000
,
0000
0100
0000
0010
,
0000
0001
0000
0100
,
0000
0010
0100
0001
,
1000
1000
1000
0001
,
0000
1000
0000
0100
,
0000
0010
0000
0100
,
0000
0010
0001
1000
,
0002
0100
0000
0000
,
1000
0000
0000
0010
,
0000
0000
1000
0000
,
0000
0103
0020
0000
,
2030
0000
0000
0001
,
0000
0000
0010
0000
,
0000
0100
0000
0000
,
0001
0000
3020
0000
,
0130
0100
0110
0010
,
0010
0110
0100
0100
,
0110
0010
0010
0110
,
1000
0001
1000
0001
,
1000
1000
1100
0001
,
0001
0101
1000
1000
,
1010
0001
0001
0011
,
1000
0001
1000
0001
,
0020
0000
0130
1001
,
0010
1000
0001
0010
,
0100
1000
0002
0000
,
1003
0010
0100
0001
,
2000
0001
3200
0000
,
1300
0010
0100
0001
,
1000
0001
0010
0010
,
0002
0000
0003
0100
,
0001
0001
1000
1100
,
0001
0100
0010
0100
,
0001
1000
0200
0000
,
1300
0001
0010
0100
,
0020
0001
0230
0000
,
1300
0010
0100
0010
,
1000
0001
2000
0000
,
0020
0000
3030
0001
,
0100
0010
1000
0001
,
1000
0000
0001
0000
,
1000
0000
0001
0000
,
0010
0000
0100
0000
,
0010
0000
0100
1000
,
0001
0100
0010
1000
,
0001
0100
0010
1000
,
0001
0010
0100
1000
,
0100
0010
0001
0100
,
1001
0000
0000
0000
;

//---------------dance-single - BEGINNER----------------
#NOTES:
     dance-single:
     DJ OMiY-BEG:
     Beginner:
     1:
     0.101734,0.144406,0.039563,0.094952,0.000000,73.000000,5.000000,12.000000,0.000000,0.000000,0.000000,0.101734,0.144406,0.039563,0.094952,0.000000,73.000000,5.000000,12.000000,0.000000,0.000000,0.000000:
0000
0000
0000
0000
,
0000
0000
0000
0000
,
0000
0000
0000
0000
,
0000
0000
0000
0000
,
0001
0000
0001
0000
,
0001
0000
0001
0000
,
2000
0000
0000
0000
,
3000
0000
0000
0000
,
1001
0000
1000
0000
,
1000
0000
0000
0000
,
0010
0000
0010
0000
,
0010
0000
0000
0000
,
0100
0000
0100
0000
,
0100
0000
0000
0000
,
0001
0000
0001
0000
,
0001
0000
0000
0000
,
0020
0000
0000
0000
,
0000
0000
0030
0000
,
0200
0000
0000
0000
,
0300
0000
1000
0000
,
0002
0000
0000
0000
,
0000
0000
0003
0000
,
2000
0000
0000
0000
,
3000
0000
0001
0000
,
1001
0000
0000
0000
,
0100
0000
0000
0000
,
0010
0000
0000
0000
,
1000
0000
1000
0000
,
1000
0000
0000
0000
,
0010
0000
0000
0000
,
0100
0000
0000
0000
,
0001
0000
0001
0000
,
0200
0000
0000
0000
,
0000
0000
0000
0000
,
0000
0000
0000
0000
,
0300
0000
0010
0000
,
0020
0000
0000
0000
,
0000
0000
0000
0000
,
0000
0000
0000
0000
,
0030
0000
1000
0000
,
0002
0000
0000
0000
,
0000
0000
0000
0000
,
0000
0000
0003
0000
,
0010
0000
0100
0000
,
2000
0000
0000
0000
,
0000
0000
0000
0000
,
0000
0000
0000
0000
,
0000
0000
3000
0000
,
0002
0000
0003
0000
,
1001
0000
1000
0000
,
0001
0000
0000
0000
,
0100
0000
0100
0000
,
0010
0000
0000
0000
,
1000
0000
0001
0000
,
0001
0000
0000
0000
,
0020
0000
0000
0000
,
0030
0000
0000
0000
,
0110
0000
0100
0000
,
0010
0000
0000
0000
,
0100
0000
0100
0000
,
1000
0000
0000
0000
,
0001
0000
1000
0000
,
0001
0000
0000
0000
,
0200
0000
0000
0000
,
0300
0000
0000
0000
,
1001
0000
0000
0000
,
1000
0000
0000
0000
,
0001
0000
0000
0000
,
0010
0000
0100
0000
,
0100
0000
0000
0000
,
1000
0000
0000
0000
,
0010
0000
0000
0000
,
0100
0000
0001
0000
,
0010
0000
0000
0000
;

//---------------dance-double - D-HEAVY----------------
#NOTES:
     dance-double:
     DJ OMiY-HDP:
     Hard:
     8:
     0.582145,0.519861,0.071214,0.221554,0.138471,478.000000,9.000000,28.000000,0.000000,0.000000,0.000000,0.582145,0.519861,0.071214,0.221554,0.138471,478.000000,9.000000,28.000000,0.000000,0.000000,0.000000:
// measure 0
00000000
00000000
00000000
00000000
,  // measure 1
00000000
00000000
00000000
00000000
,  // measure 2
00000000
00000000
00000000
00000000
,  // measure 3
00000000
00000000
00000000
00000000
,  // measure 4
00100000
00001000
00010000
00001000
00000100
00000010
00000100
00000001
,  // measure 5
00000010
00000100
00001000
00000100
00010000
00001000
01000000
00100000
,  // measure 6
10000000
10100000
00000000
01010000
00000000
00101000
00000000
00010100
,  // measure 7
00020000
00000000
00000000
00000000
00030010
00001000
00000001
00001000
,  // measure 8
00000100
00000010
00000000
00000001
00001000
00000100
00000000
00010000
,  // measure 9
00001000
00010000
00000000
00001000
00100000
01000000
00000000
10000000
,  // measure 10
00010000
01000000
00000000
00100000
00010000
00100000
00000000
01000000
,  // measure 11
00001000
00100000
00000000
00001000
00010000
00000100
00001000
00000100
,  // measure 12
00000001
00000100
00000000
00001000
00000001
00000100
00000000
00000010
,  // measure 13
00010000
00000100
00000000
00010000
00001000
01000000
00000000
00010000
,  // measure 14
00100000
01000000
00000000
10000000
00010000
01000000
00000000
00100000
,  // measure 15
10000000
00010000
00000000
00100000
00010000
00001000
00000100
00000010
,  // measure 16
00000012
00000000
00002003
00000000
00003200
00000000
00010300
00001000
,  // measure 17
00010000
01000000
10000000
00010000
00000000
01000000
00100000
01000000
,  // measure 18
00000000
00001000
00100000
00001000
00000000
00010000
00000100
00010000
,  // measure 19
00000000
00001000
00000100
00000010
00000100
00000001
00000010
00000100
,  // measure 20
00002000
00000000
00003200
00000000
00000320
00000000
00000031
00001000
,  // measure 21
00000010
00010000
00001000
00100000
00000000
00010000
00100000
01000000
,  // measure 22
00000000
00100000
01000000
10000000
00000000
00010000
01000000
00010000
,  // measure 23
20000000
00000000
00010000
00000000
30010000
00000000
10000000
00000000
00010000
00100000
00010000
00100000
00000000
01000000
10000000
01000000
,  // measure 24
20000000
00000000
32000000
00000000
03200000
00000000
00310000
00100000
,  // measure 25
00001000
00010000
00000100
00000010
00000001
00000010
00000100
00000010
,  // measure 26
00000100
00001000
00000001
00000100
00000010
00000100
00000001
00001000
,  // measure 27
00000100
00010000
00001000
00100000
00010000
00010000
00010000
00000000
,  // measure 28
20100000
00000000
32000000
00000000
03020000
00000000
00031000
00000100
,  // measure 29
00000001
00001000
00000100
00010000
00001000
00010000
00100000
10000000
,  // measure 30
00010000
10000000
01000000
00010000
00001000
00010000
00001000
00000100
,  // measure 31
00000010
00001000
00000001
00000010
00000100
00000100
00001000
00001000
,  // measure 32
00020000
00000000
00100000
00100000
00000000
10000000
20030000
00000000
,  // measure 33
00100000
00100000
00000000
00010000
30020000
00000000
00100000
00100000
,  // measure 34
00000000
00001000
00032000
00000000
00000100
00000100
00000000
00000001
,  // measure 35
00003002
00000000
00000100
00000100
00000000
00001000
00002003
00000000
,  // measure 36
00000010
00000010
00000000
00000100
00003200
00000000
00001000
00001000
,  // measure 37
00000000
00010000
00020300
00000000
00001000
00001000
00000000
00100000
,  // measure 38
00230000
00000000
00010000
00010000
00000000
10000000
20300000
00000000
,  // measure 39
01000000
01000000
00000000
00010000
30020000
00000000
01000000
01030000
,  // measure 40
00010000
00100000
00010000
10000000
00010000
00000000
00100000
00001000
,  // measure 41
00100000
00001000
00010000
00000000
00000100
00001000
00000100
00001000
,  // measure 42
00000001
00000000
00000010
00000001
00000100
00000001
00000010
00000000
,  // measure 43
00000100
00001000
00000100
00001000
00000010
00010000
00000100
00010000
,  // measure 44
00001000
00100000
00001000
01000000
00010000
00000000
10000000
01000000
,  // measure 45
00100000
00010000
00100000
00000000
00001000
00010000
00001000
00000010
,  // measure 46
00000001
00000000
00001000
00000100
00001000
00010000
00100000
00000000
,  // measure 47
00010000
10000000
00010000
01000000
00100000
10000000
01000000
00010000
,  // measure 48
00001000
00000000
00000000
00000100
00000000
00000000
00000001
00000000
00000000
00000010
00000000
00000000
00000100
00000000
00001000
00000000
00000100
00000000
00001000
00000000
00000001
00000000
00000100
00000000
,  // measure 49
00000001
00000000
00001000
00000100
00000000
00000000
00010000
00000000
00001000
00000000
00100000
00010000
00000000
00000000
01000000
00000000
,  // measure 50
00100000
00000000
01000000
00010000
00000000
00000000
10000000
00000000
01000000
00000000
00100000
00000000
00010000
00000000
00100000
00000000
,  // measure 51
00001000
00000000
00010000
00000100
00000000
00000000
00001000
00000000
00000001
00000000
00000010
00000100
00000000
00000000
00000010
00000000
,  // measure 52
00000001
00000000
00001000
00000100
00000000
00001000
00000000
00000000
00001000
00000000
00000100
00000000
00010000
00000000
00001000
00000000
,  // measure 53
00010000
00000000
00001000
01000000
00000000
00000000
00010000
00000000
10000000
00000000
01000000
00100000
00000000
00000000
00010000
00000000
,  // measure 54
01000000
00000000
00001000
00010000
00000000
00000000
00000100
00000000
00000010
00000000
00000001
00000000
00001000
00000000
00000010
00000000
,  // measure 55
00000200
00000000
00000010
00000301
,  // measure 56
00000101
00000000
00001000
00000000
00000000
00000100
00000000
00010000
00000000
00001000
00000000
00100000
00010000
00000000
01000000
00000000
,  // measure 57
01010000
00000000
00010000
10000000
00000000
00000000
00100000
00000000
10000000
00000000
01000000
00100000
00000000
00000000
00010000
00000000
,  // measure 58
00100000
00000000
00001000
00100000
00000000
00000000
00010000
00000000
00001000
00000000
00000100
00000000
00000001
00000000
00000100
00000000
,  // measure 59
00001000
00000000
00000010
00001000
00000000
00000000
00000001
00000000
00000100
00000000
00000010
00000100
00000000
00000000
00001000
00000000
,  // measure 60
00010000
00000000
00001000
00100000
00000000
00010000
00000000
00000000
00010000
00000000
10000000
00000000
01000000
00000000
00010000
00000000
,  // measure 61
01000000
00000000
10000000
00100000
00000000
00000000
01000000
00000000
00001000
00000000
00010000
00001000
00000000
00000000
00100000
00000000
,  // measure 62
00001000
00000000
00010000
00000100
00000000
00000000
00001000
00000000
00000010
00000000
00010000
00000000
00001000
00000000
00100000
00000000
,  // measure 63
02000000
00000000
00100000
13000000
,  // measure 64
00020000
10000000
01000000
10030000
,  // measure 65
10000000
00010000
00100000
00001000
00010000
01000000
00100000
00001000
,  // measure 66
00010000
01000000
00100000
00001000
01000000
00100000
00010000
00001000
,  // measure 67
00000100
00000010
00010000
00001000
00000100
00000010
00010000
00001000
,  // measure 68
00000100
00000000
00000010
00000000
00010000
00000000
00001000
00000000
00000100
00000000
00000010
00000100
00000010
00000000
00001000
00000000
,  // measure 69
00000001
00000100
00001000
00000100
00000001
00000100
00001000
00000100
,  // measure 70
00000001
00000100
00001000
00000100
00000001
00001000
00010000
10000000
,  // measure 71
00010000
00100000
10000000
00100000
00010000
00100000
10000000
00100000
,  // measure 72
00010000
00000000
00000000
00100000
00000000
00000000
10000000
00000000
00000000
00100000
00000000
00000000
00010000
00000000
00000000
01000000
00010000
01000000
00010000
00000000
00000000
00100000
00000000
00000000
,  // measure 73
00101000
00000000
00000000
00000000
;

//---------------dance-double - D-STANDARD----------------
#NOTES:
     dance-double:
     DJ OMiY-SDP:
     Medium:
     6:
     0.421631,0.462098,0.213641,0.213641,0.000000,319.000000,27.000000,27.000000,0.000000,0.000000,0.000000,0.421631,0.462098,0.213641,0.213641,0.000000,319.000000,27.000000,27.000000,0.000000,0.000000,0.000000:
// measure 0
00000000
00000000
00000000
00000000
,  // measure 1
00000000
00000000
00000000
00000000
,  // measure 2
00000000
00000000
00000000
00000000
,  // measure 3
00000000
00000000
00000000
00000000
,  // measure 4
00001000
00010000
00001000
00000000
00010000
00000100
00010000
00000000
,  // measure 5
00000100
00001000
00000100
00000000
00000010
00000001
00000010
00000000
,  // measure 6
00000001
00000200
00000000
00000320
00000000
00020030
00000000
00032000
,  // measure 7
00020000
00033000
00011000
00011000
,  // measure 8
00001000
00100000
00000000
00010000
10000000
00010000
00000000
10000000
,  // measure 9
00100000
01000000
00010000
10000000
,  // measure 10
01000000
00100000
00000000
00010000
00100000
00010000
00000000
00100000
,  // measure 11
00001000
00010000
00000100
00010000
,  // measure 12
00001000
00010000
00000000
00000100
00001000
00000100
00000000
00001000
,  // measure 13
00000001
00000010
00000100
00001000
,  // measure 14
00000001
00000100
00000000
00000001
00001000
00000001
00000000
00001000
,  // measure 15
00000100
00000000
00010000
00000000
00001000
00010000
00001000
00010000
,  // measure 16
00100000
00000000
01000000
00000000
00100000
00000000
10000000
00010000
,  // measure 17
00000000
01000000
00000000
00010000
00000000
01000000
00000000
00100000
,  // measure 18
00000000
10000000
00000000
00100000
00000000
10000000
00000000
01000000
,  // measure 19
00000000
00100000
00000000
00010000
00100000
00000000
00001000
00000000
,  // measure 20
00011000
00000000
00010000
00000000
00010000
00000000
00000100
00001000
,  // measure 21
00000000
00000001
00000000
00001000
00000000
00000001
00000000
00000100
,  // measure 22
00000000
00000010
00000000
00000100
00000000
00000001
00000000
00001000
,  // measure 23
00000000
00000100
00000000
00001000
00000200
00000000
00010300
00000000
,  // measure 24
00011000
00000000
00010000
00000000
00001000
00000000
00100000
00001000
,  // measure 25
00000000
00100000
00000000
00010000
00000000
10000000
00000000
00100000
,  // measure 26
00000000
01000000
00000000
00010000
00000000
00100000
00000000
00001000
,  // measure 27
00000000
00010000
00000000
00000100
00000010
00000001
00000010
00000000
,  // measure 28
00001001
00000000
00000001
00000000
00000001
00000000
00001000
00000100
,  // measure 29
00000000
00001000
00000000
00001000
00000000
00010000
00000000
00010000
,  // measure 30
00000000
01000000
00000000
01000000
00000000
10000000
00000000
10000000
,  // measure 31
00000000
01000000
00000000
01000000
00100000
01000000
00100000
10000000
,  // measure 32
00010000
00000000
01000000
00000000
00000000
00100000
00000000
00000000
,  // measure 33
10000000
00000000
00000000
01000000
00000000
00000000
00100000
00000000
,  // measure 34
00000000
00001000
00000000
00000000
00010000
00000000
00000000
00000100
,  // measure 35
00000000
00000000
00000010
00000000
00000001
00001000
00000001
00000000
,  // measure 36
00000100
00000000
00000000
00000010
00000000
00000000
00001000
00000000
,  // measure 37
00000000
00000100
00000000
00000000
00010000
00000000
00000000
00001000
,  // measure 38
00000000
00000000
00100000
00000000
00000000
01000000
00000000
00000000
,  // measure 39
00100000
00000000
00010000
00000000
10000000
00010000
10000000
00000000
,  // measure 40
01000000
01000000
01000000
00000000
00100000
00000000
00010000
00010000
,  // measure 41
00010000
00000000
00100000
00000000
00001000
00001000
00001000
00000000
,  // measure 42
00010000
00000000
00000100
00000100
00000100
00000000
00000010
00000000
,  // measure 43
00000001
00000000
00001000
00000000
00000001
00001000
00000001
00000000
,  // measure 44
00000100
00000100
00000100
00000000
00000010
00000000
00001000
00001000
,  // measure 45
00001000
00000000
00000100
00000000
00010000
00010000
00010000
00000000
,  // measure 46
00001000
00000000
00100000
00100000
00100000
00000000
01000000
00000000
,  // measure 47
10000000
10000000
10000000
00000000
00010000
00000000
01000000
00000000
,  // measure 48
02200000
03300000
20020000
30030000
,  // measure 49
00010000
10000000
11000000
00100000
,  // measure 50
00110000
00000000
00100000
00000000
00001000
00010000
00001000
00000000
,  // measure 51
00010000
00000100
00001100
00000010
,  // measure 52
00000101
00000000
00000001
00000000
00001000
00000001
00000010
00000100
,  // measure 53
00001000
00000100
00010100
00010000
,  // measure 54
00101000
00000000
00100000
00000000
00010000
01000000
00010000
10000000
,  // measure 55
20000000
00000000
30010000
01000000
,  // measure 56
00200000
02000000
00000000
00000000
03300000
00000000
01010000
00000000
,  // measure 57
01001000
00001000
00011000
00010000
,  // measure 58
00010100
00000000
00000100
00000000
00001000
00000100
00000010
00000100
,  // measure 59
00001000
00000001
00000101
00001000
,  // measure 60
00001010
00000000
00000010
00000000
00010000
00001000
00010000
00000100
,  // measure 61
00010000
00001000
00101000
00100000
,  // measure 62
10010000
00000000
01000000
00000000
10000000
00100000
01000000
00010000
,  // measure 63
02000000
00000000
03010000
10000000
,  // measure 64
01010000
00110000
00101000
00011000
,  // measure 65
00010100
00000000
00010000
00001000
00010000
00000000
00000100
00010000
,  // measure 66
00000100
00000000
00001000
00000001
00001000
00000000
00000001
00000010
,  // measure 67
00000001
00000000
00000100
00000010
00000100
00000000
00000010
00001000
,  // measure 68
00000010
00000000
00010000
00001000
00010000
00001000
01000000
00000000
,  // measure 69
00020000
00230000
20300000
30200000
,  // measure 70
00320000
00000000
00032000
00000000
00003200
00000000
00000301
00000100
,  // measure 71
00002000
00003200
00020300
00032000
,  // measure 72
02003000
00000000
03200000
00000000
00310000
00100000
01000000
00001000
,  // measure 73
00011000
00000000
00000000
00000000
;

//---------------dance-double - D-LIGHT----------------
#NOTES:
     dance-double:
     DJ OMiY-LDP:
     Easy:
     3:
     0.300680,0.346574,0.118690,0.316506,0.000000,211.000000,15.000000,40.000000,0.000000,0.000000,0.000000,0.300680,0.346574,0.118690,0.316506,0.000000,211.000000,15.000000,40.000000,0.000000,0.000000,0.000000:
// measure 0
00000000
00000000
00000000
00000000
,  // measure 1
00000000
00000000
00000000
00000000
,  // measure 2
00000000
00000000
00000000
00000000
,  // measure 3
00000000
00000000
00000000
00000000
,  // measure 4
00001000
00010000
00001000
00010000
,  // measure 5
00001000
00100000
00001000
00100000
,  // measure 6
00010000
10000000
00000000
10000000
00000000
10000000
00000000
10000000
,  // measure 7
02000000
00000000
00100000
03100000
,  // measure 8
02000000
03100000
00020000
00130000
,  // measure 9
00002000
00013000
00000200
00000300
,  // measure 10
00002000
00003001
00000020
00000130
,  // measure 11
00002000
00003100
00020000
00030000
,  // measure 12
00011000
00000000
00101000
00000000
,  // measure 13
01100000
00000000
11000000
00000000
,  // measure 14
10010000
00000000
00110000
00000000
,  // measure 15
00101000
00000000
00010000
00000100
,  // measure 16
00001000
00000010
00000100
00000001
,  // measure 17
00000000
00000010
00000000
00000100
,  // measure 18
00000000
00001000
00000000
00000100
,  // measure 19
00000000
00010000
00001000
00010000
,  // measure 20
00001000
00100000
00010000
10000000
,  // measure 21
00000000
01000000
00000000
00100000
,  // measure 22
00000000
00001000
00000000
00010000
,  // measure 23
00000000
00000100
00000020
00000032
,  // measure 24
00001003
00001000
00001000
00000100
,  // measure 25
00000000
00010000
00000000
00001000
,  // measure 26
00000000
01000000
00000000
00100000
,  // measure 27
00000000
01000000
00010000
10000000
,  // measure 28
10010000
10000000
10000000
00010000
,  // measure 29
00000000
00100000
00000000
00001000
,  // measure 30
00000000
00010000
00000000
00000100
,  // measure 31
00000000
00000010
00000100
00000010
,  // measure 32
00000002
00001000
00000000
00000000
,  // measure 33
00000010
00000000
00000000
00001000
,  // measure 34
00000000
00000000
00000100
00000000
,  // measure 35
00000003
00000010
00002000
00000000
,  // measure 36
00023000
00000000
00000000
00001000
,  // measure 37
00000000
00000000
00100000
00000000
,  // measure 38
00000000
00001000
00000000
00000000
,  // measure 39
01030000
00000000
00200000
00000000
,  // measure 40
00310000
00010000
00010000
10000000
,  // measure 41
10000000
10000000
01000000
01000000
,  // measure 42
01000000
00100000
00100000
00100000
,  // measure 43
00001000
00001000
00010000
00010000
,  // measure 44
00000100
00000100
00000110
00000010
,  // measure 45
00000010
00000011
00000001
00000001
,  // measure 46
00001001
00001000
00001000
00001100
,  // measure 47
00000100
00000100
00010000
00020000
,  // measure 48
00002000
00033000
00011000
00011000
,  // measure 49
00002000
00013000
00020000
00030100
,  // measure 50
00000200
00001300
00000001
00001000
,  // measure 51
00000002
00000013
00000020
00000130
,  // measure 52
00000200
00001000
00002000
00003300
,  // measure 53
00000200
00010300
00020000
00031000
,  // measure 54
00002000
00103000
01000000
10000000
,  // measure 55
00020000
00000000
00000000
10030000
,  // measure 56
02000000
00000000
03100000
00000000
,  // measure 57
20010000
31000000
02000000
03100000
,  // measure 58
00200000
00301000
00010000
00001000
,  // measure 59
00020000
00030100
00000200
00001300
,  // measure 60
00002000
00003001
00000010
00000001
,  // measure 61
00000200
00000310
00000020
00001030
,  // measure 62
00002000
00003100
00001000
00000100
,  // measure 63
00020000
00000000
00000000
00031000
,  // measure 64
00100000
00000000
00010000
00000000
,  // measure 65
10000000
00000000
01000000
00000000
,  // measure 66
00100000
00000000
00010000
00000000
,  // measure 67
00001000
00000000
00000100
00000000
,  // measure 68
00000010
00000000
00000001
00000000
,  // measure 69
00001000
00000100
00010000
00001000
,  // measure 70
00010000
00000100
00001000
00000100
,  // measure 71
00010000
00000100
00000010
00000001
,  // measure 72
00001000
00000100
00000010
00000002
,  // measure 73
00000013
00000000
00000000
00000000
;
