#VERSION:0.82;
#TITLE:Raison d'être ~交差する宿命~;
#SUBTITLE:;
#ARTIST:Zektbach;
#TITLETRANSLIT:Raison d'être;
#SUBTITLETRANSLIT:~Kousa suru shukumei~;
#ARTISTTRANSLIT:;
#GENRE:Orchestral;
#ORIGIN:;
#CREDIT:;
#BANNER:Raison d'etre ~Kousa suru shukumei~-bn.png;
#BACKGROUND:Raison d'etre ~Kousa suru shukumei~-bg.png;
#PREVIEWVID:;
#JACKET:Raison d'etre ~Kousa suru shukumei~-jk.png;
#CDIMAGE:;
#DISCIMAGE:;
#LYRICSPATH:;
#CDTITLE:;
#MUSIC:Raison d'etre ~Kousa suru shukumei~.mp3;
#OFFSET:-0.040000;
#SAMPLESTART:18.988001;
#SAMPLELENGTH:12.407000;
#SELECTABLE:YES;
#BPMS:0.000=155.000,
81.000=175.000;
#STOPS:;
#DELAYS:;
#WARPS:;
#TIMESIGNATURES:0.000=1=4,
1.000=4=4;
#TICKCOUNTS:0.000=4;
#COMBOS:0.000=1;
#SPEEDS:0.000=1.000=0.000=0;
#SCROLLS:0.000=1.000;
#FAKES:;
#LABELS:0.000=Song Start;
#LASTSECONDHINT:125.680557;
#BGCHANGES:;
#KEYSOUNDS:;
#ATTACKS:
;

//---------------dance-single - S-HEAVY----------------
#NOTEDATA:;
#CHARTNAME:DJ OMiY-HSP;
#STEPSTYPE:dance-single;
#DESCRIPTION:S-HEAVY;
#CHARTSTYLE:;
#DIFFICULTY:Hard;
#METER:9;
#RADARVALUES:0.680434,0.637797,0.500158,0.400126,0.038474,502.000000,65.000000,52.000000,0.000000,0.000000,0.000000,0.000000,0.000000,0.680434,0.637797,0.500158,0.400126,0.038474,502.000000,65.000000,52.000000,0.000000,0.000000,0.000000,0.000000,0.000000;
#CREDIT:DJ OMiY;
#NOTES:
0000
0000
0000
0000
,
0000
0000
0000
0000
,
0000
0000
0000
0000
,
0000
0000
0000
0000
,
0000
0000
1010
0000
0001
1000
0001
0100
,
0000
0001
1001
0000
1000
0100
1000
0010
,
0000
0100
0101
0000
1000
0001
0010
0100
,
0000
1000
1010
0000
0100
0001
1000
0010
,
0000
0100
0101
0001
0001
1000
1000
0200
,
0000
0000
0310
0100
0010
0000
0002
0000
0000
0000
1003
0000
0001
0000
0001
0000
,
1000
0110
1001
1000
1000
0010
0010
0200
,
0000
0000
0301
0100
0001
0000
2000
0000
0000
0000
3100
0000
0100
0000
0010
0000
,
0010
0001
0101
0000
1000
0001
1000
0100
,
1000
0010
0110
0000
0010
1000
0001
0010
,
0100
1000
1100
0000
0010
1000
0001
1000
,
0010
0100
0101
0000
1000
0100
0010
0001
,
0010
0100
1001
0001
0001
0100
0100
0002
,
0000
0000
1003
0001
1000
0000
0200
0000
0000
0000
0310
0000
0010
0000
0100
0000
,
1000
1100
1001
0010
0010
1000
1000
0002
,
0000
0000
0013
0001
0010
0000
0200
0000
0000
0000
1300
0000
1000
0000
0001
0000
,
0001
0000
0210
0000
0302
0000
0000
1003
,
0001
0010
0200
0000
2300
0000
0000
3001
,
1000
0100
0011
0000
1001
0000
1000
0001
,
1000
0010
0100
0000
0101
0000
1000
0001
,
0010
0001
0100
0010
1000
0000
0001
1000
,
0100
0010
0001
0000
1100
0000
0001
0010
,
0100
0010
0001
0000
1001
0000
1000
0010
,
0100
0010
0001
0000
0011
0000
0010
0100
,
0001
1000
0100
0010
0001
0000
1000
0001
,
0100
0001
1000
0000
0110
0000
0001
1000
,
0010
1000
0200
0000
1000
0000
2300
0000
,
3001
1000
0001
0000
2002
0000
0003
0000
,
3010
0210
0001
0302
,
1003
0001
1000
0000
0220
0000
0300
0000
,
1030
1002
1000
0203
,
0310
1000
0001
0000
0202
0000
0300
0000
,
1003
2001
0010
3002
,
0013
0001
0200
0000
0000
0000
0020
0000
,
0330
0000
1001
0000
1100
0000
0010
0001
,
0010
0100
1100
0000
0101
0000
1000
0010
,
0100
0001
1001
0000
0110
0000
0001
1000
,
0100
1000
1010
0000
1100
0000
0010
0100
,
1000
0001
0101
0000
0110
0000
0001
1000
,
0010
1000
1001
0000
0101
0000
0010
0100
,
1000
0100
0110
0000
0011
0000
1000
0001
,
1000
0100
1100
0000
1001
0000
0001
1000
,
0001
0010
2002
0000
0000
0000
3000
0000
,
0200
0303
2010
0001
,
3001
0210
0010
0001
,
1000
0301
1002
0103
,
0000
2010
0000
0000
,
0002
3003
0012
0100
,
1003
2100
0000
3001
,
1000
0100
1002
0200
,
0303
0000
1000
0100
0010
0100
1000
0001
,
0100
0010
1000
0001
0010
0001
0010
1000
,
0010
0001
0100
0010
1000
0001
0100
0001
,
1000
0100
1000
0001
0010
0100
0010
0001
,
0010
0000
0110
0100
1000
0001
0100
0010
,
0100
0001
1000
0100
1000
0001
0010
1000
,
0010
0001
0100
0010
0100
1000
0100
0001
,
1000
0100
1000
0001
1000
0001
0010
0001
,
1000
0001
1000
0001
1000
0000
0000
0000
0200
0000
0000
0000
0010
0000
0000
0000
,
0320
0001
0032
0100
,
0203
1000
0302
0100
,
0023
1000
0230
0001
,
1300
0000
1001
0000
1000
0100
0010
0000
,
0001
0000
1001
0000
0001
0010
0100
0000
,
1000
0000
0001
0100
0101
0000
1000
0100
,
1100
0000
0000
0000
0001
0000
0100
0000
0001
1000
0001
1000
0010
0000
1000
0000
,
0010
0100
0001
0100
0010
0000
1000
0000
0001
0000
1000
0000
0010
0000
1000
0000
,
0001
1000
0100
0010
0100
1000
0001
0010
,
0100
0010
0001
0100
0010
0100
0001
0100
,
0010
0100
1000
0100
0010
0100
0001
1000
,
0100
0010
0001
1000
0200
0000
1300
0010
,
0200
0000
0301
0010
0001
1000
0100
0010
,
0002
0103
0101
1000
,
1100
0011
1010
0101
,
0110
2001
0000
0200
,
3300
0000
1001
1000
0100
0001
0100
1000
,
0010
1000
0001
0100
1000
0100
0001
1000
,
0001
0010
0100
0010
0001
0010
1000
0001
,
0100
1000
0010
1000
0001
0010
0100
0010
,
1000
0010
0001
1000
0100
1000
0010
0100
,
1000
0100
0001
1000
0100
0001
0100
1000
,
0010
0100
0001
0100
0010
1000
0100
0010
,
0100
0001
0100
0010
0001
0100
1000
0100
,
0001
0100
0010
0000
0000
0000
0000
0000
;

//---------------dance-single - D-CHALLENGE----------------
#NOTEDATA:;
#CHARTNAME:DJ OMiY-CSP;
#STEPSTYPE:dance-single;
#DESCRIPTION:D-CHALLENGE;
#CHARTSTYLE:;
#DIFFICULTY:Challenge;
#METER:10;
#RADARVALUES:0.796955,0.805639,0.438600,0.369347,0.327026,620.000000,57.000000,48.000000,0.000000,0.000000,0.000000,0.000000,0.000000,0.796955,0.805639,0.438600,0.369347,0.327026,620.000000,57.000000,48.000000,0.000000,0.000000,0.000000,0.000000,0.000000;
#CREDIT:DJ OMiY;
#NOTES:
0000
0000
0000
0000
,
0000
0000
0000
0000
,
0000
0000
0000
0000
,
0000
0000
0000
0000
,
0000
0000
0000
0000
1001
0000
0000
0100
0001
1000
0001
0100
0001
0000
1000
0000
,
0000
0000
0000
0000
1010
0000
0000
0010
1000
0001
1000
0010
1000
0000
0001
0000
,
0000
0000
0000
0000
0110
0000
0000
0001
0010
0001
1000
0010
1000
0000
0001
0000
,
0000
0000
0000
0000
0101
0000
0000
1000
0100
1000
0001
0100
0001
0000
1000
0000
,
0000
0000
0000
0000
1001
0000
0001
0100
0001
0000
1000
0010
1000
0000
0002
0000
,
0010
0000
0013
0001
1000
0000
0010
0000
1000
0000
0001
0010
0100
1000
0100
0010
,
0001
0000
1000
0000
1001
0000
1000
0100
1000
0000
0001
0010
0001
0000
0200
0000
,
0001
0000
0301
1000
0010
0000
1000
0000
0100
0000
1000
0001
0010
0001
0100
0001
,
1000
0000
0100
0000
1100
0000
0000
1000
0100
0000
1000
0000
0001
0000
0000
0010
,
0001
0000
0100
0000
0110
0000
0000
0010
1000
0000
0001
0000
0100
0000
0000
0001
,
1000
0000
0001
0000
0101
0000
0000
1000
0010
0000
0100
0000
0001
0000
0000
0010
,
0100
0000
0010
0000
0011
0000
0000
0001
1000
0000
0100
0000
0010
0000
0000
0100
,
1000
0000
0001
0000
1001
0000
0001
0010
0001
0000
1000
0100
1000
0000
0020
0000
,
0100
0000
0130
0010
1000
0000
0001
0000
0010
0000
0001
1000
0001
1000
0010
0100
,
0010
0000
1000
0000
1001
0000
1000
0010
1000
0000
0001
0100
0001
0000
2000
0000
,
0100
0000
3100
0010
0001
0000
0010
0000
0100
0000
1000
0100
1000
0010
0100
0001
,
0010
0001
0200
0000
0020
0300
0000
1030
,
0100
0010
0002
0000
2000
0003
0000
3001
,
0010
0100
1000
0010
1000
0100
0010
0001
,
0100
0010
0100
0001
0010
0100
1000
0100
,
0010
0001
0100
0001
1000
0010
1000
0100
,
0010
0001
0100
0010
0100
0001
0010
0100
,
0010
0001
0100
0010
1000
0001
0010
0100
,
0010
0001
1000
0100
0001
0100
1000
0010
,
0100
0001
0100
0010
1000
0001
0010
0001
,
1000
0010
1000
0100
0010
0100
0010
0001
,
1000
0010
0100
0000
0000
0000
0001
0000
,
0000
0000
0000
1000
0100
1000
0100
0000
0000
0000
0000
0000
1100
0000
0000
0000
0000
0000
0000
0000
0000
0000
0000
0000
,
0100
0110
0000
0001
,
0000
0000
0000
0010
0001
0010
0001
0000
0000
0000
0000
0000
1001
0000
0000
0000
0000
0000
0000
0000
0000
0000
0000
0000
,
0001
0101
0000
0010
,
0000
0000
0000
1000
0010
1000
0010
0000
0000
0000
0000
0000
0110
0000
0000
0000
0000
0000
0000
0000
0000
0000
0000
0000
,
0010
1010
0000
1000
,
0000
0000
0000
0001
1000
0001
1000
0000
0000
0000
0000
0000
2002
0000
0000
0000
0000
0000
0000
0000
0000
0000
0000
0000
,
3003
0000
0000
0000
0001
0000
1000
0000
0010
1000
0001
0000
1000
0000
0001
0000
,
0010
0001
0100
0000
0010
0000
1000
0000
0001
0010
0100
0000
1000
0000
0010
0000
,
1000
0100
0010
0000
0100
0000
0010
0000
0001
0100
0010
0000
1000
0000
0001
0000
,
1000
0100
0010
0000
0100
0000
1000
0000
0001
1000
0010
0000
0100
0000
0001
0000
,
1000
0000
0100
0000
1100
0000
1000
0000
0001
1000
0100
0000
0010
0000
0100
0000
,
1000
0001
0010
0000
0001
0000
1000
0000
0100
1000
0001
0000
0010
0000
0001
0000
,
1000
0010
0100
0000
0001
0000
1000
0000
0001
1000
0100
0000
1000
0000
0100
0000
,
0010
0001
1000
0000
0001
0000
0100
0000
0001
0010
0100
0000
0010
0000
0001
0000
,
1000
0100
2100
0000
3002
0000
0203
0000
,
0320
1030
1200
0320
,
0031
2001
3020
0032
,
0023
0130
0120
2030
,
3001
0201
0302
0023
,
0230
1300
1200
0320
,
0130
0012
2003
3020
,
2030
3001
1020
0230
,
0301
0000
1001
0001
0101
0000
1000
0100
,
1000
0010
0100
0001
0010
0100
1000
0100
,
1000
0001
0100
0110
0110
0000
1000
0100
,
1000
0001
0100
0001
1000
0100
0010
0001
,
1000
0000
0001
0100
0001
0000
1000
0000
1100
0000
0000
0000
0100
0000
0110
0000
,
0001
0010
0001
1000
0010
1000
0001
0010
,
0100
0010
0001
1001
1001
0000
1000
0001
,
0100
0000
0010
0000
1000
0000
0100
0000
0010
0000
0001
0000
1000
0100
1000
0100
,
0010
0001
0010
0001
0100
0000
0010
0000
2000
0000
0000
0000
3001
0000
0100
0000
,
0002
0000
0013
0001
0200
0000
0310
1000
,
0020
0000
1030
0001
0200
0000
0310
1000
,
0020
0000
0130
0001
2000
0000
3010
0100
,
0001
0011
0200
2300
,
3001
0100
0110
0000
0002
0000
0023
0000
,
0130
0000
1100
1000
1001
0000
0101
0001
,
1001
0000
0000
0000
1001
0000
1000
0000
0010
0100
0001
0010
0001
0000
0200
0000
,
0301
1000
0010
1000
0001
0000
0010
0000
0110
0000
0100
0000
1000
0000
0100
0000
,
1100
1000
0001
0100
0110
0010
0100
0001
,
0011
0010
0100
1000
1100
0100
1000
0001
,
0101
0100
0010
1000
1001
0001
0100
0010
,
1010
1000
0001
0010
0001
0100
0010
1000
,
0100
0010
0100
1000
0001
0100
0001
1000
,
0010
0100
0101
0000
1010
0000
0101
0000
,
0011
0000
1100
1000
0100
0010
0001
1000
,
0010
0100
0020
0000
0000
0000
0200
0000
,
0330
0000
1001
0001
0100
1000
0100
0010
,
1000
0100
0010
0100
0001
0100
1000
0001
,
0100
1000
0100
0010
0100
0001
0010
0100
,
0010
0001
1000
0100
0001
1000
0010
0001
,
0100
0000
0010
0000
0100
0000
0001
1000
0001
0000
1000
0000
0010
0000
1000
0100
,
1000
0000
0001
0000
0100
0000
0001
0010
0001
0000
1000
0000
0010
0000
1000
0001
,
1000
0000
0010
0000
0100
0000
0001
0010
0100
0000
1000
0000
0010
0000
1000
0001
,
0100
0000
0001
0000
1000
0000
0001
0100
0010
0000
1000
0000
0001
0000
1000
0100
,
0010
0100
1000
0001
0100
0000
0000
0000
0000
0000
0000
0000
0000
0000
0000
0000
;

//---------------dance-single - S-STANDARD----------------
#NOTEDATA:;
#CHARTNAME:DJ OMiY-SSP;
#STEPSTYPE:dance-single;
#DESCRIPTION:S-STANDARD;
#CHARTSTYLE:;
#DIFFICULTY:Medium;
#METER:7;
#RADARVALUES:0.521043,0.503524,0.453989,0.346263,0.000000,370.000000,59.000000,45.000000,0.000000,0.000000,0.000000,0.000000,0.000000,0.521043,0.503524,0.453989,0.346263,0.000000,370.000000,59.000000,45.000000,0.000000,0.000000,0.000000,0.000000,0.000000;
#CREDIT:DJ OMiY;
#NOTES:
0000
0000
0000
0000
,
0000
0000
0000
0000
,
0000
0000
0000
0000
,
0000
0000
0000
0000
,
0000
0000
1001
0000
0100
1000
0001
0100
,
0000
0000
0110
0000
0100
0001
1000
0001
,
0000
0000
0110
0000
0001
1000
0100
0010
,
0000
0000
1100
0000
0001
1000
0010
1000
,
0000
0000
1001
0001
0001
1000
1000
0100
,
0000
1000
0001
1000
0000
0001
0100
0000
,
0010
0100
0110
0010
0010
1000
1000
0001
,
0000
0010
0001
0010
0000
0100
2000
0000
,
3001
0101
1000
0100
,
1000
1010
0100
0001
,
0010
0110
0001
0010
,
0001
0101
1000
0100
,
0010
0000
1001
0001
0001
1000
1000
0100
,
0000
1000
0001
1000
0000
1000
0100
0000
,
0010
0001
0011
0010
0010
0001
0001
1000
,
0000
0010
0100
0010
0000
1000
0002
0000
,
0103
0000
0110
0000
0100
0000
0000
0001
,
1000
0000
0001
0000
0010
0000
0000
0100
,
1000
0001
0011
1000
,
1010
0001
0110
1000
,
0001
0010
0100
0000
1100
0000
0000
1000
,
0001
0100
0001
0000
0011
0000
0000
0001
,
1000
0100
1000
0000
1010
0000
0100
0000
,
0110
0001
0011
1000
,
0001
0100
0001
0000
0011
0000
0000
1000
,
0010
0100
0010
0000
1001
0000
0000
0001
,
0010
0100
2000
0000
0000
0000
3001
0000
,
0000
1000
0100
0000
0110
0000
0000
0000
,
0010
0200
0000
0320
,
0000
0031
1000
0000
1001
0000
0000
0000
,
0001
0101
0000
0100
,
0000
0010
1000
0000
1100
0000
0000
0000
,
1000
0001
0000
0100
,
0000
0010
2000
0000
0200
0000
0000
0000
,
3300
0000
1001
0000
0001
0000
1000
0010
,
0100
0001
0010
0000
0001
0000
0100
0010
,
1000
0100
0010
0000
0001
0000
0100
0001
,
0010
0100
1000
0000
0100
0000
0010
0001
,
1000
0001
0200
0000
0010
0000
0310
1000
,
0001
0000
0020
0000
0001
0000
0031
1000
,
0100
0000
2000
0000
0001
0000
3001
1000
,
0100
0000
0020
0000
0100
0000
0130
0010
,
0001
1000
2002
0000
0000
0000
0000
0000
,
0000
3003
0022
0000
,
0033
2020
0000
0000
,
0000
3030
0202
0000
,
0303
0220
0000
0000
,
0000
0330
2200
0000
,
3300
2020
0000
0000
,
0000
3030
2001
0200
,
3300
0000
1001
0000
1001
0000
1000
0100
,
0000
1000
0000
0001
0000
0100
0000
0010
,
0000
1000
0000
0001
0100
0000
0001
1000
,
0000
0100
0000
0001
0000
0100
0000
1000
,
0000
0001
0100
0000
0101
0000
1000
0010
,
0000
0100
0000
0010
0000
1000
0000
0001
,
0000
0010
0000
0001
1000
0000
0100
0010
,
0000
0110
0000
1100
0000
1001
0000
1000
,
0001
0100
0002
0000
0013
0000
0200
0000
,
1300
0020
0130
0002
,
1003
2000
3010
0200
,
0301
0020
0130
0020
,
0031
1001
0002
0203
,
0310
1010
2000
3200
,
0310
0000
0001
0100
1000
0000
1000
0100
,
0001
0000
0010
0000
0001
1000
0100
0010
,
0001
0100
0001
0000
0101
0000
1000
0000
,
1100
0000
0010
0000
0110
0000
0001
0010
,
1000
0010
0001
0000
0101
0000
0001
0000
,
1100
0010
0110
1001
,
0110
0001
1000
0100
,
0010
0000
0001
1000
0001
0000
0100
0010
,
0100
0002
0023
0230
,
2300
3010
1010
0101
,
1001
0002
0000
0200
,
0303
0000
1010
0000
1000
0001
0000
0100
,
0001
0000
1001
0000
0001
0100
0000
0010
,
1000
0000
0110
0000
0001
0010
0000
0100
,
1000
0000
1001
0000
1000
0100
0000
0010
,
0001
0000
0100
0010
1000
0001
0000
1000
,
0001
0100
0010
1000
0010
0100
0000
0001
,
1000
0001
0100
0001
1000
0100
0000
0010
,
0100
1000
0100
0001
0100
1000
0000
0001
,
0010
0100
0010
0000
0000
0000
0000
0000
;

//---------------dance-single - S-LIGHT----------------
#NOTEDATA:;
#CHARTNAME:DJ OMiY-LSP;
#STEPSTYPE:dance-single;
#DESCRIPTION:S-LIGHT;
#CHARTSTYLE:;
#DIFFICULTY:Easy;
#METER:4;
#RADARVALUES:0.367149,0.402819,0.253926,0.323179,0.000000,259.000000,33.000000,42.000000,0.000000,0.000000,0.000000,0.000000,0.000000,0.367149,0.402819,0.253926,0.323179,0.000000,259.000000,33.000000,42.000000,0.000000,0.000000,0.000000,0.000000,0.000000;
#CREDIT:DJ OMiY;
#NOTES:
0000
0000
0000
0000
,
0000
0000
0000
0000
,
0000
0000
0000
0000
,
0000
0000
0000
0000
,
0000
2010
0000
0001
,
3000
0102
0000
0010
,
0003
1200
0000
0001
,
0300
0021
0000
1000
,
0030
0001
1000
0100
,
0000
1000
0000
0010
,
0100
0110
0001
1000
,
0000
0100
0000
0010
,
0001
1000
0100
1000
,
0010
0100
0001
0100
,
0010
1000
0001
1000
,
0001
0010
0001
0010
,
0100
1001
0010
0010
,
0000
1000
0000
0100
,
0010
0011
0001
1000
,
0000
0010
0000
1000
,
0001
0200
0010
0000
,
0301
2000
0100
0000
,
3010
1000
0001
0100
,
0010
0100
0001
0010
,
0100
1000
0100
0000
,
1000
0001
0100
0000
,
0010
0100
0001
0010
,
0100
0010
0001
1000
,
0010
1000
0100
0000
,
1000
0001
0100
0000
,
0010
0200
0000
0001
,
0300
1001
1001
0000
,
0001
0020
0000
0100
,
0030
1100
1100
0000
,
1000
0200
0000
0010
,
0300
0011
0011
0000
,
0001
0200
0000
0310
,
0000
2020
0000
0000
,
3030
1001
1000
0100
,
0010
1001
0100
0010
,
1000
0001
0001
1000
,
0100
0020
0031
0002
,
1003
1001
0001
0100
,
0010
2000
3100
0010
,
0002
0203
0310
0100
,
0001
2002
0000
0000
,
3003
0210
0000
0000
,
0000
0000
0302
0000
,
0000
0023
0000
0000
,
0000
0000
2030
0000
,
0000
3020
0000
0000
,
0000
0000
0032
0000
,
0000
2003
0000
0000
,
0000
0000
3200
0000
,
0300
0110
0010
0001
,
1000
0010
0100
0010
,
1000
0001
1000
0100
,
0010
0001
1000
0002
,
0100
2003
3100
0010
,
0100
1000
0001
0010
,
0100
0020
0031
0100
,
0001
1000
0100
0010
,
0001
2000
0001
0000
,
0100
0000
0010
0000
,
3002
0000
0100
0000
,
0010
0000
1000
0000
,
0103
0101
0001
0001
,
0000
1001
1000
1000
,
0000
1100
0100
0110
,
0010
0001
1000
0001
,
0100
0010
2000
3100
,
0020
0130
0020
0031
,
2000
3001
0200
0310
,
0020
1030
0002
1003
,
0020
0130
0010
1000
,
0001
0010
0001
1000
,
0010
0100
0100
0010
,
0010
1000
0100
0010
,
0001
2000
0000
0002
,
3003
1001
0001
0100
,
0010
0110
0010
1000
,
0001
1001
1000
0100
,
0010
0110
0100
1000
,
0001
0101
0100
0001
,
0010
0011
0010
0100
,
1000
1010
1000
0001
,
1000
1100
0100
0010
,
0001
0110
0000
0000
;

//---------------dance-single - BEGINNER----------------
#NOTEDATA:;
#CHARTNAME:DJ OMiY-BEG;
#STEPSTYPE:dance-single;
#DESCRIPTION:BEGINNER;
#CHARTSTYLE:;
#DIFFICULTY:Beginner;
#METER:2;
#RADARVALUES:0.181376,0.270085,0.153895,0.330874,0.000000,102.000000,20.000000,43.000000,0.000000,0.000000,0.000000,0.000000,0.000000,0.181376,0.270085,0.153895,0.330874,0.000000,102.000000,20.000000,43.000000,0.000000,0.000000,0.000000,0.000000,0.000000;
#CREDIT:DJ OMiY;
#NOTES:
0000
0000
0000
0000
,
0000
0000
0000
0000
,
0000
0000
0000
0000
,
0000
0000
0000
0000
,
0000
0002
0000
0003
,
0000
0020
0000
0030
,
0000
0200
0000
0300
,
0000
2000
0000
3000
,
0000
1001
0000
0000
,
0000
0000
0000
0000
,
0110
0110
0000
0000
,
0000
0000
0000
0000
,
0000
2000
0000
3000
,
0000
0200
0000
0300
,
0000
0020
0000
0030
,
0000
0002
0000
0003
,
0000
1001
0000
0000
,
0000
0000
0000
0000
,
0110
0110
0000
0000
,
0000
0000
0000
0000
,
0000
2002
0000
0000
,
0000
0000
0000
3003
,
0000
0100
0100
0000
,
0000
0001
0000
1000
,
0000
0010
0020
0000
,
0000
0030
0000
0000
,
0000
1000
1000
0000
,
0000
0100
0000
1000
,
0000
0001
0002
0000
,
0000
0003
0000
0000
,
0000
2002
0000
3003
,
0000
0220
0000
0330
,
0000
1000
0000
0001
,
0000
1000
0000
0000
,
0000
0220
0000
0330
,
0000
2002
0000
3003
,
0000
0002
0000
0003
,
0000
0200
0000
0300
,
0000
0110
0000
0000
,
1000
1000
0000
0000
,
0001
0001
0000
1000
,
0000
0010
0000
0000
,
0100
0200
0000
0000
,
0000
0300
0000
0010
,
0000
2000
0000
3000
,
0000
0002
0000
0003
,
0000
2000
3000
0000
,
0000
0000
0200
0300
,
0000
0020
0030
0000
,
0000
0000
0002
0003
,
0000
2000
3000
0000
,
0000
0000
0002
0003
,
0000
0020
0030
0000
,
0000
0000
0200
0300
,
0000
1000
1000
0000
,
0000
0010
0000
0100
,
0000
0002
0000
0003
,
0000
1000
0000
0000
,
0000
0100
0100
0000
,
0000
0010
0000
0001
,
0000
2000
0000
3000
,
0000
0020
0000
0030
,
0000
0000
0100
0000
,
0100
0000
0100
0000
,
0100
0000
0001
0000
,
0001
0000
0001
0000
,
0001
0002
0000
0003
,
0000
2000
0000
3000
,
0000
0010
0000
0010
,
0000
0200
0000
0300
,
0000
0000
1000
0000
,
0001
0000
1000
0000
,
0000
0000
0010
0000
,
0100
0000
0010
0000
,
0000
2000
0000
3000
,
0000
0200
0000
0300
,
0000
0010
0000
0001
,
0000
0010
0000
0002
,
0000
0003
0000
0000
,
0000
1001
0000
0000
,
0000
0110
0000
0000
,
0000
1001
0000
0000
,
0000
0110
0000
0000
,
0000
1100
0000
0000
,
0000
0101
0000
0000
,
0000
1100
0000
0000
,
0000
0101
0000
0000
,
0000
2000
0000
3000
;

//---------------dance-double - D-CHALLENGE----------------
#NOTEDATA:;
#CHARTNAME:DJ OMiY-CDP;
#STEPSTYPE:dance-double;
#DESCRIPTION:D-CHALLENGE;
#CHARTSTYLE:;
#DIFFICULTY:Challenge;
#METER:10;
#RADARVALUES:0.774970,0.805639,0.407821,0.200063,0.350110,626.000000,53.000000,26.000000,0.000000,0.000000,0.000000,0.000000,0.000000,0.774970,0.805639,0.407821,0.200063,0.350110,626.000000,53.000000,26.000000,0.000000,0.000000,0.000000,0.000000,0.000000;
#CREDIT:DJ OMiY;
#NOTES:
// measure 0
00000000
00000000
00000000
00000000
,  // measure 1
00000000
00000000
00000000
00000000
,  // measure 2
00000000
00000000
00000000
00000000
,  // measure 3
00000000
00000000
00000000
00000000
,  // measure 4
00000000
00000000
00000000
00000000
10010000
00000000
00000000
00010000
01000000
00010000
10000000
00010000
01000000
00000000
00010000
00000000
,  // measure 5
00000000
00000000
00000000
00000000
00110000
00000000
00000000
00001000
00100000
00001000
00010000
00001000
00100000
00000000
00001000
00000000
,  // measure 6
00000000
00000000
00000000
00000000
00010100
00000000
00000000
00010000
00001000
00010000
00000100
00010000
00001000
00000000
00010000
00000000
,  // measure 7
00000000
00000000
00000000
00000000
00001100
00000000
00000000
00000010
00000100
00000010
00000100
00001000
00000001
00000000
00000100
00000000
,  // measure 8
00000000
00000000
00000000
00000000
00000110
00000000
00000001
00000010
00000100
00000000
00001000
00000100
00000010
00000000
00000001
00000000
,  // measure 9
00001000
00000000
00000100
00001000
00000100
00000000
00010000
00000000
00001000
00000000
00100000
00010000
01000000
00010000
01000000
00100000
,  // measure 10
10000000
00000000
11000000
00000000
10010000
00000000
00010000
00100000
00010000
00000000
00100000
00001000
00100000
00000000
00001000
00000000
,  // measure 11
00010000
00000000
00000100
00010000
00000100
00000000
00001000
00000000
00000010
00000000
00000100
00000001
00000010
00000100
00001000
00000100
,  // measure 12
00000010
00000000
00000001
00000000
00001001
00000000
00000000
00001000
00000100
00000000
00001000
00000000
00000010
00000000
00000000
00000100
,  // measure 13
00000001
00000000
00000010
00000000
00000100
00000000
00000000
00001000
00000100
00000000
00010000
00000000
00001000
00000000
00000000
01000000
,  // measure 14
00010000
00000000
01000000
00000000
00100000
00000000
00000000
10000000
00010000
00000000
00100000
00000000
01000000
00000000
00000000
10000000
,  // measure 15
01000000
00000000
10000000
00000000
00010000
00000000
00000000
00100000
00001000
00000000
00010000
00000000
00001000
00000000
00000000
00000100
,  // measure 16
00000010
00000000
00000100
00000000
00000101
00000000
00001000
00000100
00001000
00000000
00000010
00000100
00000010
00000000
00001000
00000000
,  // measure 17
00000001
00000000
00000010
00000100
00001000
00000000
00000100
00000000
00010000
00000000
00001000
00100000
00001000
00010000
00001000
01000000
,  // measure 18
00010000
00000000
00110000
00000000
10010000
00000000
10000000
00010000
00100000
00000000
00001000
00010000
00001000
00000000
00010000
00000000
,  // measure 19
00000100
00000000
00001000
00000100
00000010
00000000
00000001
00000000
00000100
00000000
00000010
00001000
00000001
00000100
00000001
00001000
,  // measure 20
00000100
00010000
00012000
00000000
00100000
00000000
00013000
00000100
,  // measure 21
00010000
00001000
02000000
00000000
00100000
00000000
03010000
10000000
,  // measure 22
01000000
00100000
00010000
10000000
00010000
01000000
00100000
01000000
,  // measure 23
00001000
00010000
00000100
00000010
00000001
00000100
00001000
00000100
,  // measure 24
00000010
00001000
00000100
00010000
00001000
00100000
00001000
00010000
,  // measure 25
01000000
10000000
00100000
01000000
00010000
10000000
01000000
00100000
,  // measure 26
00001000
00010000
00000100
00010000
00001000
00000010
00000001
00000100
,  // measure 27
00000010
00001000
00000100
00000010
00000100
00001000
00000100
00010000
,  // measure 28
00001000
00100000
01000000
10000000
00010000
01000000
00100000
01000000
,  // measure 29
10000000
01000000
00010000
10000000
01000000
00010000
01000000
00100000
,  // measure 30
00001000
00010000
00010100
00000000
00000000
00000000
00000100
00000000
,  // measure 31
00000000
00000000
00000000
00001000
00000010
00001000
00000010
00000000
00000000
00000000
00000000
00000000
00001010
00000000
00000000
00000000
00000000
00000000
00000000
00000000
00000000
00000000
00000000
00000000
,  // measure 32
00000001
00000011
00000000
00001000
,  // measure 33
00000000
00000000
00000000
00000010
00000100
00000010
00000100
00000000
00000000
00000000
00000000
00000000
00001010
00000000
00000000
00000000
00000000
00000000
00000000
00000000
00000000
00000000
00000000
00000000
,  // measure 34
00000100
00010100
00000000
00001000
,  // measure 35
00000000
00000000
00000000
00100000
00010000
00100000
00010000
00000000
00000000
00000000
00000000
00000000
01010000
00000000
00000000
00000000
00000000
00000000
00000000
00000000
00000000
00000000
00000000
00000000
,  // measure 36
00100000
10100000
00000000
00010000
,  // measure 37
00000000
00000000
00000000
10000000
01000000
10000000
02000000
00000000
00000000
00000000
00000000
00000000
20000000
00000000
00000000
00000000
00000000
00000000
00000000
00000000
00000000
00000000
00000000
00000000
,  // measure 38
33000000
00000000
00000000
00000000
10010000
00000000
10000000
00000000
00010000
00100000
01000000
00000000
10000000
00000000
00010000
00000000
,  // measure 39
00100000
00010000
10000000
00000000
00010000
00000000
00100000
00000000
00001000
00010000
00001000
00000000
00000100
00000000
00000010
00000000
,  // measure 40
00001000
00000001
00000010
00000000
00000001
00000000
00001000
00000000
00000100
00010000
00000010
00000000
00001000
00000000
00000100
00000000
,  // measure 41
00010000
00001000
00100000
00000000
00010000
00000000
01000000
00000000
00100000
10000000
01000000
00000000
00100000
00000000
00010000
00000000
,  // measure 42
01000000
00001000
00010000
00000000
00001000
00000000
00000100
00000000
00000010
00000100
00000001
00000000
00000010
00000000
00000100
00000000
,  // measure 43
00001000
00000100
00010000
00000000
00001000
00000000
00100000
00000000
00010000
00100000
01000000
00000000
10000000
00000000
00010000
00000000
,  // measure 44
10000000
00100000
01000000
00000000
00001000
00000000
00010000
00000000
00000100
00000010
00000001
00000000
00001000
00000000
00000100
00000000
,  // measure 45
00010000
00000100
00001000
00000000
00000100
00000000
00010000
00000000
00001000
00000000
00100000
00000000
00001000
00010000
00001000
00010000
,  // measure 46
00000100
00001000
00000010
00000200
00000001
00000000
00000000
00000000
00000000
00000000
00000000
00000000
00000000
00000000
00000000
00000000
,  // measure 47
00000010
00000300
00002010
00000001
,  // measure 48
00003001
00000102
00000010
00001000
,  // measure 49
00000100
00001003
00002100
00000100
,  // measure 50
00013000
00021000
00000000
00000000
,  // measure 51
00100000
10030000
20100000
00010000
,  // measure 52
31000000
01020000
00100000
10000000
,  // measure 53
00100000
01030000
20100000
00010000
,  // measure 54
31000000
00000000
10010000
00010000
01000000
00100000
10000000
11000000
,  // measure 55
01000000
00100000
00010000
00100000
00001000
00010000
00001000
00000100
,  // measure 56
00000010
00000100
00000001
00000101
00000101
00000100
00000010
00001000
,  // measure 57
00000100
00010000
00001000
00101000
00100000
00010000
10000000
01000000
,  // measure 58
00100000
00000000
00010000
10000000
01000000
00000000
10000000
00000000
10010000
00000000
00100000
00000000
10000000
00000000
01000000
00000000
,  // measure 59
00100000
00010000
00100000
00001000
00010000
00000100
00010000
00000010
,  // measure 60
00000100
00001000
00000100
00000110
00000110
00000010
00001000
00000001
,  // measure 61
00000010
00000000
00000100
00000000
00001000
00000100
00001000
00000000
00000100
00010000
00000100
00000000
00010000
00001000
00100000
00010000
,  // measure 62
01000000
00010000
10000000
00010000
01000000
00000000
00100000
00000000
20000000
00000000
00000000
00000000
31000000
00000000
00100000
00000000
,  // measure 63
00020000
00000000
00130000
00001000
00020000
00000000
00030100
00001000
,  // measure 64
00000020
00000000
00000130
00000001
00002000
00000000
00003100
00000010
,  // measure 65
00000002
00000000
00000103
00000001
00000020
00000000
00000130
00010000
,  // measure 66
00001000
00011000
00200000
02300000
,  // measure 67
13000000
10010000
20000000
30200000
,  // measure 68
00310000
00000000
00011000
00001000
00000100
00000000
00000101
00000001
,  // measure 69
00000010
00000000
00000000
00000000
00000110
00000000
00000100
00000000
00001000
00000100
00010000
00001000
00010000
00000000
00002000
00000000
,  // measure 70
00103000
00010000
10000000
00010000
00100000
00000000
00001000
00000000
00011000
00000000
00010000
00000000
00000100
00000000
00000010
00000000
,  // measure 71
00000110
00000100
00000010
00000001
00000101
00000100
00000010
00010000
,  // measure 72
00010100
00000100
00010000
00001000
00101000
00100000
01000000
10000000
,  // measure 73
11000000
01000000
00100000
00010000
01010000
01000000
00100000
01000000
,  // measure 74
01001000
00001000
00010000
00001000
00010000
00000100
00001000
00000010
,  // measure 75
00000100
00000001
00000010
00001000
00000010
00000001
00000100
00000010
,  // measure 76
00001000
00000100
00010100
00000000
00101000
00000000
00011000
00000000
,  // measure 77
01001000
00000000
00010000
10000000
01000000
00100000
00010000
00001000
,  // measure 78
00000100
00000010
00000002
00000000
00000000
00000000
00002000
00000000
,  // measure 79
00003003
00000000
00000101
00000001
00001000
00000100
00010000
00001000
,  // measure 80
00100000
01000000
10000000
01000000
00010000
01000000
00100000
00010000
,  // measure 81
00001000
00000100
00010000
00000100
00000010
00000001
00000100
00001000
,  // measure 82
00000100
00000010
00001000
00000100
00010000
00001000
01000000
00010000
,  // measure 83
10000000
00000000
01000000
00000000
00100000
00000000
00010000
10000000
00010000
00000000
00100000
00000000
00001000
00000000
00010000
00000100
,  // measure 84
00010000
00000000
00001000
00000000
00000100
00000000
00000010
00000100
00000010
00000000
00000001
00000000
00001000
00000000
00000001
00000010
,  // measure 85
00000001
00000000
00001000
00000000
00000100
00000000
00010000
00001000
00100000
00000000
00010000
00000000
01000000
00000000
00100000
10000000
,  // measure 86
00010000
00000000
00100000
00000000
00001000
00000000
00010000
00000100
00001000
00000000
00000010
00000000
00000100
00000000
00000001
00001000
,  // measure 87
00000100
00001000
00000100
00010000
00000100
00000000
00000000
00000000
00000000
00000000
00000000
00000000
00000000
00000000
00000000
00000000
;

//---------------dance-double - D-HEAVY----------------
#NOTEDATA:;
#CHARTNAME:DJ OMiY-HDP;
#STEPSTYPE:dance-double;
#DESCRIPTION:D-HEAVY;
#CHARTSTYLE:;
#DIFFICULTY:Hard;
#METER:9;
#RADARVALUES:0.672740,0.671366,0.453989,0.315484,0.076947,512.000000,59.000000,41.000000,0.000000,0.000000,0.000000,0.000000,0.000000,0.672740,0.671366,0.453989,0.315484,0.076947,512.000000,59.000000,41.000000,0.000000,0.000000,0.000000,0.000000,0.000000;
#CREDIT:DJ OMiY;
#NOTES:
// measure 0
00000000
00000000
00000000
00000000
,  // measure 1
00000000
00000000
00000000
00000000
,  // measure 2
00000000
00000000
00000000
00000000
,  // measure 3
00000000
00000000
00000000
00000000
,  // measure 4
00000000
00000000
00011000
00000000
00001000
00100000
01000000
10000000
,  // measure 5
00000000
00010000
01010000
00000000
10000000
00010000
00100000
00001000
,  // measure 6
00000000
00010000
00010100
00000000
00000010
00000001
00000100
00001000
,  // measure 7
00000000
00000100
00000110
00000000
00000010
00010000
00001000
00010000
,  // measure 8
00000000
00100000
01100000
01000000
01000000
00010000
00010000
20000000
,  // measure 9
00000000
00000000
31000000
10000000
01000000
00000000
00100000
00000000
00010000
00000000
00100000
00000000
00001000
00000000
00010000
00000000
,  // measure 10
00000100
00001100
00001001
00000001
00000001
00000100
00000100
00000020
,  // measure 11
00000000
00000000
00001030
00000001
00001000
00000000
00000100
00000000
00010000
00000000
00000100
00000000
00010000
00000000
00001000
00000000
,  // measure 12
01000000
00100000
01100000
00000000
01000000
00010000
10000000
00010000
,  // measure 13
00000000
01000000
01010000
00010000
00100000
00001000
00010000
00000100
,  // measure 14
00000000
00001000
00001001
00000001
00000010
00000100
00001000
00000100
,  // measure 15
00000000
00010000
00010100
00000100
00010000
00001000
00010000
00100000
,  // measure 16
00000000
01000000
01100000
00100000
00100000
10000000
10000000
00020000
,  // measure 17
00000000
00000000
00130000
00001000
00100000
00000000
00010000
00000000
00001000
00000000
00000100
00000000
00000010
00000000
00000100
00000000
,  // measure 18
00001000
00001001
00000101
00000100
00000100
00000010
00000010
00002000
,  // measure 19
00000000
00000000
00003100
00010000
00000100
00000000
00001000
00000000
00010000
00000000
00100000
00000000
00010000
00000000
10000000
00000000
,  // measure 20
01000000
00100000
00120000
00000000
02000000
00030000
00000000
03001000
,  // measure 21
00010000
00001000
00000200
00000000
00000020
00000300
00000000
00001030
,  // measure 22
00000001
00000010
00000110
00000000
00001100
00000000
00000100
00010000
,  // measure 23
00001000
00100000
00010000
00000000
10010000
00000000
01000000
00010000
,  // measure 24
10000000
01000000
00100000
01000000
10000000
00000000
00010000
00100000
,  // measure 25
00001000
00010000
00000010
00000000
00001010
00000000
00000001
00000010
,  // measure 26
00001000
00000010
00000001
00000000
00001001
00000000
00000010
00010000
,  // measure 27
00001000
00100000
00010000
00000000
00110000
00000000
01000000
10000000
,  // measure 28
00010000
00100000
00001000
00010000
00001000
00000000
00010000
00000100
,  // measure 29
00000010
00000001
00001000
00000000
00001010
00000000
00000010
00000100
,  // measure 30
00000001
00000010
00000210
00000000
00000000
00000000
00020000
00000300
,  // measure 31
00000000
00031000
00101000
00000000
00110000
00000000
00000000
00000000
,  // measure 32
00010000
00000000
20100000
00000000
00000000
00000000
00020000
30000000
,  // measure 33
00000000
00130000
00101000
00000000
00011000
00000000
00000100
00000000
,  // measure 34
00001000
00000000
00002010
00000000
00000000
00000000
00000200
00003000
,  // measure 35
00000000
00000310
00000001
00000000
00001001
00000000
00000100
00000000
,  // measure 36
00000010
00002010
00000000
00020000
,  // measure 37
00003000
02000000
00000000
03030000
,  // measure 38
00100000
00000000
10010000
00000000
10000000
00000000
00010000
00100000
,  // measure 39
00001000
00010000
00001000
00000000
00000100
00000000
00000010
00001000
,  // measure 40
00000001
00000010
00000110
00000000
00000100
00000000
00010000
00001000
,  // measure 41
00100000
00001000
01000000
00000000
00100000
00000000
10000000
00010000
,  // measure 42
00100000
00010000
01010000
00000000
10000000
00000000
01000000
00100000
,  // measure 43
00001000
00010000
00000100
00000000
00000010
00000000
00000100
00001000
,  // measure 44
00000001
00000100
00000110
00000000
00000001
00000000
00001000
00000100
,  // measure 45
00010000
00000100
00000020
00000000
00000001
00000000
00000130
00001000
,  // measure 46
00000100
00010000
00012000
00000000
00000000
00000000
00000000
00000000
,  // measure 47
00200000
00303000
02020000
00000000
,  // measure 48
03030000
20010000
00000000
00100000
,  // measure 49
00010000
31000000
02100000
00100000
,  // measure 50
03010000
00012000
00000000
00000100
,  // measure 51
00003100
00000010
00001020
00000001
,  // measure 52
00000130
00001002
00000010
00000100
,  // measure 53
00001000
00001003
00020100
00001000
,  // measure 54
00030100
00000000
00011000
00001000
00100000
00010000
10000000
01000000
,  // measure 55
00100000
01000000
10000000
00010000
00100000
00001000
00010000
00001000
,  // measure 56
00000100
00001000
00010000
00001000
00000010
00000001
00001000
00000100
,  // measure 57
00010000
00001000
01000000
00100000
01000000
00010000
10000000
01000000
,  // measure 58
00100000
00000000
00110000
00010000
10000000
00010000
00100000
00001000
,  // measure 59
00010000
00000100
00000010
00000001
00001000
00000100
00010000
00001000
,  // measure 60
00010000
00100000
10000000
00010000
10000000
01000000
00100000
00010000
,  // measure 61
00100000
00000000
00001000
00000000
00010000
00000000
00000100
00000000
00000010
00000000
00000001
00000000
00000010
00000100
00000010
00000100
,  // measure 62
00001000
00000100
00001000
00000100
00010000
00000000
00000000
00000000
00002000
00000000
00000000
00000000
00103000
00000000
00000000
00000000
,  // measure 63
00020000
10030000
02000000
03100000
,  // measure 64
00020000
00130000
00200000
00301000
,  // measure 65
00020000
00030100
00000020
00000031
,  // measure 66
00000010
00000110
00000200
00020300
,  // measure 67
00031000
00011000
00020000
00230000
,  // measure 68
01300000
00000000
00100000
10000000
10100000
00000000
01000000
00001000
,  // measure 69
01001000
00000000
00000000
00000000
00001000
00000000
00010000
00000000
00000100
00001000
00000100
00010000
00000100
00000000
00001000
00000000
,  // measure 70
00000001
00000100
00000001
00001000
00000100
00000000
00000010
00000000
00000001
00000000
00000100
00000000
00000010
00000000
00001000
00000000
,  // measure 71
00000100
00010000
00000100
00001000
00010000
00100000
00010000
01000000
,  // measure 72
00100000
10000000
01000000
00010000
01000000
10000000
00100000
01000000
,  // measure 73
00010000
01000000
00100000
00010000
00100000
01000000
00001000
00010000
,  // measure 74
00000010
00000100
00000001
00000010
00000001
00001000
00000100
00001000
,  // measure 75
00000010
00000100
00000010
00010000
00001000
00010000
00001000
00100000
,  // measure 76
00001000
01000000
01100000
00000000
10100000
00000000
01010000
00000000
,  // measure 77
00110000
00101000
00010100
00001010
,  // measure 78
00000110
00000102
00000000
00000020
,  // measure 79
00000033
00000000
00000110
00000100
00001000
00000100
00010000
00001000
,  // measure 80
01000000
00100000
01000000
10000000
01000000
00010000
00100000
00001000
,  // measure 81
00010000
00000100
00000001
00000100
00001000
00000010
00000100
00000001
,  // measure 82
00001000
00000010
00010000
00001000
00100000
01000000
00010000
01000000
,  // measure 83
10000000
00000000
00100000
00000000
01000000
00000000
00010000
00000000
10000000
00010000
10000000
00000000
01000000
00000000
00100000
00000000
,  // measure 84
00010000
00100000
00010000
00000000
01000000
00000000
00001000
00000000
00010000
00001000
00010000
00000000
00000100
00000000
00000010
00000000
,  // measure 85
00000001
00001000
00000001
00000000
00000010
00000000
00000100
00000000
00010000
00000100
00010000
00000000
00001000
00000000
00100000
00000000
,  // measure 86
00010000
01000000
00010000
00000000
10000000
00000000
01000000
00000000
00100000
00010000
00100000
00000000
01000000
00000000
10000000
00000000
,  // measure 87
00010000
01000000
00010000
00000000
10000000
00000000
00000000
00000000
00000000
00000000
00000000
00000000
00000000
00000000
00000000
00000000
;

//---------------dance-double - D-STANDARD----------------
#NOTEDATA:;
#CHARTNAME:DJ OMiY-SDP;
#STEPSTYPE:dance-double;
#DESCRIPTION:D-STANDARD;
#CHARTSTYLE:;
#DIFFICULTY:Medium;
#METER:7;
#RADARVALUES:0.539731,0.503524,0.530937,0.361653,0.000000,375.000000,69.000000,47.000000,0.000000,0.000000,0.000000,0.000000,0.000000,0.539731,0.503524,0.530937,0.361653,0.000000,375.000000,69.000000,47.000000,0.000000,0.000000,0.000000,0.000000,0.000000;
#CREDIT:DJ OMiY;
#NOTES:
// measure 0
00000000
00000000
00000000
00000000
,  // measure 1
00000000
00000000
00000000
00000000
,  // measure 2
00000000
00000000
00000000
00000000
,  // measure 3
00000000
00000000
00000000
00000000
,  // measure 4
00000000
00000000
00011000
00000000
00001000
00100000
00001000
00010000
,  // measure 5
00000000
00000000
00010100
00000000
00000100
00001000
00000001
00000010
,  // measure 6
00000000
00000000
00001001
00000000
00000001
00001000
00000100
00010000
,  // measure 7
00000000
00000000
00011000
00000000
00001000
00100000
00010000
10000000
,  // measure 8
00000000
00000000
10010000
00010000
00010000
10000000
10000000
01000000
,  // measure 9
00000000
00100000
00001000
00100000
00000000
00001000
00010000
00000000
,  // measure 10
00000100
00001000
00001100
00000100
00000100
00000010
00000010
00000001
,  // measure 11
00000000
00000100
00000001
00000100
00000000
00000010
00002000
00000000
,  // measure 12
00003001
00000000
00000101
00000000
00001000
00000100
00001000
00000000
,  // measure 13
00010000
00000000
00110000
00000000
00100000
00010000
10000000
00000000
,  // measure 14
00100000
00000000
01100000
00000000
00010000
10000000
00010000
00000000
,  // measure 15
10000000
00000000
11000000
00000000
00100000
00010000
01000000
00000000
,  // measure 16
00001000
00000000
00011000
00010000
00010000
00001000
00001000
00000100
,  // measure 17
00000000
00000010
00000100
00000010
00000000
00001000
00000001
00000000
,  // measure 18
00000010
00000001
00000011
00000001
00000001
00001000
00001000
00000100
,  // measure 19
00000000
00010000
00001000
00010000
00000000
00001000
00200000
00000000
,  // measure 20
00310000
00000000
10010000
00000000
10000000
00000000
00000000
00010000
,  // measure 21
01000000
00000000
00010000
00000000
00100000
00000000
00000000
00010000
,  // measure 22
00001000
00000100
00000110
00000010
,  // measure 23
00000011
00001000
00001010
00000010
,  // measure 24
00010000
00001000
00100000
00000000
00110000
00000000
00010000
00000000
,  // measure 25
10010000
01000000
11000000
00100000
,  // measure 26
01000000
00100000
00010000
00000000
00110000
00000000
00100000
00000000
,  // measure 27
00101000
00010000
00010100
00001000
,  // measure 28
00000001
00000010
00000001
00000000
00000101
00000000
00000010
00000000
,  // measure 29
00001010
00000001
00000011
00001000
,  // measure 30
00000100
00010000
00012000
00000000
00000000
00000000
00200000
00003000
,  // measure 31
00000000
00310000
10000000
00000000
10010000
00000000
00000000
00000000
,  // measure 32
10000000
00000000
12000000
00000000
00000000
00000000
00200000
03000000
,  // measure 33
00000000
00310000
01000000
00000000
01001000
00000000
00000000
00000000
,  // measure 34
00010000
00000000
00012000
00000000
00000000
00000000
00000200
00003000
,  // measure 35
00000000
00000310
00000100
00000000
00000101
00000000
00000000
00000000
,  // measure 36
00000010
00000000
00000012
00000000
00000000
00000000
00002000
00000003
,  // measure 37
00000000
00003100
00010000
00000000
00020100
00000000
00002000
00000000
,  // measure 38
00033000
00001000
00101000
00100000
,  // measure 39
00110000
00010000
10010000
10000000
,  // measure 40
01100000
00000000
01000000
00010000
10000000
00000000
01000000
00100000
,  // measure 41
00010000
00000000
00100000
00001000
00010000
00000100
00001000
00000000
,  // measure 42
00000001
00000100
00000110
00001000
,  // measure 43
00000101
00000000
00000001
00000000
00000011
00000000
00000010
00000100
,  // measure 44
00001000
00000100
00010000
00000000
00011000
00000000
00001000
00000000
,  // measure 45
00101000
00120000
10000000
01000000
,  // measure 46
10030000
01000000
02200000
00000000
00000000
00000000
00000000
00000000
,  // measure 47
00000000
03300000
00220000
00000000
,  // measure 48
00330000
00022000
00000000
00000000
,  // measure 49
00000000
00033000
00002200
00000000
,  // measure 50
00003300
00000022
00000000
00000000
,  // measure 51
00000000
00000033
00000202
00000000
,  // measure 52
00000303
00002020
00000000
00000000
,  // measure 53
00000000
00003030
00022000
00000000
,  // measure 54
00033000
00000000
00110000
00010000
01000000
00000000
00100000
10000000
,  // measure 55
00000000
00010000
01000000
00010000
00000000
10000000
01000000
10000000
,  // measure 56
00000000
00100000
01000000
00000000
01010000
00000000
00010000
00100000
,  // measure 57
00000000
00001000
00000000
00010000
00000000
00000100
00001000
00000001
,  // measure 58
00000100
00000000
00000110
00000000
00001001
00000000
00000010
00000001
,  // measure 59
00000000
00001000
00000100
00001000
00000000
00000100
00010000
00000100
,  // measure 60
00000000
00010000
00000000
00001000
01000000
00000000
00100000
01000000
,  // measure 61
00000000
00010000
10000000
01000000
00100000
00010000
00100000
01000000
,  // measure 62
10000000
00010000
02000000
00000000
00100000
00000000
03020000
00000000
,  // measure 63
10000000
00230000
00001000
00320000
,  // measure 64
00001000
00030200
00000010
00000302
,  // measure 65
00001000
00000203
00001000
00000320
,  // measure 66
00010000
00001030
00000020
00002030
,  // measure 67
00003100
00010100
00020000
00032000
,  // measure 68
00103000
00000000
01000000
10000000
00100000
00000000
01000000
00010000
,  // measure 69
00100000
00000000
00001000
00010000
00000100
00001000
00000001
00000000
,  // measure 70
00000110
00000001
00000011
00000100
,  // measure 71
00001100
00000000
00000100
00000000
00010100
00000000
00010000
00001000
,  // measure 72
00100000
00010000
01010000
10000000
,  // measure 73
11000000
00100000
01100000
10010000
,  // measure 74
01100000
00000000
00010000
10000000
01000000
00000000
00100000
00010000
,  // measure 75
01000000
00000000
00001000
00010000
00001000
00000000
00010000
00000100
,  // measure 76
00001000
00000020
00000230
00000302
,  // measure 77
00000023
00000130
00001100
00010100
,  // measure 78
00011000
00102000
00000000
00020000
,  // measure 79
00033000
00000000
00001000
00000000
00010000
00000100
00000000
00001000
,  // measure 80
00000001
00000000
00000010
00000000
00000100
00001000
00000000
00000001
,  // measure 81
00000100
00000000
00000010
00000000
00010000
00000100
00000000
00010000
,  // measure 82
00001000
00000000
00100000
00000000
00010000
01000000
00000000
00100000
,  // measure 83
10000000
00000000
00010000
10000000
00010000
00100000
00000000
00001000
,  // measure 84
00100000
00010000
00100000
00001000
00010000
00000100
00000000
00001000
,  // measure 85
00000001
00000010
00000100
00000010
00000001
00001000
00000000
00000100
,  // measure 86
00010000
00001000
00100000
00010000
01000000
00010000
00000000
00100000
,  // measure 87
00001000
00010000
00000100
00000000
00000000
00000000
00000000
00000000
;

//---------------dance-double - D-LIGHT----------------
#NOTEDATA:;
#CHARTNAME:DJ OMiY-LDP;
#STEPSTYPE:dance-double;
#DESCRIPTION:D-LIGHT;
#CHARTSTYLE:;
#DIFFICULTY:Easy;
#METER:5;
#RADARVALUES:0.401225,0.503524,0.407821,0.246232,0.000000,280.000000,53.000000,32.000000,0.000000,0.000000,0.000000,0.000000,0.000000,0.401225,0.503524,0.407821,0.246232,0.000000,280.000000,53.000000,32.000000,0.000000,0.000000,0.000000,0.000000,0.000000;
#CREDIT:DJ OMiY;
#NOTES:
// measure 0
00000000
00000000
00000000
00000000
,  // measure 1
00000000
00000000
00000000
00000000
,  // measure 2
00000000
00000000
00000000
00000000
,  // measure 3
00000000
00000000
00000000
00000000
,  // measure 4
00000000
00011000
00000000
00100000
,  // measure 5
00010000
00110000
00000000
00010000
,  // measure 6
10000000
11000000
00000000
10000000
,  // measure 7
00010000
00110000
00000000
00100000
,  // measure 8
00001000
00000000
00011000
00000000
00010000
00000000
00000100
00001000
,  // measure 9
00000000
00000100
00000010
00000001
,  // measure 10
00001000
00000001
00001000
00000000
00000010
00000000
00000100
00000001
,  // measure 11
00000000
00000010
00000100
00001000
,  // measure 12
00000100
00011000
00001000
00001000
,  // measure 13
00100000
00110000
00010000
10000000
,  // measure 14
01000000
01100000
00100000
00010000
,  // measure 15
00100000
00101000
00001000
00010000
,  // measure 16
00000100
00000000
00001000
00000000
00000001
00000100
00000001
00000000
,  // measure 17
00001000
00000010
00001000
00000100
,  // measure 18
00010000
00001000
00010000
00000000
00001000
00000000
00100000
00001000
,  // measure 19
00000000
00100000
00010000
01000000
,  // measure 20
00100000
01100000
01000000
00000000
,  // measure 21
00010000
00100000
00001000
00000000
,  // measure 22
00010000
00011000
00010000
00000100
,  // measure 23
00000010
00000001
00000100
00000010
,  // measure 24
00001000
00000001
00000020
00000000
,  // measure 25
00000130
00001000
00000100
00000000
,  // measure 26
00010000
00001000
01000000
00100000
,  // measure 27
01000000
00010000
10000000
01000000
,  // measure 28
00100000
00001000
00020000
00000000
,  // measure 29
00030100
00001000
00000001
00000000
,  // measure 30
00000010
00000011
00000000
00000001
,  // measure 31
00000000
00001100
00001100
00000000
,  // measure 32
00010000
00011000
00000000
00001000
,  // measure 33
00000000
01001000
01001000
00000000
,  // measure 34
01000000
01100000
00000000
00100000
,  // measure 35
00000000
10010000
10010000
00000000
,  // measure 36
00000000
10000000
00000000
01000000
,  // measure 37
00000000
01100000
20020000
00000000
,  // measure 38
30030000
10000000
01000000
00010000
,  // measure 39
01000000
00100000
00001000
00010000
,  // measure 40
00000100
00001000
00000010
00000001
,  // measure 41
00000010
00001000
00000001
00000100
,  // measure 42
00000010
00002010
00003001
00000010
,  // measure 43
00000100
00001000
00000100
00010000
,  // measure 44
00001000
00010000
00100000
10000000
,  // measure 45
01000000
00010000
00001000
00000100
,  // measure 46
00000001
00002001
00000000
00000000
,  // measure 47
00000000
00000000
00003200
00000000
,  // measure 48
00000000
00020300
00000000
00000000
,  // measure 49
00000000
00000000
00230000
00000000
,  // measure 50
00000000
02300000
00000000
00000000
,  // measure 51
00000000
00000000
03020000
00000000
,  // measure 52
00000000
20030000
00000000
00000000
,  // measure 53
00000000
00000000
32000000
00000000
,  // measure 54
00000000
03010000
00011000
00001000
,  // measure 55
00000100
00000010
00000100
00000001
,  // measure 56
00001000
00000100
00000001
00000100
,  // measure 57
00001000
00000100
00010000
00001000
,  // measure 58
01000000
00100000
01000000
00010000
,  // measure 59
10000000
01000000
00010000
10000000
,  // measure 60
00100000
00010000
00001000
00000100
,  // measure 61
00000001
00001000
00000010
00000001
,  // measure 62
00000100
00000010
00000100
00000000
00000110
00000000
00000000
00000000
,  // measure 63
00001010
00000000
00001100
00000000
,  // measure 64
00010100
00000000
00011000
00000000
,  // measure 65
00101000
00000000
01001000
00000000
,  // measure 66
01010000
01100000
20000000
30020000
,  // measure 67
00130000
00101000
00002000
00023000
,  // measure 68
00030100
00001100
00000001
00000101
,  // measure 69
00001000
00000000
00000010
00000000
00000100
00000000
00000001
00001000
,  // measure 70
00000001
00000010
00000110
00000100
,  // measure 71
00001100
00000100
00010100
00010000
,  // measure 72
00001000
00100000
00110000
00010000
,  // measure 73
01010000
10000000
01000000
00100000
,  // measure 74
00010000
20000000
32000000
23000000
,  // measure 75
30020000
00230000
00302000
00023000
,  // measure 76
00030200
00000320
00000032
00000203
,  // measure 77
00002300
00003200
00000310
00001001
,  // measure 78
00000110
00002002
00000000
00000000
,  // measure 79
00003003
00001001
00000100
00000010
,  // measure 80
00001000
00001100
00000100
00010000
,  // measure 81
00001000
00101000
00001000
01000000
,  // measure 82
00100000
10010000
10000000
01000000
,  // measure 83
00100000
01010000
00010000
10000000
,  // measure 84
00010000
00110000
00100000
00001000
,  // measure 85
00010000
00010100
00000100
00001000
,  // measure 86
00000001
00000011
00000010
00000100
,  // measure 87
00000010
00000001
00000000
00000000
;
