#VERSION:0.82;
#TITLE:Poochie;
#SUBTITLE:;
#ARTIST:kors k;
#TITLETRANSLIT:;
#SUBTITLETRANSLIT:;
#ARTISTTRANSLIT:;
#GENRE:Moombahcore;
#ORIGIN:;
#CREDIT:;
#BANNER:Poochie-bn.png;
#BACKGROUND:Poochie-bg.png;
#PREVIEWVID:;
#JACKET:Poochie-jk.png;
#CDIMAGE:;
#DISCIMAGE:;
#LYRICSPATH:;
#CDTITLE:PROJECT OBSIDIAN-cdtitle.png;
#MUSIC:Poochie.ogg;
#OFFSET:-0.549000;
#SAMPLESTART:61.639912;
#SAMPLELENGTH:17.454540;
#SELECTABLE:YES;
#BPMS:0.000=110.000,
32.000=220.000,
64.000=110.000,
176.000=220.000;
#STOPS:;
#DELAYS:;
#WARPS:;
#TIMESIGNATURES:0.000=4=4;
#TICKCOUNTS:0.000=4;
#COMBOS:0.000=1;
#SPEEDS:0.000=1.000=0.000=0;
#SCROLLS:0.000=1.000,
60.000=0.900,
60.500=0.800,
61.000=0.700,
61.500=0.600,
62.000=0.500,
62.250=0.400,
62.500=0.300,
62.667=0.200,
62.833=0.100,
63.000=0.000,
63.500=1.000,
176.000=0.500,
177.000=0.525,
178.000=0.550,
179.000=0.575,
180.000=0.600,
181.000=0.625,
182.000=0.650,
183.000=0.675,
184.000=0.700,
185.000=0.725,
186.000=0.750,
187.000=0.775,
188.000=0.800,
189.000=0.825,
190.000=0.850,
191.000=0.875,
192.000=0.900,
193.000=0.925,
194.000=0.950,
195.000=0.975,
196.000=1.000,
197.000=1.050,
198.000=1.100,
199.000=1.150,
200.000=1.200,
201.000=1.250,
202.000=1.300,
203.000=1.350,
204.000=1.300,
204.333=1.200,
204.667=1.100,
205.000=1.000,
205.167=0.900,
205.333=0.800,
205.500=0.700,
205.667=0.600,
205.833=0.500,
206.000=0.400,
206.167=0.300,
206.333=0.200,
206.500=0.100,
206.667=0.050,
206.833=0.033,
207.000=0.000,
207.500=1.500,
208.000=1.000;
#FAKES:;
#LABELS:0.000=Song Start;
#BGCHANGES:;
#KEYSOUNDS:;
#ATTACKS:
;

//---------------dance-single - S-HEAVY----------------
#NOTEDATA:;
#CHARTNAME:HEAVY-HSP;
#STEPSTYPE:dance-single;
#DESCRIPTION:S-HEAVY;
#CHARTSTYLE:;
#DIFFICULTY:Hard;
#METER:10;
#RADARVALUES:0.778004,1.000000,0.561360,0.477575,0.661902,526.000000,67.000000,57.000000,0.000000,0.000000,0.000000,0.000000,0.000000,0.778004,1.000000,0.561360,0.477575,0.661902,526.000000,67.000000,57.000000,0.000000,0.000000,0.000000,0.000000,0.000000;
#CREDIT:DJ OMiY;
#DISPLAYBPM:*;
#NOTES:
0000
0000
0000
0000
,
0000
0000
0000
0000
,
0000
0000
0000
0000
,
0000
0000
0000
0000
,
1000
0001
1000
0001
,
0100
0001
0100
0001
,
1000
0000
0000
0010
0000
0001
0000
0000
1000
0000
0000
0100
0000
0001
0000
0000
,
1000
0000
0000
0001
0100
0000
0001
0000
1001
0000
0100
0010
0110
0000
1001
0000
,
1000
0010
0100
0000
0001
0010
0100
0000
,
0010
0001
0100
0000
0010
1000
0100
0000
,
1000
0100
0010
0000
0001
0010
0100
0000
,
1000
0010
0001
0000
0001
0010
1000
0000
,
0001
0100
0010
0100
0001
0100
0010
0100
,
0001
1000
0100
1000
0001
1000
0100
1000
,
0010
0000
0100
0000
0010
0000
0100
0000
0010
0100
0010
0100
0010
0100
0010
0100
,
0002
0000
0000
1003
,
0001
0000
0010
0000
0000
0100
2000
0000
0000
3002
0000
0000
0013
0000
0100
1000
0000
0100
0010
0100
1000
0001
0000
0100
,
0001
0000
1000
0000
0000
0100
0020
0000
0000
0032
0000
0000
0103
0000
0100
0001
0000
0001
2000
0000
0000
0000
0000
0000
,
3001
0000
0000
0000
0001
1000
0100
0010
0002
0000
0000
0000
0000
0000
0000
0000
1003
0000
0000
0000
1000
0001
0010
0100
2000
0000
0000
0000
0000
0000
0000
0000
,
3020
0000
0000
0130
0000
0100
0002
0000
0000
0203
0000
0000
0310
0000
0010
1000
0000
1000
0001
0000
0001
0100
0000
0000
,
0101
0000
1000
0000
0000
1000
0020
0000
0000
2030
0000
0000
3001
0010
0001
0020
0000
0030
0100
0000
0000
0010
0000
0010
,
0001
0000
1000
0000
0000
1000
0200
0000
0000
2300
0000
0000
3001
0010
0100
1000
0100
0010
0002
0000
0000
0103
0000
0100
,
0001
0000
0000
0000
0000
0000
0000
0000
0000
0000
0000
0000
0000
0000
0000
0000
0000
0000
0000
0000
0000
0000
0000
0000
0001
0000
0000
0000
0000
0000
1000
0000
0000
0000
0000
0000
0100
0000
0000
0000
0000
0000
0010
0000
0000
0000
0000
0000
0002
0000
0000
0000
0000
0000
0000
0000
0000
0000
0000
0000
0000
0000
0000
0000
0000
0000
0000
0000
0000
0000
0000
0000
0000
0000
0000
0000
0000
0000
0000
0000
0000
0000
0000
0000
0000
0000
0000
0000
0000
0000
0000
0000
0000
0000
0000
0000
0013
0000
0000
0000
0000
0000
0000
0000
0000
0000
0000
0000
0000
0000
0000
0000
0001
0000
0000
0000
0000
0000
0000
0000
0001
0000
0000
0000
0000
0000
0000
0000
0000
0000
0000
0000
0000
0000
0000
0000
1000
0000
0000
0000
0000
0000
0000
0000
2000
0000
0000
0000
0000
0000
0000
0000
0000
0000
0000
0000
0000
0000
0000
0000
0000
0000
0000
0000
0000
0000
0000
0000
0000
0000
0000
0000
0000
0000
0000
0000
0000
0000
0000
0000
0000
0000
0000
0000
0000
0000
0000
0000
0000
0000
0000
0000
,
3020
0000
0000
0100
0000
0000
0230
0000
0000
0001
0000
0000
0301
0000
0000
1000
0000
0000
0001
0100
0001
0100
0000
0100
,
0010
0000
1000
0000
0000
0001
0020
0000
0000
0230
0000
0000
1300
0000
1000
0001
0000
0001
0100
0010
0100
0001
0000
0001
,
1000
0000
0100
0000
0000
0100
2000
0000
0000
3020
0000
0000
0130
0000
0100
0001
0000
0001
0020
0000
0000
0000
0000
0000
,
0031
0000
0000
0000
0001
1000
0100
0010
0002
0000
0000
0000
0000
0000
0000
0000
1003
0000
0000
0000
1000
0001
0010
0100
2000
0000
0000
0000
0000
0000
0000
0000
,
3010
0000
0000
0100
0000
0100
0002
0000
0000
0203
0000
0000
0310
0000
0010
1000
0000
1000
0001
0000
0001
0020
0000
0000
,
0130
0000
0010
0000
0000
0010
0200
0000
0000
2300
0000
0000
3001
1000
0001
2000
0000
3000
0100
0000
0000
1000
0000
1000
,
0001
0000
0100
0000
0000
0001
0020
0000
0000
0230
0000
0000
0310
0001
0010
0001
0010
0100
2000
0000
0000
3001
0000
1000
,
0100
0000
0000
0000
0000
0000
0000
0000
0000
0000
0000
0000
0000
0000
0000
0000
0010
0000
0000
0000
0000
0000
0000
0000
0000
0000
0000
0000
0000
0000
0000
0000
0000
0000
0000
0000
0000
0000
0000
0000
0001
0000
0000
0000
0000
0000
0000
0000
0200
0000
0000
0000
0000
0000
0000
0000
0000
0000
0000
0000
0000
0000
0000
0000
0000
0000
0000
0000
0000
0000
0000
0000
0000
0000
0000
0000
0000
0000
0000
0000
0000
0000
0000
0000
0000
0000
0000
0000
0000
0000
0000
0000
0000
0000
0000
0000
0301
0000
0000
0000
0000
0000
0000
0000
0000
0000
0000
0000
0000
0000
0000
0000
0000
0000
0000
0000
0000
0000
0000
0000
1000
0000
0000
0000
0000
0000
0100
0000
0000
0000
0000
0000
0010
0000
0000
0000
0000
0000
0001
0000
0000
0000
0000
0000
2000
0000
0000
0000
0000
0000
0000
0000
0000
0000
0000
0000
0000
0000
0000
0000
0000
0000
0000
0000
0000
0000
0000
0000
0000
0000
0000
0000
0000
0000
0000
0000
0000
0000
0000
0000
0000
0000
0000
0000
0000
0000
0000
0000
0000
0000
0000
0000
,
3020
0000
0000
0000
0000
0130
0020
0000
0000
0100
0000
0000
0230
0000
0000
0302
0000
0000
2003
0000
0000
0001
3000
1000
,
0100
0000
0000
0000
0000
0010
0100
0000
0000
0100
0000
0000
0000
0000
0000
0010
0000
0000
0011
0000
0000
1000
0000
0000
,
0001
0000
0000
0000
0000
1000
0001
0000
0000
0001
0000
0000
0000
0000
0000
0100
0000
0000
1001
0000
0000
0000
0000
0000
,
0010
0000
0000
0000
0000
0100
0010
0000
0000
0010
0000
0000
0000
0000
0000
1000
0000
0000
0101
0000
0000
0010
0000
0000
,
0010
0000
0000
0000
0000
0100
1000
0000
0000
1000
0000
0000
0000
0000
0000
0001
0000
0000
1100
0000
0000
0001
0000
0000
,
0020
0001
0031
0000
1000
0100
1000
0000
0020
0100
0130
0000
0001
0100
0001
0000
,
2000
0010
3010
0000
0100
0001
0100
0000
0002
1000
1003
0000
0010
0100
0010
0000
,
1000
0100
0001
1000
0001
0100
1000
1000
0001
0100
1000
0001
1000
0100
0001
0001
,
1000
0010
1000
0010
1000
0010
1000
0010
0200
0000
0301
0000
0011
0000
1100
0000
,
1002
0000
0003
0010
0001
0000
1100
0000
0001
0010
0100
0000
1001
0000
0010
0000
,
1010
0000
0100
0001
0010
0000
0001
1000
0100
0010
0000
0001
0000
0100
0000
0010
,
2000
0000
3000
0100
0010
0000
1100
0000
0010
0001
0100
0000
1010
0000
0100
0000
,
0011
0100
0011
0100
0011
1001
1010
1001
,
1000
0100
0010
0100
1000
0100
0010
0000
,
0001
0010
0100
0010
0001
0010
0100
0000
,
1000
0100
0001
0100
1000
0100
0001
0000
,
1000
0010
0001
0010
1000
0010
0001
0000
,
1000
0100
0010
0001
0000
1000
0001
0010
0100
1000
0000
0001
,
0010
0100
1000
0001
0000
1000
0001
0010
0100
1000
0000
0000
,
0001
0010
0100
0010
0001
0010
0100
1000
,
0002
0000
0000
0003
,
1001
1100
0101
1100
,
0101
1010
0011
1010
,
0011
1100
0011
1100
,
0011
0000
0000
1001
0000
1000
0001
0010
0001
1000
0000
0010
,
1000
0110
0011
1010
,
0101
1100
0011
1001
,
0110
0000
0000
0000
0001
0100
0001
0100
0010
0000
0000
0000
1010
0000
0000
0000
,
0001
0000
0100
1000
0000
0100
0002
0000
0000
1003
0000
0000
,
0011
1010
0101
0011
,
1010
0000
0000
1001
0000
0000
1010
0000
1000
0001
0000
0000
,
1100
0011
0101
1010
,
1001
0000
0000
0011
0000
0001
1000
0100
0010
0001
0000
0001
,
0100
0000
0000
0011
0000
0000
1001
0000
0000
0012
0000
0003
,
0110
0000
0000
1001
0000
0000
1010
0000
0000
0210
0000
0300
,
1100
0000
0000
0110
0000
0100
0001
0000
0001
0100
0000
0100
,
0010
1000
0010
1000
0001
1000
0001
0000
0001
0010
0000
0200
,
2000
0000
0000
0000
,
0000
0000
0000
0000
,
3300
0000
0000
0000
;

//---------------dance-single - S-STANDARD----------------
#NOTEDATA:;
#CHARTNAME:DJ OMiY-SSP;
#STEPSTYPE:dance-single;
#DESCRIPTION:S-STANDARD;
#CHARTSTYLE:;
#DIFFICULTY:Medium;
#METER:8;
#RADARVALUES:0.514680,0.733119,0.251355,0.310005,0.150813,363.000000,30.000000,37.000000,0.000000,0.000000,0.000000,0.000000,0.000000,0.514680,0.733119,0.251355,0.310005,0.150813,363.000000,30.000000,37.000000,0.000000,0.000000,0.000000,0.000000,0.000000;
#CREDIT:DJ OMiY;
#DISPLAYBPM:*;
#NOTES:
0000
0000
0000
0000
,
0000
0000
0000
0000
,
0000
0000
0000
0000
,
0000
0000
0000
0000
,
1000
1000
1000
1000
,
0001
0001
0001
0001
,
0100
0010
0100
0010
,
1000
0000
0000
1000
0001
0000
0000
0000
0001
0000
0000
0001
1000
0000
1000
0000
,
0010
0000
0010
0000
0100
0010
0100
0000
,
0001
0000
0001
0000
1000
0100
0010
0000
,
0100
0000
0010
0000
0001
1000
0001
0000
,
1000
0000
1000
0000
0010
0100
0001
0000
,
1000
0100
0010
0000
0100
0010
0001
0000
,
0001
0010
0100
0000
0010
0100
1000
0000
,
0001
1000
0001
1000
0001
1000
0001
1000
,
0002
0000
0000
0003
,
1000
1100
0100
0110
,
0001
0000
0000
0000
0000
0000
1001
0000
0000
0000
0000
0000
1000
0000
0100
1000
0000
1000
0200
0000
0000
0000
0000
0000
,
0310
0000
0001
0010
2000
0000
0000
0000
3010
0000
0001
0010
2000
0000
0000
0000
,
3010
0001
0100
0010
2000
3200
0302
0203
,
1300
0100
1001
0000
0001
0100
0010
0100
,
0001
0000
0000
0100
0000
0000
1001
0000
0000
0000
0000
0000
0001
0000
0000
1000
0000
0000
0001
0000
0000
0010
0000
0001
,
1000
0000
0001
0010
2000
0000
0000
0000
3010
0000
0001
0010
2000
0000
0000
0000
,
3010
0001
1000
0010
0100
0001
0020
0000
,
0130
0000
1000
0000
0000
0100
1000
0000
0000
0000
0000
0000
0001
0000
0000
0100
0000
0000
0001
0000
0000
0100
0000
0000
,
0001
0000
0010
0000
0000
0001
0010
0000
0000
0000
0000
0000
0001
0000
1000
0001
0000
0001
1000
0000
0000
0000
0000
0000
,
0001
0000
1000
0100
0002
0000
0000
0000
0103
0000
1000
0100
0002
0000
0000
0000
,
0103
1000
0100
1000
0002
0203
2300
3200
,
0301
0000
0100
0000
0000
0001
0100
0000
0000
0000
0000
0000
0010
0100
0010
0200
0000
0000
0000
0300
0000
0001
0000
0001
,
1000
0000
0100
0000
0000
1000
0100
0000
0000
0000
0000
0000
0010
0000
0000
0001
0000
1000
0001
0000
0000
0010
0000
0001
,
1000
0000
0000
0000
0000
0000
0100
0000
0000
0000
0100
0000
0002
0000
0000
0000
0000
0000
0000
0000
0000
0000
0000
0000
0103
0000
0000
0000
0000
0000
1000
0000
0000
0100
0000
0000
0002
0000
0000
0000
0000
0000
0000
0000
0000
0000
0000
0000
,
0103
1000
0010
1000
0200
0320
0032
0000
,
1003
0000
0100
0100
0000
0010
0011
0001
,
1000
0000
0001
1000
0000
0100
1001
0000
,
0010
0000
0100
0100
0000
0001
1010
1000
,
1000
0000
0100
0100
0000
0010
0011
0000
,
1000
0100
0010
0001
0001
0010
0100
1000
,
1000
0100
0010
0001
0001
0010
0100
1000
,
0001
1000
0001
1000
0001
1000
0001
1000
,
0010
0010
0010
0010
0020
1000
0230
1000
,
0301
0001
0000
0010
0000
0001
0000
1000
,
0000
0000
0010
0000
0000
0000
1000
0100
1000
0100
0000
0010
0000
0001
0000
1000
,
0100
1000
0000
0001
0000
0100
0000
1000
,
0000
0100
0000
0001
0100
0100
0100
0100
,
0010
0010
0100
0100
,
0001
0001
1000
1000
,
0100
0100
0010
0010
,
0001
0001
1000
1000
,
0002
1003
0002
1003
,
0002
1003
0002
1003
,
0001
1000
0001
1000
0001
1000
0001
1000
,
0002
0000
0000
0003
,
1001
1001
0010
0010
,
1001
1001
0100
0100
,
1001
1001
0010
0010
,
1000
0001
1001
0110
,
1001
1001
0100
0100
,
1001
1001
0010
0010
,
1001
1001
0100
0100
,
1001
0110
2002
3003
,
0010
0010
1000
1000
,
0001
0000
0000
0001
0000
0000
1000
0000
0010
1000
0000
0000
,
0100
0100
1000
1000
,
0001
1000
0101
1100
,
0010
0001
0100
2000
,
3100
0001
0010
2000
,
3010
0001
0110
1001
,
0020
0000
0000
0230
0000
0000
0301
0000
0001
1000
0000
1000
,
0002
0000
0000
0000
,
0000
0000
0000
0000
,
0003
0000
0000
0000
;

//---------------dance-single - S-STANDARD----------------
#NOTEDATA:;
#CHARTNAME:DJ OMiY-LSP;
#STEPSTYPE:dance-single;
#DESCRIPTION:S-STANDARD;
#CHARTSTYLE:;
#DIFFICULTY:Easy;
#METER:5;
#RADARVALUES:0.391396,0.498521,0.100542,0.310005,0.020946,278.000000,12.000000,37.000000,0.000000,0.000000,0.000000,0.000000,0.000000,0.391396,0.498521,0.100542,0.310005,0.020946,278.000000,12.000000,37.000000,0.000000,0.000000,0.000000,0.000000,0.000000;
#CREDIT:DJ OMiY;
#DISPLAYBPM:*;
#NOTES:
0000
0000
0000
0000
,
0000
0000
0000
0000
,
0000
0000
0000
0000
,
0000
0000
0000
0000
,
0010
1000
0010
1000
,
0001
0100
0001
0100
,
0001
1000
0001
1000
,
0010
0000
0110
0000
1000
0000
0001
0001
,
2000
0100
0100
3100
,
0002
0100
0100
0103
,
2000
0010
0010
3010
,
0002
0010
0010
0013
,
1000
0001
1000
0001
,
1000
0001
1000
0001
,
0100
0100
0100
0100
,
0002
0000
0000
0003
,
1001
0000
0100
0000
0001
0001
0002
0003
,
0100
0000
1001
0000
1000
1000
2000
3000
,
0010
0100
0002
0000
0013
0100
2000
0000
,
3010
0000
0100
0000
0001
0001
1000
1000
,
0001
0000
0011
0000
0100
0200
0300
0100
,
0100
0000
1100
0000
0010
0010
0020
0030
,
0001
0100
0020
0000
1030
0100
0020
0000
,
0031
0000
1000
0000
0100
0010
0200
0300
,
1000
0000
1001
0000
0001
0001
0002
0003
,
1000
0000
1001
0000
1000
1000
2000
3000
,
0100
0100
0002
0000
0103
0100
2000
0000
,
3001
0000
0100
0000
0010
0010
0100
0100
,
0001
0000
1001
0000
0010
0020
0030
0010
,
0010
0000
1001
0000
0100
0100
0200
0300
,
0001
0010
0200
0000
1300
0100
0020
0000
,
0031
0000
1000
0000
0001
0100
0010
0000
,
0200
0000
0010
0010
0000
0010
0310
0100
,
0002
0000
1000
1000
0000
1000
1003
0000
,
0020
0000
1000
1000
0000
1000
1030
0010
,
0200
0000
0001
0001
0000
0001
0301
0000
,
0020
1000
0100
2030
,
0100
0001
0100
3002
,
0010
0100
0010
0100
,
1000
1000
1000
1000
1003
0000
0001
0000
,
2002
0000
0000
3003
,
0000
0000
0000
0000
0000
0000
0000
1000
0010
0100
0000
0001
0000
0100
0000
0001
,
0000
0000
0000
0000
,
0010
0000
0010
0100
0010
0100
0010
0100
,
0002
1000
1000
1003
,
2000
0001
0001
3001
,
0002
0010
0010
0013
,
2000
0010
0010
3010
,
0001
1000
0001
1000
,
0001
1000
0001
1000
,
0001
1000
0001
1000
,
0020
0000
0000
0030
,
0100
0100
0100
0100
,
0100
0100
0100
0100
,
0001
0001
0001
0001
,
1000
0001
0010
0000
,
0100
0100
0100
0100
,
0100
0100
0100
0100
,
1000
1000
1000
1000
,
0010
0100
0001
0000
,
1000
0010
0001
0010
,
1000
0010
0001
0010
,
1000
0010
0001
0010
,
1000
0001
1000
1001
,
1000
0100
0001
0100
,
1000
0100
0001
0100
,
1000
1000
0001
0001
,
0100
0010
0100
1001
,
0020
0000
0000
0000
,
0000
0000
0000
0000
,
0030
0000
0000
0000
;

//---------------dance-single - BEGINNER----------------
#NOTEDATA:;
#CHARTNAME:DJ OMiY-BEG;
#STEPSTYPE:dance-single;
#DESCRIPTION:BEGINNER;
#CHARTSTYLE:;
#DIFFICULTY:Beginner;
#METER:3;
#RADARVALUES:0.220235,0.398817,0.067028,0.402168,0.000000,128.000000,8.000000,48.000000,0.000000,0.000000,0.000000,0.000000,0.000000,0.220235,0.398817,0.067028,0.402168,0.000000,128.000000,8.000000,48.000000,0.000000,0.000000,0.000000,0.000000,0.000000;
#CREDIT:DJ OMiY;
#NOTES:
0000
0000
0000
0000
,
0000
0000
0000
0000
,
0000
0000
0000
0000
,
0000
0000
0000
0000
,
0010
0000
0001
0000
,
0100
0000
0001
0000
,
0010
0000
0100
0000
,
1000
0000
0010
0000
,
2000
0000
3000
1000
,
0002
0000
0003
0001
,
0200
0000
0300
0100
,
0020
0000
0030
0010
,
0100
0000
0100
0000
,
0100
0000
0100
0000
,
0200
0000
0000
0000
,
0300
0000
0000
0000
,
0010
0010
0020
0030
,
1000
1000
2000
3000
,
0000
2002
3003
2002
,
3003
0000
0010
0010
,
0010
0100
0200
0300
,
0001
0001
2000
3000
,
0000
0220
0330
0220
,
0330
1000
1000
2000
,
3001
0001
0002
0003
,
0100
0100
0200
0300
,
0010
2002
3003
0220
,
0330
0000
1000
0001
,
1000
1000
2000
3000
,
0100
0100
0200
0300
,
0010
0220
0330
2002
,
3003
0001
0100
0002
,
0103
0000
0000
0010
,
0010
0000
0000
1000
,
1000
0000
0000
0100
,
0100
0000
0000
0010
,
0020
0030
0020
0030
,
0002
0003
0002
0003
,
1000
1000
1000
1000
,
0001
0001
0002
0003
,
0001
0000
0000
0000
,
0100
0000
0010
0010
,
0010
0000
1000
0000
,
0001
0000
0100
0100
,
0200
0000
0300
0100
,
0200
0000
0300
0100
,
0020
0000
0030
0010
,
0020
0000
0030
0010
,
2000
3000
2000
3000
,
2000
3000
2000
3000
,
0002
0000
0000
0000
,
0000
0000
0000
0003
,
0001
0000
0000
0000
,
0100
0000
0000
0000
,
0010
0000
0000
0000
,
1000
0000
1000
0000
,
1000
0000
0000
0000
,
0100
0000
0000
0000
,
0020
0000
0030
0000
,
0001
0000
0001
0000
,
0001
0000
0000
0000
,
0100
0000
0000
0000
,
0010
0000
0000
0000
,
1000
0000
0001
0000
,
2000
0000
0000
3000
,
0002
0000
0000
0003
,
0100
0000
0010
0000
,
0100
0000
0010
0000
,
0100
0000
0000
0000
;

//---------------dance-double - D-HEAVY----------------
#NOTEDATA:;
#CHARTNAME:DJ OMiY-HDP;
#STEPSTYPE:dance-double;
#DESCRIPTION:D-HEAVY;
#CHARTSTYLE:;
#DIFFICULTY:Hard;
#METER:10;
#RADARVALUES:0.715764,0.997042,0.410547,0.368654,0.632577,505.000000,49.000000,44.000000,0.000000,0.000000,0.000000,0.000000,0.000000,0.715764,0.997042,0.410547,0.368654,0.632577,505.000000,49.000000,44.000000,0.000000,0.000000,0.000000,0.000000,0.000000;
#CREDIT:DJ OMiY;
#NOTES:
// measure 0
00000000
00000000
00000000
00000000
,  // measure 1
00000000
00000000
00000000
00000000
,  // measure 2
00000000
00000000
00000000
00000000
,  // measure 3
00000000
00000000
00000000
00000000
,  // measure 4
10000000
01000000
00100000
00010000
,  // measure 5
00001000
00000000
00000000
00000000
00000100
00000000
00000000
00000000
00000010
00000000
00000000
00000000
00000001
00000010
00001000
00000010
,  // measure 6
00000001
00000000
00000000
00000001
00000000
00000010
00000000
00000000
00000100
00000000
00000000
00000100
00000000
00001000
00000000
00000000
,  // measure 7
00010000
00000000
00000000
00010000
00100000
00000000
00000000
00000000
01000000
00000000
00000000
01000000
10000000
00000000
10010000
00000000
,  // measure 8
00100000
10000000
01000000
00010000
00001000
00000100
00000001
00000000
,  // measure 9
00000010
00000001
00000100
00001000
00010000
01000000
10000000
00000000
,  // measure 10
00100000
10000000
01000000
00010000
00001000
00000010
00000001
00000000
,  // measure 11
00000010
00000001
00000100
00001000
00010000
00100000
10000000
00000000
,  // measure 12
00100000
10000000
01000000
10000000
01000000
00010000
01000000
00010000
,  // measure 13
00001000
00010000
00001000
00010000
00001000
00000100
00001000
00000100
,  // measure 14
00000001
00000010
00000100
00001000
00010000
00100000
01000000
10000000
,  // measure 15
00020000
00000000
00000000
00030000
,  // measure 16
10010000
00000000
00010000
00000000
00000000
00100000
00020000
00000000
00000000
20030000
00000000
00000000
31000000
00000000
00010000
01000000
00000000
10000000
01000000
00100000
00010000
10000000
00000000
00010000
,  // measure 17
00100000
00000000
00100000
00000000
00000000
00001000
00010000
00000000
00000000
00000100
00000000
00000000
00000010
00000000
00000100
00000010
00000000
00000100
00002000
00000000
00000000
00000000
00000000
00000000
,  // measure 18
00003001
00000000
00000000
00000000
00000010
00000100
00001000
00000100
00002000
00000000
00000000
00000000
00000000
00000000
00000000
00000000
00013000
00000000
00000000
00000000
00100000
01000000
00100000
01000000
00020000
00000000
00000000
00000000
00000000
00000000
00000000
00000000
,  // measure 19
00031000
00000000
00000000
00010000
00000000
00000100
00000010
00000000
00000000
00000001
00000000
00000000
00000010
00000000
00000010
00001000
00000000
00001000
00010000
00000000
00010000
01000000
00000000
00000000
,  // measure 20
00010000
00000000
00001000
00000000
00000000
00001000
00200000
00000000
00000000
00302000
00000000
00000000
00013000
00000010
00010000
00000010
00000000
00000000
00000100
00000000
00000000
00000001
00000000
00000001
,  // measure 21
00000010
00000000
00001000
00000000
00000000
00000010
00000001
00000000
00000000
00001000
00000000
00000000
00000001
00000010
00000100
00000010
00000100
00010000
00001000
00000000
00000000
00100000
00000000
00001000
,  // measure 22
00010000
00000000
00000000
00000000
00000000
00000000
00000000
00000000
00000000
00000000
00000000
00000000
00000000
00000000
00000000
00000000
00000000
00000000
00000000
00000000
00000000
00000000
00000000
00000000
00001000
00000000
00000000
00000000
00000000
00000000
01000000
00000000
00000000
00000000
00000000
00000000
00001000
00000000
00000000
00000000
00000000
00000000
01000000
00000000
00000000
00000000
00000000
00000000
00020000
00000000
00000000
00000000
00000000
00000000
00000000
00000000
00000000
00000000
00000000
00000000
00000000
00000000
00000000
00000000
00000000
00000000
00000000
00000000
00000000
00000000
00000000
00000000
00000000
00000000
00000000
00000000
00000000
00000000
00000000
00000000
00000000
00000000
00000000
00000000
00000000
00000000
00000000
00000000
00000000
00000000
00000000
00000000
00000000
00000000
00000000
00000000
00031000
00000000
00000000
00000000
00000000
00000000
00000000
00000000
00000000
00000000
00000000
00000000
00000000
00000000
00000000
00000000
00001000
00000000
00000000
00000000
00000000
00000000
00000000
00000000
00000100
00000000
00000000
00000000
00000000
00000000
00000000
00000000
00000000
00000000
00000000
00000000
00000000
00000000
00000000
00000000
00000100
00000000
00000000
00000000
00000000
00000000
00000000
00000000
00000020
00000000
00000000
00000000
00000000
00000000
00000000
00000000
00000000
00000000
00000000
00000000
00000000
00000000
00000000
00000000
00000000
00000000
00000000
00000000
00000000
00000000
00000000
00000000
00000000
00000000
00000000
00000000
00000000
00000000
00000000
00000000
00000000
00000000
00000000
00000000
00000000
00000000
00000000
00000000
00000000
00000000
00000000
00000000
00000000
00000000
00000000
00000000
,  // measure 23
00000032
00000000
00000000
00000003
00000000
00000001
00000100
00000000
00000000
00000100
00000000
00000000
00000010
00000000
00000000
00001000
00000000
00000000
00000100
00010000
00001000
00100000
00000000
00001000
,  // measure 24
00010000
00000000
00100000
00000000
00000000
10000000
00020000
00000000
00000000
00230000
00000000
00000000
00301000
00000000
00001000
00010000
00000000
00010000
00000010
00000100
00001000
00000100
00000000
00000100
,  // measure 25
00000001
00000000
00000010
00000000
00000000
00000100
00020000
00000000
00000000
00032000
00000000
00000000
00003100
00000000
00000100
00000001
00000000
00000001
00002000
00000000
00000000
00000000
00000000
00000000
,  // measure 26
00003001
00000000
00000000
00000000
00000010
00000100
00000010
00000100
00002000
00000000
00000000
00000000
00000000
00000000
00000000
00000000
00013000
00000000
00000000
00000000
00100000
01000000
00100000
01000000
00020000
00000000
00000000
00000000
00000000
00000000
00000000
00000000
,  // measure 27
00030100
00000000
00000000
00000100
00000000
00001000
00000001
00000000
00000000
00000010
00000000
00000000
00001000
00000000
00001000
00010000
00000000
00010000
00100000
00000000
00100000
10000000
00000000
00000000
,  // measure 28
00010000
00000000
00100000
00000000
00000000
00001000
00000100
00000000
00000000
00000001
00000000
00000000
00000010
00000001
00000010
00000100
00000000
00000000
00001000
00000000
00000000
00000100
00000000
00000100
,  // measure 29
00010000
00000000
00001000
00000000
00000000
00010000
00100000
00000000
00000000
00010000
00000000
00000000
00001000
00010000
01000000
00010000
01000000
10000000
00010000
00000000
00000000
01000000
00000000
00001000
,  // measure 30
00010000
00000000
00000000
00000000
00000000
00000000
00000000
00000000
00000000
00000000
00000000
00000000
00000000
00000000
00000000
00000000
00000100
00000000
00000000
00000000
00000000
00000000
00000000
00000000
00000000
00000000
00000000
00000000
00000000
00000000
00000000
00000000
00000000
00000000
00000000
00000000
00000000
00000000
00000000
00000000
00000010
00000000
00000000
00000000
00000000
00000000
00000000
00000000
00002000
00000000
00000000
00000000
00000000
00000000
00000000
00000000
00000000
00000000
00000000
00000000
00000000
00000000
00000000
00000000
00000000
00000000
00000000
00000000
00000000
00000000
00000000
00000000
00000000
00000000
00000000
00000000
00000000
00000000
00000000
00000000
00000000
00000000
00000000
00000000
00000000
00000000
00000000
00000000
00000000
00000000
00000000
00000000
00000000
00000000
00000000
00000000
00013000
00000000
00000000
00000000
00000000
00000000
00000000
00000000
00000000
00000000
00000000
00000000
00000000
00000000
00000000
00000000
00000000
00000000
00000000
00000000
00000000
00000000
00000000
00000000
00001000
00000000
00000000
00000000
00000000
00000000
00100000
00000000
00000000
00000000
00000000
00000000
00001000
00000000
00000000
00000000
00000000
00000000
00100000
00000000
00000000
00000000
00000000
00000000
00020000
00000000
00000000
00000000
00000000
00000000
00000000
00000000
00000000
00000000
00000000
00000000
00000000
00000000
00000000
00000000
00000000
00000000
00000000
00000000
00000000
00000000
00000000
00000000
00000000
00000000
00000000
00000000
00000000
00000000
00000000
00000000
00000000
00000000
00000000
00000000
00000000
00000000
00000000
00000000
00000000
00000000
00000000
00000000
00000000
00000000
00000000
00000000
,  // measure 31
00230000
00000000
00000000
00000000
00300000
10000000
00200000
00000000
00000000
00310000
00000000
00000000
00020000
00000000
00000000
00032000
00000000
00000000
00003200
00000000
00000000
00000000
00000300
00000010
,  // measure 32
00000100
00000000
00000000
00000000
00000000
00000100
00000010
00000000
00000000
00000010
00000000
00000000
00000000
00000000
00000000
00000010
00000000
00000000
00001100
00000000
00000000
00001000
00000000
00000000
,  // measure 33
00011000
00000000
00000000
00000000
00000000
00100000
00001000
00000000
00000000
00001000
00000000
00000000
00000000
00000000
00000000
00010000
00000000
00000000
01010000
00000000
00000000
00000000
00000000
00000000
,  // measure 34
10000000
00000000
00000000
00000000
00000000
00100000
00010000
00000000
00000000
00010000
00000000
00000000
00000000
00000000
00000000
00001000
00000000
00000000
00011000
00000000
00000000
00010000
00000000
00000000
,  // measure 35
00110000
00000000
00000000
00000000
00000000
00010000
00001000
00000000
00000000
00001000
00000000
00000000
00000000
00000000
00000000
00000010
00000000
00000000
00001001
00000000
00000000
00000000
00000000
00000000
,  // measure 36
00000010
00000001
00000001
00000100
00001000
00010000
00001000
00000000
00100000
00001000
00001000
00100000
01000000
00100000
00010000
00000000
,  // measure 37
10000000
01000000
01000000
00100000
00010000
00100000
00001000
00000000
00010000
00000100
00000100
00000010
00000100
00001000
00000001
00000000
,  // measure 38
00000010
00000001
00001000
00001000
00000100
00010000
00001000
00001000
00100000
00010000
10000000
10000000
01000000
00010000
01000000
01000000
,  // measure 39
00100000
00001000
00100000
00001000
00100000
00001000
00100000
00001000
00010000
00000000
00000100
00000000
00000011
00000000
00010010
00000000
,  // measure 40
00001200
00000300
00002000
00003000
00000200
00000300
00002000
00003000
,  // measure 41
00000020
00000000
00000030
00000000
00020000
00000000
00030000
00001000
00010000
00001000
00000000
00100000
00000000
00010000
00000000
10000000
,  // measure 42
02000000
03000000
00200000
00300000
02000000
03000000
00200000
00300000
,  // measure 43
00020000
00030000
02000000
03010000
00100000
00001000
00100000
00001000
,  // measure 44
00010000
00000100
00000010
00000000
00000001
00000010
00000100
00000000
,  // measure 45
00001000
00000100
00010000
00000000
00001000
00100000
01000000
00000000
,  // measure 46
10000000
00100000
00010000
00000000
00001000
00000100
00000001
00000000
,  // measure 47
00000010
00000100
00010000
00000000
00001000
00100000
00010000
00000000
,  // measure 48
10000000
01000000
00100000
00010000
00000000
00000000
10000000
01000000
00100000
00010000
00000000
00000000
,  // measure 49
00001000
00000100
00000010
00000001
00000000
00000000
00001000
00000100
00000010
00000001
00000000
00000000
,  // measure 50
00001000
00000010
00000001
00000010
00000100
00001000
00010000
00100000
,  // measure 51
00020000
00000000
00000000
00030000
,  // measure 52
00010100
00001010
00000011
00001010
,  // measure 53
00011000
01001000
00110000
01010000
,  // measure 54
10100000
01010000
00011000
01010000
,  // measure 55
01001000
00000000
00000000
00101000
00000000
00100000
00001000
00010000
00000010
00001000
00000000
00000010
,  // measure 56
00000100
00000101
00000011
00001100
,  // measure 57
00000101
00001010
00001100
00011000
,  // measure 58
00110000
00000000
00000000
00000000
00010000
01000000
00010000
01000000
00100000
00000000
00000000
00000000
00110000
00000000
00000000
00000000
,  // measure 59
00001000
00000000
00010000
00001000
00000000
00000100
00001000
00000000
00000000
00010000
00000000
00000000
,  // measure 60
00001100
00000110
00001010
00000110
,  // measure 61
00000101
00000000
00000000
00001010
00000000
00000000
00011000
00000000
00001000
01000000
00000000
00000000
,  // measure 62
01100000
01010000
10100000
01010000
,  // measure 63
10010000
00000000
00000000
01010000
00000000
00010000
10000000
01000000
00100000
00010000
00000000
00010000
,  // measure 64
00100000
00000000
00000000
00001000
00000000
00000000
00010000
00000000
00000000
00002020
00000000
00003030
,  // measure 65
00000100
00000000
00000000
00001000
00000000
00000000
00010000
00000000
00000000
00220000
00000000
00330000
,  // measure 66
10000000
00000000
00000000
01000000
00000000
00000000
00010000
00000000
00000000
00001000
00000000
00000010
,  // measure 67
00000001
00001000
00000001
00000100
00000001
00001000
00000100
00000000
00000010
00000001
00000000
00000200
,  // measure 68
00000002
00000000
00000000
00000000
,  // measure 69
00000000
00000000
00000000
00000000
,  // measure 70
00000303
00000000
00000000
00000000
;

//---------------dance-double - D-STANDARD----------------
#NOTEDATA:;
#CHARTNAME:DJ OMiY-DSP;
#STEPSTYPE:dance-double;
#DESCRIPTION:D-STANDARD;
#CHARTSTYLE:;
#DIFFICULTY:Medium;
#METER:8;
#RADARVALUES:0.494332,0.703795,0.100542,0.310005,0.188516,364.000000,12.000000,37.000000,0.000000,0.000000,0.000000,0.000000,0.000000,0.494332,0.703795,0.100542,0.310005,0.188516,364.000000,12.000000,37.000000,0.000000,0.000000,0.000000,0.000000,0.000000;
#CREDIT:DJ OMiY;
#NOTES:
00000000
00000000
00000000
00000000
,
00000000
00000000
00000000
00000000
,
00000000
00000000
00000000
00000000
,
00000000
00000000
00000000
00000000
,
00001000
00100000
00001000
00100000
,
00010000
01000000
00010000
01000000
,
10000000
00100000
00010000
00100000
,
00001000
00000000
00000100
00000000
00000001
00000000
00000010
00000010
,
00000200
00002300
00003100
00000100
,
00020000
00032000
00013000
00010000
,
02000000
23000000
31000000
01000000
,
00200000
00302000
00013000
00010000
,
00000100
00000010
00000001
00000100
,
00001000
00010000
00100000
10000000
,
01000000
00100000
01000000
00100000
00001000
00100000
00001000
00100000
,
00020000
00000000
00000000
00031000
,
00000010
00000000
00000000
00000000
00000000
00000000
00000110
00000000
00000000
00000000
00000000
00000000
00000100
00000000
00000000
00000010
00000000
00000000
00000100
00000000
00000100
00000001
00000000
00000000
,
00000100
00000000
00000000
00000000
00000000
00000000
00010010
00000000
00000000
00000000
00000000
00000000
00000100
00000000
00000001
00000100
00000000
00000100
00000002
00000000
00000000
00000000
00000000
00000000
,
00000013
00000000
00000100
00010000
00002000
00000000
00000000
00000000
00103000
00000000
00010000
01000000
00200000
00000000
00000000
00000000
,
10300000
00000000
01000000
00100000
00010000
00010000
01000000
01000000
,
00100000
00000000
00000000
00000000
00000000
00000000
00101000
00000000
00000000
00000000
00000000
00000000
00001000
00000000
00000000
00000020
00000000
00000000
00000030
00000000
00000000
00000100
00000000
00000010
,
00000100
00000000
00000000
00000000
00000000
00000000
00001001
00000000
00000000
00000000
00000000
00000000
00000001
00000000
00000001
00000010
00000000
00000010
00000200
00000000
00000000
00000000
00000000
00000000
,
00010300
00000000
00000000
00000000
00000000
00000000
00001000
00000000
00000000
00100000
00000000
00000000
00010000
00000000
00000000
00000000
00000000
00000000
00000000
00000000
00000000
00000000
00000000
00000000
10000000
00000000
00000000
00000000
00000000
00000000
00010000
00000000
00000000
00000000
00100000
00000000
00002000
00000000
00000000
00000000
00000000
00000000
00000000
00000000
00000000
00000000
00000000
00000000
,
00013000
00000000
00000000
00000000
00000000
00010000
00000100
00000000
00000000
00000100
00000000
00000000
00001000
00000000
00000000
00000010
00000000
00000000
00000100
00000000
00000000
00000000
00000000
00000100
,
00000001
00000000
00001000
00000000
00000000
00000001
00000100
00000000
00000000
00000000
00000000
00000000
00000010
00000000
00000000
00000010
00000000
00000000
00001000
00000000
00000100
00001000
00000000
00000000
,
00000100
00000000
00010000
00000000
00000000
00010000
00000100
00000000
00000000
00010000
00000000
00000000
00001000
00000000
00000000
00100000
00000000
00000000
02000000
00000000
00000000
00000000
00000000
00000000
,
13000000
00000000
10000000
01000000
00020000
00000000
00000000
00000000
00031000
00000000
00001000
00000100
00000002
00000000
00000000
00000000
,
00000013
00000000
00000100
00001000
00000001
00000010
00001000
00010000
,
00001000
00000000
00010000
00000000
00000000
00010000
00000100
00000000
00000000
00010000
00000000
00000000
00001000
00000000
00000000
00200000
00000000
00000000
00300000
00000000
00000000
01000000
00000000
01000000
,
00100000
00000000
00010000
00000000
00000000
00010000
10000000
00000000
00000000
00100000
00000000
00000000
00020000
00000000
00000000
00032000
00000000
00000000
00003200
00000000
00000000
00000001
00000000
00000000
,
00000310
00000000
00000000
00000000
00001000
00000000
00000000
00000000
00000000
00000000
00001000
00000000
00000002
00000000
00000000
00000000
00000000
00000000
00000000
00000000
00000000
00000000
00000000
00000000
00000013
00000000
00000000
00000000
00000000
00000000
00000010
00000000
00000000
00001000
00000000
00000000
00020000
00000000
00000000
00000000
00000000
00000000
00000000
00000000
00000000
00000000
00000000
00000000
,
00031000
00000000
00000000
00000000
00000000
00000000
00100000
00000000
00000000
00000000
00000000
00000000
00020000
00000000
00000000
20030000
00000000
00000000
30200000
00000000
00000000
00000000
00000000
00300000
,
01000000
00000000
00010000
00010000
00000000
10000000
10000000
01000000
,
00010000
00000000
00001000
00001000
00000000
00010000
00011000
00000000
,
00001000
00000000
00000100
00000100
00000000
00000001
00000010
00001000
,
00001000
00000000
00000010
00000001
00000000
00001000
00001001
00000000
,
00000010
00000100
00000010
00000000
00000100
00000000
00000100
00000000
00000001
00000100
00000001
00000000
00001000
00000000
00001000
00000000
,
00000100
00010000
00000100
00000000
00010000
00000000
00010000
00000000
00001000
00100000
00001000
00000000
00010000
00000000
00010000
00000000
,
01000000
10000000
01000000
00000000
00100000
00010000
00100000
00000000
00001000
01000000
00001000
00000000
00100000
00001000
00100000
00000000
,
00010000
00010000
10000000
10000000
01000000
00010000
00001000
00000100
,
00002000
00010000
00000000
00100000
00000000
10000000
00000000
00100000
,
00023000
00001000
00000000
00000010
00000000
00000001
00000000
00000100
,
00032000
00100000
00000000
01000000
00000000
10000000
00000000
00100000
,
00023000
00000100
00000000
00001000
00000010
00000010
00000001
00000001
,
00030100
00000100
00010000
00010000
,
00001000
00001000
00100000
00100000
,
01000000
01000000
10000000
10000000
,
00100000
00010000
00001000
00000010
,
00000001
00000000
00000001
00000100
00000000
00000000
00000010
00000000
00000010
00010000
00000000
00000000
,
00001000
00000000
00001000
00100000
00000000
00000000
00010000
00000000
00010000
01000000
00000000
00000000
,
00100000
10000000
00100000
10000000
00010000
00100000
00010000
00100000
,
00002000
00000000
00000000
00003000
,
00011000
00010000
00000100
00001000
,
00000010
00000100
00000001
00001001
,
00000110
00000100
00000001
00001000
,
00000100
00000000
00000000
00010000
00000000
00000000
00001000
00010000
00001000
00010000
00000000
00000000
,
01000000
01000000
10000000
10000000
,
00100000
00010000
00100000
01000000
,
00001000
00020000
00030100
00000010
,
00001001
00011000
10010000
01000000
,
00100000
10000000
01000000
00100000
,
01000000
10000000
00010000
00100000
,
00001000
00010000
00000010
00000100
,
00000001
00000000
00000000
00001000
00000000
00000000
00000100
00000010
00000100
00000010
00000000
00000000
,
00000001
00000100
00000001
00002000
,
00003100
00010000
00001000
00200000
,
01300000
10000000
00100000
00010000
,
00100000
00000000
00000000
10000000
00000000
00000000
00010000
00000000
10000000
01000000
00000000
00200000
,
00020000
00000000
00000000
00000000
,
00000000
00000000
00000000
00000000
,
00330000
00000000
00000000
00000000
;

//---------------dance-double - D-LIGHT----------------
#NOTEDATA:;
#CHARTNAME:DJ OMiY-LDP;
#STEPSTYPE:dance-double;
#DESCRIPTION:D-LIGHT;
#CHARTSTYLE:;
#DIFFICULTY:Easy;
#METER:5;
#RADARVALUES:0.423713,0.645145,0.393790,0.377033,0.012568,262.000000,47.000000,45.000000,0.000000,0.000000,0.000000,0.000000,0.000000,0.423713,0.645145,0.393790,0.377033,0.012568,262.000000,47.000000,45.000000,0.000000,0.000000,0.000000,0.000000,0.000000;
#CREDIT:DJ OMiY;
#NOTES:
00000000
00000000
00000000
00000000
,
00000000
00000000
00000000
00000000
,
00000000
00000000
00000000
00000000
,
00000000
00000000
00000000
00000000
,
00001000
00010000
00001000
00010000
,
00001000
00010000
00001000
00010000
,
00000100
00010000
00000100
00010000
,
00001000
00000000
00011000
00000000
00010000
00000000
00011000
00001000
,
00100000
00100000
00100000
00100000
,
01000000
01000000
01000000
01000000
,
10000000
10000000
10000000
10000000
,
00010000
00010000
00010000
00010000
,
00100000
00100000
00001000
00001000
,
00010000
00010000
00000100
00000100
,
00000010
00000001
00001000
00000001
,
00000200
00000000
00000000
00000300
,
00000110
00000100
00000001
00000001
,
00001000
00000100
00020000
00031000
,
00100000
10010000
01000000
10010000
,
00200000
00000000
02300000
00000000
03010000
10000000
00010000
10000000
,
00010000
01100000
00001000
00010000
,
00000100
00000010
00000002
00002003
,
00003010
00001001
00000100
00001001
,
00000020
00000000
00000032
00000000
00000103
00001000
00020000
00000000
,
00031000
00000000
00100000
00000000
00010000
10000000
01000000
10000000
,
00010000
00000000
11000000
00000000
00100000
00001000
00020000
00000000
,
00030100
00000110
00010000
00011000
,
01000000
00000000
00100000
00000000
10000000
00010000
00100000
00001000
,
00010000
00000000
00001100
00000000
00000010
00000001
00000000
00000001
,
00000010
00000000
00001100
00000000
00000001
00000010
00000200
00000000
,
00010300
00011000
00010000
10010000
,
00200000
00000000
20300000
00000000
31000000
00010000
00002000
00000000
,
00013000
00000000
00000100
00000100
00000000
00000100
00000100
00000000
,
00000010
00000000
00000010
00000010
00000000
00000010
00000010
00000000
,
00000001
00000000
00001000
00001000
00000000
00001000
00001000
00000000
,
00000100
00000000
00000100
00000100
00000000
00000100
00010000
00000000
,
00002000
00203000
02300000
23000000
,
30200000
00320000
00230000
20300000
,
31000000
01000000
00100000
00100000
,
00001000
00010000
00001000
00010000
00002000
00003000
00020000
00030000
,
00022000
00000000
00000000
00033000
,
00000000
00000000
00000000
00000000
00000000
00000000
00000000
00000000
00010000
00000000
00000000
00001000
00000000
00010000
00000000
00001000
,
00000000
00000000
00000000
00000000
,
00000000
00000000
00000000
00001000
00010000
00001000
00010000
00001000
,
00010000
00010000
01000000
01000000
,
10000000
10000000
00100000
00100000
,
00010000
00010000
00001000
00001000
,
00000100
00000100
00000001
00000001
,
00000020
00000130
00000020
00000031
,
00002000
00003100
00020000
00031000
,
00200000
02300000
23000000
30020000
,
02000000
00000000
00000000
03030000
,
01010000
01010000
01010000
01010000
,
11000000
11000000
11000000
11000000
,
00110000
00110000
00110000
00110000
,
00011000
00011000
00020000
00031000
,
00011000
00011000
00011000
00011000
,
00001010
00001010
00001010
00001010
,
00000101
00000000
00000202
00000303
00000101
00000000
00000101
00000000
,
00001001
00001100
00002002
00003003
,
00000010
00000001
00000100
00001000
,
00010000
00100000
10000000
01000000
,
10000000
00100000
00010000
00001000
,
00000100
00000001
00000200
00000301
,
00001000
00000001
00001000
00020000
,
10030000
00010000
10000000
00020000
,
00031000
00000001
00000010
00001000
,
00010000
00001000
00010000
00011000
,
00022000
00000000
00000000
00000000
,
00000000
00000000
00000000
00000000
,
00033000
00000000
00000000
00000000
;
