#TITLE:オタサー☆レボリューション;
#SUBTITLE:;
#ARTIST:ARM(IOSYS) feat. miko & キム;
#TITLETRANSLIT:OTASA REVOLUTION;
#SUBTITLETRANSLIT:;
#ARTISTTRANSLIT:ARM(IOSYS) feat. miko & Kim;
#GENRE:Denpa;
#CREDIT:;
#BANNER:Otasa Revolution-bn.png;
#BACKGROUND:Otasa Revolution-bg.png;
#LYRICSPATH:;
#CDTITLE:;
#MUSIC:Otasa Revolution.ogg;
#OFFSET:-1.820000;
#SAMPLESTART:67.982162;
#SAMPLELENGTH:20.756760;
#SELECTABLE:YES;
#BPMS:0.000000=185.000000
;
#STOPS:
;
#BGCHANGES:;
#KEYSOUNDS:;
#ATTACKS:;

//---------------dance-single - S-HEAVY----------------
#NOTES:
     dance-single:
     DJ OMiY-HSP:
     Hard:
     9:
     0.618392,0.737172,0.462876,0.265725,0.141434,420.000000,54.000000,31.000000,0.000000,0.000000,0.000000,0.618392,0.737172,0.462876,0.265725,0.141434,420.000000,54.000000,31.000000,0.000000,0.000000,0.000000:
0000
0000
0000
0000
,
0000
0000
0000
0000
,
0000
0000
0000
0000
,
0000
0000
0000
0000
0000
1000
1000
0100
,
0110
0000
0000
0000
,
0000
0000
0000
0000
0000
0001
0001
0100
,
0110
0000
1001
0000
,
0001
0000
0000
0010
0000
0000
0001
0000
1000
0100
1000
0100
0010
0001
0010
0001
,
1000
0000
1000
0001
0000
0001
0100
0000
,
0010
1000
1000
1000
0001
0010
0001
0000
,
0101
0000
0010
1000
0000
1000
0100
0000
,
0010
0100
1000
0100
0011
0000
1100
0000
,
1001
0000
0001
0010
0000
0010
0001
0000
,
1000
0010
0010
0010
0200
0002
0000
0303
,
1001
0001
0100
0000
1010
0100
0000
1001
,
0000
0011
0010
0100
2200
0000
3300
1000
,
0001
0001
0100
0100
,
0010
0000
0010
0000
1000
0200
1300
0000
,
0001
0001
0010
0010
,
0100
1000
0100
1000
0200
0000
0300
0000
,
0010
0010
0100
0100
,
0010
0000
0001
0000
1000
0002
0013
0000
,
0100
0100
1000
1000
,
0010
0100
0010
0100
0020
0000
0030
0100
,
0001
0010
0001
1000
0100
1000
0010
0100
,
0001
1000
0001
0010
0100
1000
0100
0010
,
0001
0000
0000
1000
0000
0000
0100
0000
1000
0000
0010
0000
0100
0000
0010
0000
,
1000
0000
0000
0001
0000
0000
0010
0000
0220
0000
0000
0000
0330
0000
0100
0000
,
1000
0001
0100
0001
0010
0100
1000
0100
,
0010
0001
1000
0100
1000
0010
0100
0001
,
0200
0000
0320
0000
2030
0000
3001
0010
,
0001
0000
0000
0100
0000
0000
0010
0000
1000
0000
0001
0000
0020
0000
0000
0000
,
0130
0100
1000
0000
0001
0000
0100
0000
,
0010
0010
0100
0000
0001
0000
1000
0000
,
0200
0000
0000
0310
0100
0000
0000
0000
,
1100
0101
1010
0011
,
1001
0000
0000
0000
0000
0000
1000
0100
0010
0001
1000
0001
,
0100
0000
0000
0000
0000
0000
0010
1000
0001
0010
0001
1000
,
0200
0000
1300
0001
,
0100
0100
0010
0010
0200
0000
0300
0000
,
1001
0000
0000
0000
,
0101
0000
0000
0000
,
1100
0000
0000
0000
,
0110
0000
0000
0100
0000
0000
0001
0000
,
1000
0100
1000
0100
1000
0100
1000
0100
,
0010
0001
0010
0001
0010
0001
0010
0001
,
1000
0010
0100
0001
1000
0001
0010
0100
,
1000
0010
1000
0001
0100
0001
1000
0100
1000
0001
0010
0001
,
0200
0000
0000
0000
,
0300
0000
0000
0000
,
0001
0000
1000
0010
1000
0000
0001
0000
0200
0000
0000
0000
0300
0000
0000
0000
,
0101
0001
1000
0010
1000
0100
0010
0000
,
0001
0000
0000
0001
0100
0000
0010
0000
2000
0000
0000
0000
3100
0000
1000
0000
,
0001
0000
1000
0100
0010
0100
1000
0100
,
0001
0000
0100
0000
1000
0000
0001
0000
0100
0000
0010
0100
0010
0000
1000
0000
,
0001
0010
0011
0000
0000
1100
0001
0101
,
0000
0000
1000
0000
0001
0000
0000
0000
0000
0000
1000
0100
1000
0000
0001
0000
,
0100
0001
0101
0000
1000
0100
1100
0000
,
1001
0000
0000
0000
0110
0000
0000
0000
1001
0000
0000
1000
0001
0000
1000
0000
,
0010
0100
0010
1000
0100
1000
0001
0000
,
1000
0000
0000
1000
0100
0000
0010
0000
0001
0000
0000
0000
0100
0000
0001
0000
,
1000
0000
0010
0100
0001
0100
0010
1000
,
0001
0000
1000
0000
0100
0000
0010
0100
0010
0000
0001
0000
1000
0000
0001
0000
,
0100
0010
0110
0000
0000
1010
0001
0011
,
0000
0000
1000
0000
0001
0000
0000
0000
0000
0000
0010
0001
0010
0000
0100
0000
,
1000
0100
1100
0000
0001
0100
0101
0000
,
1001
0110
2002
3003
,
0110
0010
1000
0100
,
0110
0010
0001
0100
,
0001
0010
0000
0000
0100
1000
0000
0000
,
0002
0203
2300
3020
,
0032
0000
0000
0000
,
0003
0000
0000
0000
,
1001
0000
1000
0010
0000
0010
0100
0000
,
0001
0010
0010
0010
0100
1000
0001
0000
,
1010
0000
0010
0100
0000
0100
0001
0000
,
1000
0000
0010
0100
0010
0000
1000
0000
0001
0000
0100
0000
0010
0000
0000
0000
,
1100
0000
1000
0001
0000
0001
0010
0000
,
0001
0100
0100
0100
0020
2000
0000
3030
,
1001
1000
0100
0000
0101
0001
0000
1100
,
0000
1010
0010
0100
0101
0000
1001
0000
,
1010
0000
1001
0000
0110
0000
0100
2002
,
0000
0000
0000
0000
,
0000
0000
0000
0000
,
0000
0000
0000
0000
,
3000
0000
0000
0000
,
1003
0000
0000
0000
;

//---------------dance-single - S-STANDARD----------------
#NOTES:
     dance-single:
     DJ OMiY-SSP:
     Medium:
     6:
     0.435936,0.589738,0.342871,0.308584,0.021429,280.000000,40.000000,36.000000,0.000000,0.000000,0.000000,0.435936,0.589738,0.342871,0.308584,0.021429,280.000000,40.000000,36.000000,0.000000,0.000000,0.000000:
0000
0000
0000
0000
,
0000
0000
0000
0000
,
0000
0000
0000
0000
,
0000
0000
0000
0000
0000
0001
0010
0001
,
0010
0000
0000
0000
,
0000
0000
0000
0000
0000
0100
1000
0100
,
1000
0000
1001
0000
,
0010
0000
0000
1000
0000
0000
0001
0000
0020
0000
0000
0000
0000
0000
0000
0000
,
0130
0000
0000
1000
0000
0000
0001
0000
,
0010
0001
1000
0001
0010
0000
0000
0000
,
0001
0000
0000
0100
0000
0000
0010
0000
,
1000
0001
1100
0101
,
0010
0000
0000
1000
0000
0000
0001
0000
,
0100
0001
1000
0010
0100
0000
0000
0000
,
1001
0000
0000
0000
0110
0000
0000
1010
,
0000
0001
0010
0000
1001
0000
0000
0010
,
0100
0001
1000
1000
,
0100
1000
0001
0000
,
0010
0001
0100
0010
,
1000
0001
0200
0300
,
0001
1000
0100
0010
,
0001
0000
1000
0000
0001
0100
0001
0000
,
1000
0010
0100
0001
,
1000
0100
0010
0001
2000
0000
3000
0000
,
0001
0011
1000
1010
,
0001
0011
1000
1010
,
0200
0000
0000
0000
0310
0001
1000
0000
,
0020
0000
0130
1001
,
0010
1100
0010
0101
,
0010
1100
0010
0101
,
2000
3200
0302
0203
,
2300
0000
0000
3000
,
0010
0100
0001
0000
0100
0000
0000
0000
,
0010
1000
0100
0000
0010
0000
0000
0000
,
2000
0000
3001
0000
,
0010
0001
0100
1000
,
0100
0000
0002
0023
,
0130
0000
2000
3020
,
0130
0001
1000
0100
,
2002
0000
0000
3003
,
0110
0000
0000
0000
,
0101
0000
0000
0000
,
1100
0000
0000
0000
,
0220
0000
0000
0330
0000
0000
0000
0000
,
0001
0010
0001
0100
,
0001
0010
0001
0100
,
0020
2030
3002
0023
,
0031
0000
0001
1000
0000
1000
0100
0000
0100
0010
0000
0010
,
0001
0000
0000
0000
,
0000
0000
0000
0000
,
1000
0000
0002
1000
2000
0000
3003
0000
,
0110
1000
0100
0100
,
0010
0000
0010
0001
0100
0000
0010
0000
,
1000
0000
0000
1000
0001
0000
0100
0000
,
1000
0000
0100
0000
0001
0001
1000
0000
,
0001
0100
0001
0000
0000
1000
0000
0110
,
0000
0001
1000
0000
0000
0010
0100
0010
,
1000
0101
0001
1100
,
0110
0000
1001
0000
0110
0000
0001
1000
,
0001
0100
0100
0010
,
1000
0000
1000
0100
0001
0000
0100
0000
,
1000
0000
0001
0100
,
0001
0000
1000
0000
0010
1000
0001
0000
,
0010
0100
0010
0000
0000
0001
0000
1100
,
0000
1000
0001
0000
0000
0000
0010
0100
,
0010
0011
0001
1010
,
1001
0110
2002
3003
,
0010
0010
1000
1000
,
0001
0001
0100
0100
,
0001
1000
0000
0000
0001
1000
0000
0000
,
0002
0023
2030
3200
,
0302
0000
0000
0000
,
0003
0000
0000
0000
,
1000
0000
0000
0010
0000
0000
0100
0000
,
0001
1000
0001
0100
0002
0000
0003
0000
,
1000
0000
0000
0100
0000
0000
1000
0000
,
0010
0100
1001
0110
,
1000
0000
0000
0001
0000
0000
0100
0000
,
0010
1000
0001
1000
0020
0000
0030
0000
,
0110
0000
0000
0000
1000
0000
0000
0001
,
0000
0010
0001
0000
1000
0000
1100
0000
,
0001
0000
0101
0000
1000
0000
0001
0220
,
0000
0000
0000
0000
,
0000
0000
0000
0000
,
0000
0000
0000
0000
,
0300
0000
0000
0000
,
0130
0000
0000
0000
;

//---------------dance-single - S-LIGHT----------------
#NOTES:
     dance-single:
     DJ OMiY-LSP:
     Easy:
     4:
     0.288991,0.442303,0.154292,0.180007,0.000000,197.000000,18.000000,21.000000,0.000000,0.000000,0.000000,0.288991,0.442303,0.154292,0.180007,0.000000,197.000000,18.000000,21.000000,0.000000,0.000000,0.000000:
0000
0000
0000
0000
,
0000
0000
0000
0000
,
0000
0000
0000
0000
,
0000
0000
0000
0010
,
1001
0000
0000
0000
,
0000
0000
0000
0100
,
1001
0000
1001
0000
,
0010
1000
0001
0000
,
0010
0000
0001
0000
,
1000
0100
1000
0000
,
0010
0000
0100
0000
,
0001
1000
0001
1000
,
0010
0000
0100
0000
,
0001
0010
0200
0300
,
1000
0000
0000
0000
1001
0000
0000
0010
,
0000
0100
0100
0000
,
0001
0000
1000
0000
,
0001
0000
1000
0100
,
0010
0000
0100
0000
,
1000
0001
0020
0030
,
0001
0000
0100
0000
,
0010
0000
1000
0001
,
0100
0000
0010
0000
,
1000
0001
2002
3003
,
0010
0010
0100
0100
,
0001
0001
1000
1000
,
0010
0000
0100
0001
,
1000
0000
0220
0330
,
0010
0000
0100
0000
,
1000
0000
0001
0000
,
0100
0001
1000
0100
,
0020
0000
0000
0030
,
0001
0001
0000
0000
,
1000
1000
0000
0000
,
0010
0000
0100
0000
,
0001
0010
0100
1000
,
0001
0000
1000
0100
,
1000
0000
0001
0100
,
0001
0000
1000
0000
,
2002
0000
0000
3003
,
1001
0000
0000
0000
,
0110
0000
0000
0000
,
1001
0000
0000
0000
,
0220
0000
0000
0330
0000
0000
0000
0000
,
1000
1000
1000
1000
,
0001
0001
0001
0001
,
1000
0001
1000
0001
,
2000
3200
0320
0032
,
1003
0000
0000
0000
,
0000
0000
0000
0000
,
0010
0010
0020
0030
,
0100
0000
0001
0000
,
1000
0100
0010
0000
,
0001
0000
1000
0000
,
0001
0100
0001
0000
,
0010
0010
0000
1001
,
0100
0100
0000
1001
,
0010
0000
0010
0000
,
1000
0100
0001
0000
,
0100
0000
1000
0000
,
0001
1000
0001
0000
,
0010
0000
0001
1000
,
0100
0100
0010
0000
,
0001
0001
0000
1001
,
1000
1000
0000
1001
,
0100
0000
0100
0000
,
0001
1000
0001
0000
,
0010
0010
0020
0030
,
0100
0100
0200
0300
,
0110
0000
1001
0000
,
0001
1000
0100
1000
,
0002
0000
0000
0000
,
0003
0000
0000
0000
,
0100
0000
0001
0000
,
1000
0010
1000
0000
,
0100
0000
1000
0000
,
0010
0100
0001
1000
,
0010
0000
0100
0000
,
0001
0010
0100
0000
,
1000
0000
0000
0000
1001
0000
0000
0100
,
0000
0001
1000
0100
,
0001
0000
0100
0000
1000
0000
0002
2000
,
0000
0000
0000
0000
,
0000
0000
0000
0000
,
0000
0000
0000
0000
,
0000
0000
0000
0000
,
3003
0000
0000
0000
;

//---------------dance-single - BEGINNER----------------
#NOTES:
     dance-single:
     DJ OMiY-BEG:
     Beginner:
     2:
     0.156741,0.331728,0.060002,0.085718,0.000000,111.000000,7.000000,10.000000,0.000000,0.000000,0.000000,0.156741,0.331728,0.060002,0.085718,0.000000,111.000000,7.000000,10.000000,0.000000,0.000000,0.000000:
0000
0000
0000
0000
,
0000
0000
0000
0000
,
0000
0000
0000
0000
,
0000
0000
0000
1000
,
1000
0000
0000
0000
,
0000
0000
0000
0001
,
0001
0000
1000
0000
,
0001
0000
0000
0000
,
0100
0000
0010
0000
,
0100
0000
0000
0000
,
0001
0000
1000
0000
,
0001
0000
0000
0000
,
1000
0000
0100
0000
,
1000
0000
0000
0000
,
1001
0000
0000
0000
,
0000
0000
0000
0000
,
1000
0000
0000
0000
,
0100
0000
0000
0010
,
0010
0000
0000
0000
,
0002
0000
0003
0000
,
1000
0000
0000
0000
,
0001
0000
0000
0100
,
0100
0000
0000
0000
,
0020
0000
0030
0000
,
1000
0000
0001
0000
,
1000
0000
0001
0000
,
2000
0000
3000
0000
,
0002
0000
0003
0000
,
0100
0000
0010
0000
,
0100
0000
0010
0000
,
0200
0000
0000
0000
,
0300
0000
0000
0000
,
0001
0000
0000
0000
,
0100
0000
0000
0000
,
0010
0000
0000
0000
,
0100
0000
0010
0000
,
1000
0000
0000
0000
,
0001
0000
0000
0000
,
0110
0000
0000
0000
,
1001
0000
0000
0000
,
0100
0000
0000
0000
,
0000
0000
0000
0000
,
0000
0000
0000
0000
,
0000
0000
0000
0000
,
0010
0000
0010
0000
,
0010
0000
0010
0000
,
0100
0000
0100
0000
,
0100
0100
0100
0100
,
0100
0000
0000
0000
,
0000
0000
0000
0000
,
0000
0000
0000
0000
,
0001
0000
0010
0000
,
0001
0000
0000
0000
,
1000
0000
0100
0000
,
1000
0000
0000
0000
,
0010
0010
0000
0000
,
0100
0000
0000
0000
,
0000
0010
0000
0010
,
0010
0010
0010
0000
,
1000
0000
0010
0000
,
1000
0000
0000
0000
,
0001
0000
0100
0000
,
0001
0000
0000
0000
,
0100
0100
0000
0000
,
0010
0000
0000
0000
,
0000
1000
0000
0001
,
0001
0001
0001
0000
,
0100
0000
0000
0000
,
0010
0000
0000
0000
,
1000
0000
0001
0000
,
1001
0000
1001
0000
,
1001
0000
0000
0000
,
0000
0000
0000
0000
,
0010
0000
1000
0000
,
0020
0000
0030
0000
,
0100
0000
0001
0000
,
1000
0000
0010
0000
,
0100
0000
0001
0000
,
0200
0000
0300
0000
,
0001
0000
0000
0000
2000
0000
0000
3000
,
0000
0000
0100
0100
,
0100
0100
0100
0220
,
0000
0000
0000
0000
,
0000
0000
0000
0000
,
0000
0000
0000
0000
,
0000
0000
0000
0000
,
0330
0000
0000
0000
;

//---------------dance-double - D-HEAVY----------------
#NOTES:
     dance-double:
     DJ OMiY-HDP:
     Hard:
     9:
     0.574309,0.663455,0.445732,0.205723,0.115719,393.000000,52.000000,24.000000,0.000000,0.000000,0.000000,0.574309,0.663455,0.445732,0.205723,0.115719,393.000000,52.000000,24.000000,0.000000,0.000000,0.000000:
// measure 0
00000000
00000000
00000000
00000000
,  // measure 1
00000000
00000000
00000000
00000000
,  // measure 2
00000000
00000000
00000000
00000000
,  // measure 3
00000000
00000000
00000000
00000000
00000000
10000000
01000000
00100000
,  // measure 4
00010000
00000000
00000000
00000000
,  // measure 5
00000000
00000000
00000000
00000000
00000000
00000001
00000010
00000100
,  // measure 6
00001000
00000000
00011000
00000000
,  // measure 7
00010000
00000000
00000000
00000100
00000000
00000000
00001000
00000000
00010000
00000000
01000000
00000000
00100000
00000000
00010000
00000000
,  // measure 8
00001000
00000000
00001000
00010000
00000000
00010000
00000100
00000000
,  // measure 9
00000010
00000100
00000010
00000100
00001000
00000000
00000101
00000000
,  // measure 10
00001100
00000000
00000010
00000001
00000000
00000001
00000100
00000000
,  // measure 11
00000010
00000000
00001000
00000001
00001000
00000000
00000100
00000000
00010100
00000000
00000000
00000000
00011000
00000000
00000000
00000000
,  // measure 12
00101000
00000000
00010000
10000000
00000000
10000000
00010000
00000000
,  // measure 13
00100000
00001000
00100000
00001000
00020000
02000000
00000000
03030000
,  // measure 14
01010000
00000000
10000000
00000000
11000000
00000000
00000000
10100000
,  // measure 15
00000000
01010000
00010000
00000000
00011000
00000000
00000000
00010000
,  // measure 16
00000010
00000010
00001000
00001000
,  // measure 17
00000100
00000000
00000100
00000000
00010000
00001000
00010000
00000010
,  // measure 18
00000100
00000100
00001000
00001000
,  // measure 19
00010000
00100000
00010000
00001000
00000020
00000000
00000001
00000000
,  // measure 20
00000130
00001000
00000010
00000100
,  // measure 21
00000001
00000000
00001000
00000000
00000100
00010000
00000100
00000000
,  // measure 22
00001000
00010000
00100000
01000000
,  // measure 23
10000000
00010000
10000000
01000000
00200000
00000000
00300000
00100000
,  // measure 24
00001000
00010000
00000100
00001000
00000010
00001000
00000100
00010000
,  // measure 25
00001000
01000000
00001000
00010000
00000100
00000010
00000001
00001000
,  // measure 26
00000100
00000000
00000000
00001000
00000000
00000000
00000001
00000000
00000100
00000000
00001000
00000000
00010000
00000000
01000000
00000000
,  // measure 27
00100000
00000000
00000000
00010000
00000000
00000000
10000000
00000000
00020000
00000000
00000000
00000000
00030000
00000000
00010000
00000000
,  // measure 28
00100000
00001000
00010000
00000010
00001000
00000100
00010000
00001000
,  // measure 29
00100000
00010000
01000000
00001000
00100000
00010000
10000000
01000000
,  // measure 30
00200000
00302000
00023000
00030020
,  // measure 31
00000130
00000101
00001100
00000011
,  // measure 32
00001000
00001000
00000100
00000000
00010000
00000000
00001000
00000000
,  // measure 33
00100000
00100000
01000000
00000000
00100000
00000000
00001000
00000000
,  // measure 34
00020000
00000000
00000000
01000000
02030000
00000000
03000000
00000000
,  // measure 35
00100000
00010000
01000000
10000000
,  // measure 36
02000000
00000000
00000000
03000000
00000000
00000000
00010000
00100000
00001000
00010000
00000100
00001000
,  // measure 37
00000010
00000000
00000000
00000000
00000000
00000000
00001000
00000100
00010000
00001000
00100000
00010000
,  // measure 38
01000000
00000000
00010000
00100000
,  // measure 39
00001000
00001000
00010000
00020000
00002000
00000000
00033000
00000000
,  // measure 40
00011000
00000000
00000000
00000000
,  // measure 41
00000011
00000000
00000000
00000000
,  // measure 42
00011000
00000000
00000000
00000000
,  // measure 43
11000000
00000000
00000000
00000000
,  // measure 44
00011000
00000100
00000001
00000010
,  // measure 45
00011000
01000000
10000000
00100000
,  // measure 46
00011000
00000010
00011000
00100000
,  // measure 47
00001000
00010000
00000100
00001000
00000100
00010000
00001000
00100000
00010000
00100000
00001000
00010000
,  // measure 48
00001000
00000000
00000000
00000000
,  // measure 49
00000000
00000000
00000000
00000000
,  // measure 50
00010000
00000000
00001000
00010000
00001000
00000000
00010000
00000000
00002000
00000000
00000000
00000000
00003100
00000000
00000000
00000000
,  // measure 51
00011000
00001000
00100000
00001000
00010000
00000100
00000010
00000000
,  // measure 52
00000001
00000000
00000000
00000001
00000010
00000000
00000100
00000000
00001000
00000000
00000000
00000000
00000100
00000000
00010000
00000000
,  // measure 53
00001000
00000000
00100000
00001000
00100000
01000000
10000000
00100000
,  // measure 54
01000000
00100000
10000000
00010000
00100000
00000000
00001000
00010000
,  // measure 55
00000100
00000010
00000100
00000000
00000000
00001000
00000100
00001100
,  // measure 56
00000000
00000000
00010000
00000000
00000100
00000000
00000000
00000000
00000000
00000000
00010000
00001000
00010000
00000000
00001000
00000000
,  // measure 57
01000000
00100000
01100000
00000000
10000000
00010000
10010000
00000000
,  // measure 58
01100000
00000000
00000000
00000000
00011000
00000000
00000000
00000000
00000110
00000000
00000000
00001000
00000001
00000000
00001000
00000000
,  // measure 59
00000100
00000010
00000100
00010000
00001000
00100000
00010000
00000000
,  // measure 60
10000000
00000000
00000000
10000000
01000000
00000000
00100000
00000000
00010000
00000000
00000000
00000000
00100000
00000000
00001000
00000000
,  // measure 61
00010000
00000000
00001000
00000100
00000010
00000100
00000001
00000100
,  // measure 62
00000010
00001000
00000100
00010000
00001000
00000000
00100000
00001000
,  // measure 63
00100000
00000000
00110000
00000000
00000000
10000000
00010000
01010000
,  // measure 64
00000000
00000000
00010000
00000000
00100000
00000000
00000000
00000000
00000000
00000000
01000000
10000000
01000000
00000000
00100000
00000000
,  // measure 65
00001000
00010000
00011000
00000000
00010000
00000100
00000110
00000000
,  // measure 66
00001001
00011000
10010000
00000000
,  // measure 67
00100000
10000000
01000000
00010000
,  // measure 68
00000100
00000010
00000001
00000100
,  // measure 69
00001000
00010000
00000000
00000000
00001000
00010000
00000000
00000000
,  // measure 70
00002000
00003200
00000302
00000023
,  // measure 71
00002030
00000000
00000000
00000000
,  // measure 72
00003000
00000000
00000000
00000000
,  // measure 73
00011000
00000000
00010000
00100000
00000000
00100000
10000000
00000000
,  // measure 74
01000000
10000000
01000000
10000000
00010000
00000000
00110000
00000000
,  // measure 75
01010000
00000000
00010000
00100000
00000000
00100000
00001000
00000000
,  // measure 76
00010000
00000000
00000100
00001000
00000100
00000000
00001000
00000000
00001010
00000000
00000000
00000000
00001001
00000000
00000000
00000000
,  // measure 77
00000110
00000100
00000010
00010000
00001000
00010000
00000100
00001000
,  // measure 78
00000010
00000100
00000010
00000100
00002000
00020000
00000000
00033000
,  // measure 79
00011000
00001000
00100000
00000000
00110000
00000000
00000000
10100000
,  // measure 80
00000000
00110000
00100000
00000000
00011000
00000000
00001100
00000000
,  // measure 81
00011000
00000000
00110000
00000000
00011000
00000000
00000100
00002200
,  // measure 82
00000000
00000000
00000000
00000000
,  // measure 83
00000000
00000000
00000000
00000000
,  // measure 84
00000000
00000000
00000000
00000000
,  // measure 85
00000300
00000000
00000000
00000000
,  // measure 86
00003100
00000000
00000000
00000000
;

//---------------dance-double - D-STANDARD----------------
#NOTES:
     dance-double:
     DJ OMiY-SDP:
     Medium:
     6:
     0.464100,0.552879,0.351443,0.205723,0.025715,314.000000,41.000000,24.000000,0.000000,0.000000,0.000000,0.464100,0.552879,0.351443,0.205723,0.025715,314.000000,41.000000,24.000000,0.000000,0.000000,0.000000:
// measure 0
00000000
00000000
00000000
00000000
,  // measure 1
00000000
00000000
00000000
00000000
,  // measure 2
00000000
00000000
00000000
00000000
,  // measure 3
00000000
00000000
00000000
00000000
00000000
00001000
00010000
00001000
,  // measure 4
00000010
00000000
00000000
00000000
,  // measure 5
00000000
00000000
00000000
00000000
00000000
00001000
00010000
00001000
,  // measure 6
01000000
00000000
00001000
00000000
,  // measure 7
00010000
00000100
00022000
00033000
,  // measure 8
00001000
00100000
00010000
10000000
,  // measure 9
01000000
00100000
01000000
00100000
01000000
00000000
10000000
00000000
,  // measure 10
00010000
00100000
00001000
00010000
,  // measure 11
00000100
00000010
00000001
00000000
00001100
00000000
00000101
00000000
,  // measure 12
00000010
00001000
00000100
00010000
,  // measure 13
00001000
00100000
00001000
00100000
00001000
00020000
00000000
00030000
,  // measure 14
00010100
00000000
00000000
00000000
00011000
00000000
00000000
00101000
,  // measure 15
00000000
00100000
00010000
00000000
20020000
00000000
30030000
00010000
,  // measure 16
01000000
00100000
10000000
01000000
,  // measure 17
00100000
00000000
00001000
00000000
00010000
00000100
00010000
00000000
,  // measure 18
00001000
00000100
00000001
00000010
,  // measure 19
00000100
00001000
00000100
00001000
00020000
00000000
00030000
00000000
,  // measure 20
00100000
00010000
10000000
00100000
,  // measure 21
01000000
00000000
00010000
00000000
10000000
00100000
10000000
00000000
,  // measure 22
01000000
00100000
00001000
00010000
,  // measure 23
00000010
00001000
00000001
00001000
00000200
00000000
00000300
00000000
,  // measure 24
00000010
00001100
00000010
00000101
,  // measure 25
00001000
00000000
00010100
00000000
00001000
00100000
00010000
00000000
,  // measure 26
10000000
00000000
00000000
00010000
00000000
00000000
00100000
00000000
00001000
00000000
00000000
00000000
00011000
00000000
00000000
00000000
,  // measure 27
00010000
00000000
00000000
00000010
00000000
00000000
00000100
00000000
00000002
00000000
00000000
00000000
00000003
00000000
00000001
00000000
,  // measure 28
00000100
00000010
00010000
00001000
,  // measure 29
00000100
00000000
00000010
00000000
00010000
00000000
00001000
00100000
,  // measure 30
00020000
20030000
30200000
02300000
,  // measure 31
03010000
11000000
00110000
10010000
,  // measure 32
00100000
00001000
00100000
00000000
00010000
00000000
10000000
00000000
,  // measure 33
01000000
00100000
01000000
00000000
00010000
00000000
00001000
00000000
,  // measure 34
00000200
00000000
00000000
00000310
00000100
00000000
00000000
00000000
,  // measure 35
00000001
00000100
00001000
00010000
,  // measure 36
00011000
00000000
00002000
00203000
,  // measure 37
00310000
00000000
20000000
30020000
,  // measure 38
00130000
00001000
00001000
01000000
,  // measure 39
00010000
00100000
00001000
00100000
00020000
00000000
00030000
00000000
,  // measure 40
00011000
00000000
00000000
00000000
,  // measure 41
00000110
00000000
00000000
00000000
,  // measure 42
00011000
00000000
00000000
00000000
,  // measure 43
01100000
00000000
00000000
00000000
,  // measure 44
00011000
00001000
00000001
00001000
,  // measure 45
00011000
00010000
10000000
00010000
,  // measure 46
00011000
00000100
00011000
01000000
,  // measure 47
00001000
00000000
00001000
00100000
00000000
00100000
00001000
00000000
00001000
00010000
00000000
00010000
,  // measure 48
00000100
00000000
00000000
00000000
,  // measure 49
00000000
00000000
00000000
00000000
,  // measure 50
00010000
00001000
00010000
00001000
00020000
00000000
00130000
00000000
,  // measure 51
00010000
00001000
00000000
00001000
00000100
00000000
00000001
00000000
,  // measure 52
00000010
00000000
00000001
00000010
00001000
00000000
00010000
00000000
,  // measure 53
00001000
00000000
00000000
00100000
00001000
00000000
00010000
00000000
,  // measure 54
00001000
01000000
00100000
01000000
10000000
00000000
01000000
00000000
,  // measure 55
00010000
01000000
00010000
00000000
00000000
00110000
00000000
00101000
,  // measure 56
00000000
00010000
00000100
00000000
00000000
00001000
00000001
00000000
,  // measure 57
00000010
00001001
00000100
00001001
,  // measure 58
00000010
00000000
00001000
00000000
00010000
00000000
00100000
00100000
,  // measure 59
00010000
10000000
00000000
10000000
01000000
00000000
00100000
00000000
,  // measure 60
00010000
00000000
01000000
00100000
00010000
00000000
00001000
00000000
,  // measure 61
00010000
00000000
00001000
00010000
00000100
00000000
00000010
00000000
,  // measure 62
00000001
00000100
00000010
00001000
00000100
00000000
00010000
00000000
,  // measure 63
00001000
00010000
00000100
00000000
00000000
00000110
00000000
00000011
,  // measure 64
00000000
00000001
00001000
00000000
00000000
00000100
00010000
00001000
,  // measure 65
00100000
10010000
01000000
10010000
,  // measure 66
10000000
00100000
00020000
00030000
,  // measure 67
00011000
00000000
00000000
00000000
,  // measure 68
00011000
00000000
00000000
00000000
,  // measure 69
00001000
00010000
00000000
00000000
00010000
00001000
00000000
00000000
,  // measure 70
00010000
00000100
00001000
00100000
,  // measure 71
00020000
00000000
00000000
00000000
,  // measure 72
00030000
00000000
00000000
00000000
,  // measure 73
00011000
00001000
00000100
00000010
,  // measure 74
00000100
00000001
00000100
00000001
00001000
00000000
00000100
00000000
,  // measure 75
00010000
00001000
00100000
00010000
,  // measure 76
10000000
01000000
00100000
00000000
00110000
00000000
11000000
00000000
,  // measure 77
00100000
01000000
00100000
00000000
10000000
01000000
10000000
00000000
,  // measure 78
00010000
00100000
00001000
00100000
00010000
00002000
00000000
00000000
,  // measure 79
00003100
00000000
00000000
00000000
00000011
00000000
00000000
00001001
,  // measure 80
00000000
00000100
00010000
00000000
00001000
00000000
00011000
00000000
,  // measure 81
00100000
00000000
01100000
00000000
10010000
00000000
00200000
02000000
,  // measure 82
00000000
00000000
00000000
00000000
,  // measure 83
00000000
00000000
00000000
00000000
,  // measure 84
00000000
00000000
00000000
00000000
,  // measure 85
00300000
00000000
00000000
00000000
,  // measure 86
03100000
00000000
00000000
00000000
;

//---------------dance-double - D-LIGHT----------------
#NOTES:
     dance-double:
     DJ OMiY-LDP:
     Easy:
     4:
     0.292665,0.368586,0.120005,0.162864,0.000000,206.000000,14.000000,19.000000,0.000000,0.000000,0.000000,0.292665,0.368586,0.120005,0.162864,0.000000,206.000000,14.000000,19.000000,0.000000,0.000000,0.000000:
// measure 0
00000000
00000000
00000000
00000000
,  // measure 1
00000000
00000000
00000000
00000000
,  // measure 2
00000000
00000000
00000000
00000000
,  // measure 3
00000000
00000000
00000000
00010000
,  // measure 4
00011000
00000000
00000000
00000000
,  // measure 5
00000000
00000000
00000000
00001000
,  // measure 6
00011000
00000000
00011000
00000000
,  // measure 7
00001000
00100000
00020000
00000000
,  // measure 8
00031000
00000000
00000010
00000000
,  // measure 9
00001000
00000100
00010000
00000000
,  // measure 10
00001000
00000000
00100000
00000000
,  // measure 11
00010000
01000000
10000000
10000000
,  // measure 12
01000000
00000000
00010000
00000000
,  // measure 13
00100000
00001000
00010000
00000000
,  // measure 14
00011000
00000000
00000000
00000000
00000100
00000000
00000000
00010000
,  // measure 15
00000000
00001000
00010000
00000000
,  // measure 16
00001000
00000000
00000100
00000000
,  // measure 17
00000001
00000100
00000010
00000000
,  // measure 18
00001000
00000000
00000100
00000000
,  // measure 19
00010000
00001000
02000000
03000000
,  // measure 20
00100000
00000000
10000000
00000000
,  // measure 21
00010000
10000000
02000000
03000000
,  // measure 22
00100000
00000000
00010000
00000000
,  // measure 23
10000000
01000000
00020000
00030000
,  // measure 24
00001000
00001000
00000100
00000100
,  // measure 25
00000001
00000001
00000100
00000100
,  // measure 26
00001000
00000000
00010000
00001000
,  // measure 27
00010000
00000000
00000100
00000000
,  // measure 28
00010000
00010000
01000000
01000000
,  // measure 29
10000000
10000000
01000000
01000000
,  // measure 30
00010000
00001000
00010000
00001000
,  // measure 31
00000010
00000001
00000100
00001000
,  // measure 32
00011000
00000000
00100000
00000000
,  // measure 33
00010000
00000000
10000000
00000000
,  // measure 34
00200000
00000000
01300000
00000000
,  // measure 35
00010000
01000000
00100000
10000000
,  // measure 36
02000000
03000000
00100000
00001000
,  // measure 37
00020000
00030000
00000100
00001000
,  // measure 38
00000020
00000000
00000230
00000302
,  // measure 39
00002000
00000000
00003003
00000010
,  // measure 40
00001001
00000000
00000000
00000000
,  // measure 41
00001000
00000000
00000000
00000000
,  // measure 42
00011000
00000000
00000000
00000000
,  // measure 43
00100000
00000000
00000000
00000000
,  // measure 44
00010000
00100000
00010000
00100000
,  // measure 45
00001000
00010000
00001000
00010000
,  // measure 46
00000100
00001000
00000100
00001000
,  // measure 47
00000001
00000010
00000100
00001000
,  // measure 48
00011000
00000000
00000000
00000000
,  // measure 49
00000000
00000000
00000000
00000000
,  // measure 50
00100000
00002000
00020000
00033000
,  // measure 51
00001000
00100000
00010000
00000000
,  // measure 52
10000000
10000000
01000000
00100000
,  // measure 53
00010000
00000000
00100000
00001000
,  // measure 54
00010000
00000000
00000010
00000000
,  // measure 55
00000100
00000110
00000000
00001001
,  // measure 56
00000010
00001001
00000000
00000100
,  // measure 57
00000000
00000010
00000000
00000010
,  // measure 58
00000100
00001000
00020000
00000000
,  // measure 59
00031000
00010000
00000100
00000000
,  // measure 60
00000010
00000001
00000100
00000100
,  // measure 61
00001000
00000000
00010000
00001000
,  // measure 62
00100000
00000000
00010000
00000000
,  // measure 63
01000000
10010000
00000000
10010000
,  // measure 64
00100000
10010000
00000000
00100000
,  // measure 65
00000000
01000000
00000000
01000000
,  // measure 66
00100000
00010000
00001000
00000000
,  // measure 67
00020000
00000000
00000000
00000000
,  // measure 68
00032000
00000000
00000000
00000000
,  // measure 69
00013000
00000000
00001000
00000000
,  // measure 70
00010000
00001000
00000100
00001000
,  // measure 71
00020000
00000000
00000000
00000000
,  // measure 72
00030000
00000000
00000000
00000000
,  // measure 73
00001000
00000000
00100000
00000000
,  // measure 74
00010000
10000000
00010000
00000000
,  // measure 75
00100000
00000000
00001000
00000000
,  // measure 76
00010000
00000100
00001000
00000100
,  // measure 77
00010000
00000000
00001000
00000000
,  // measure 78
00000100
00000001
00000100
00000000
,  // measure 79
00000010
00000000
00000000
00000000
00001000
00000000
00000000
00000001
,  // measure 80
00000000
00000100
00000010
00000010
,  // measure 81
00001000
00000000
00000100
00000000
00001000
00000000
00000002
00002000
,  // measure 82
00000000
00000000
00000000
00000000
,  // measure 83
00000000
00000000
00000000
00000000
,  // measure 84
00000000
00000000
00000000
00000000
,  // measure 85
00000003
00000000
00000000
00000000
,  // measure 86
00003001
00000000
00000000
00000000
;
