#VERSION:0.82;
#TITLE:Limitation;
#SUBTITLE:;
#ARTIST:seiya-murai;
#TITLETRANSLIT:;
#SUBTITLETRANSLIT:;
#ARTISTTRANSLIT:;
#GENRE:Theme;
#ORIGIN:;
#CREDIT:;
#BANNER:Limitation-bn.png;
#BACKGROUND:Limitation-bg.png;
#PREVIEWVID:;
#JACKET:Limitation-jk.png;
#CDIMAGE:;
#DISCIMAGE:;
#LYRICSPATH:;
#CDTITLE:;
#MUSIC:Limitation.ogg;
#OFFSET:0.000000;
#SAMPLESTART:76.800003;
#SAMPLELENGTH:12.799995;
#SELECTABLE:YES;
#BPMS:0.000=150.000;
#STOPS:;
#DELAYS:;
#WARPS:;
#TIMESIGNATURES:0.000=4=4;
#TICKCOUNTS:0.000=4;
#COMBOS:0.000=1;
#SPEEDS:0.000=1.000=0.000=0;
#SCROLLS:0.000=1.000;
#FAKES:;
#LABELS:0.000=Song Start,
256.000=Song End;
#BGCHANGES:;
#KEYSOUNDS:;
#ATTACKS:
;

//---------------dance-single - BEGINNER----------------
#NOTEDATA:;
#CHARTNAME:xRGTMx-BEG;
#STEPSTYPE:dance-single;
#DESCRIPTION:BEGINNER;
#CHARTSTYLE:;
#DIFFICULTY:Beginner;
#METER:1;
#RADARVALUES:0.067671,0.058301,0.063767,0.036438,0.000000,41.000000,7.000000,4.000000,0.000000,0.000000,0.000000,0.000000,0.000000,0.067671,0.058301,0.063767,0.036438,0.000000,41.000000,7.000000,4.000000,0.000000,0.000000,0.000000,0.000000,0.000000;
#CREDIT:xRGTMx;
#NOTES:
0000
0000
0000
0000
,
0000
0000
0000
0000
,
0000
0000
0000
0000
,
0000
0000
0000
0000
,
0001
0000
0000
0000
,
0000
0000
0000
0000
,
1000
0000
0000
0000
,
0000
0000
0000
0000
,
0010
0000
0000
0000
,
0010
0000
0000
0000
,
0010
0000
0000
0000
,
0000
0000
0000
0000
,
0100
0000
0000
0000
,
0100
0000
0000
0000
,
0100
0000
0000
0000
,
0000
0000
0000
0000
,
1000
0000
0000
0000
,
1000
0000
0000
0000
,
1000
0000
0000
0000
,
0000
0000
0000
0000
,
0001
0000
0000
0000
,
0001
0000
0000
0000
,
0001
0000
0000
0000
,
0000
0000
0000
0000
,
1001
0000
0000
0000
,
0000
0000
0000
0000
,
0100
0000
0000
0000
,
0000
0000
0000
0000
,
1001
0000
0000
0000
,
0000
0000
0000
0000
,
0010
0000
0000
0000
,
0000
0000
0000
0000
,
2000
0000
3000
0000
,
0000
0000
0000
0000
,
2000
0000
3000
0000
,
0000
0000
0000
0000
,
0002
0000
0003
0000
,
0000
0000
0000
0000
,
0002
0000
0003
0000
,
0000
0000
0000
0000
,
0100
0000
0000
0000
,
0100
0000
0000
0000
,
0010
0000
0000
0000
,
0000
0000
0000
0000
,
0010
0000
0000
0000
,
0010
0000
0000
0000
,
0100
0000
0000
0000
,
0000
0000
0000
0000
,
1001
0000
0000
0000
,
0000
0000
0000
0000
,
1000
0000
0000
0000
,
0001
0000
0000
0000
,
1001
0000
0000
0000
,
0000
0000
0000
0000
,
0001
0000
0000
0000
,
1000
0000
0000
0000
,
0110
0000
0000
0000
,
0000
0000
0000
0000
,
0100
0000
0000
0000
,
0010
0000
0000
0000
,
0110
0000
0000
0000
,
0000
0000
0000
0000
,
0010
0000
0000
0000
,
0100
0000
0000
0000
,
1001
0000
0000
0000
;

//---------------dance-single - S-LIGHT----------------
#NOTEDATA:;
#CHARTNAME:xRGTMx-LSP;
#STEPSTYPE:dance-single;
#DESCRIPTION:S-LIGHT;
#CHARTSTYLE:;
#DIFFICULTY:Easy;
#METER:2;
#RADARVALUES:0.134040,0.204054,0.109315,0.036438,0.000000,87.000000,12.000000,4.000000,0.000000,0.000000,0.000000,0.000000,0.000000,0.134040,0.204054,0.109315,0.036438,0.000000,87.000000,12.000000,4.000000,0.000000,0.000000,0.000000,0.000000,0.000000;
#CREDIT:xRGTMx;
#NOTES:
0000
0000
0000
0000
,
0000
0000
0000
0000
,
0000
0000
0000
0000
,
0000
0000
0000
0000
,
1000
0000
0000
0000
,
0010
0000
0000
0000
,
0001
0000
0000
0000
,
0000
0000
0000
0000
,
1001
0000
1000
0000
,
0100
0000
0000
0000
,
1001
0000
0001
0000
,
0100
0000
0000
0000
,
0010
0000
1000
0000
,
0100
0000
0000
0000
,
0010
0000
0001
0000
,
0100
0000
0000
0000
,
0001
0000
0001
0000
,
0010
0000
0000
0000
,
0010
0000
0010
0000
,
0100
0000
0000
0000
,
0100
0000
0100
0000
,
1000
0000
0000
0000
,
1000
0000
1000
0000
,
0001
0000
0000
0000
,
1001
0000
0000
0000
,
0100
0000
0000
0000
,
1001
0000
0000
0000
,
0010
0000
0010
0000
,
0110
0000
0000
0000
,
1000
0000
0001
0000
,
0110
0000
0000
0000
,
0001
0000
1000
0000
,
0002
0000
0003
0000
,
0000
0000
0100
0000
,
0200
0000
0300
0000
,
0000
0000
1001
0000
,
2000
0000
3000
0000
,
0000
0000
0100
0000
,
0200
0000
0300
0000
,
0000
0000
1001
0000
,
0001
0000
0001
0000
,
0100
0000
0100
0000
,
0010
0000
0010
0000
,
1000
0000
0001
0000
,
1000
0000
1000
0000
,
0100
0000
0100
0000
,
0010
0000
0000
0000
,
0000
0000
0000
0000
,
1000
0000
1000
0000
,
0100
0000
0000
0000
,
0001
0000
0001
0000
,
0010
0000
0000
0000
,
1000
0000
0100
0000
,
0001
0000
0000
0000
,
0001
0000
0010
0000
,
1000
0000
0000
0000
,
0001
0000
0100
0000
,
1000
0000
0000
0000
,
1000
0000
0010
0000
,
0001
0000
0000
0000
,
1000
1000
1000
0000
,
1001
0000
0000
0000
,
0001
0001
0001
0000
,
1001
0000
0110
0000
,
1001
0000
0000
0000
;

//---------------dance-single - S-STANDARD----------------
#NOTEDATA:;
#CHARTNAME:xRGTMx-SSP;
#STEPSTYPE:dance-single;
#DESCRIPTION:S-STANDARD;
#CHARTSTYLE:;
#DIFFICULTY:Medium;
#METER:4;
#RADARVALUES:0.236848,0.233204,0.072876,0.091095,0.000000,164.000000,8.000000,10.000000,0.000000,0.000000,0.000000,0.000000,0.000000,0.236848,0.233204,0.072876,0.091095,0.000000,164.000000,8.000000,10.000000,0.000000,0.000000,0.000000,0.000000,0.000000;
#CREDIT:xRGTMx;
#NOTES:
0000
0000
0000
0000
,
0000
0000
0000
0000
,
0000
0000
0000
0000
,
0000
0000
0000
0000
,
1000
0000
0010
0000
,
0001
0000
0000
0000
,
0001
0000
0100
0000
,
1000
0000
0000
0000
,
1000
1000
0100
0000
,
0010
0000
0100
0000
,
0001
0001
0100
0000
,
0010
0000
0100
0000
,
1000
1000
0100
0000
,
0100
1000
0001
0000
,
0001
0001
0100
0000
,
0100
0001
1000
0000
,
1000
0010
0010
0001
,
0010
1000
0100
0000
,
0001
0010
0010
1000
,
0010
0001
0100
0000
,
1000
0100
0100
0001
,
0100
1000
0010
1000
,
0001
0100
0100
1000
,
0100
0001
0010
0000
,
1000
0000
0100
0000
,
0001
0000
0010
0000
,
1001
0000
0010
0000
,
1001
0000
0100
0000
,
1000
0000
0001
0000
,
0100
0000
1000
0000
,
0001
0000
0010
0000
,
1001
0000
0110
0000
,
2001
0000
3010
0000
,
0010
0010
0100
0000
,
0200
0000
0301
0000
,
0001
0001
0010
0000
,
0002
0000
0013
0000
,
0010
0010
0100
0000
,
0200
0000
1300
0000
,
1000
1000
0001
0000
,
2000
0000
0010
0010
,
3020
0000
0130
0000
,
0200
0000
0001
0001
,
0302
0000
1003
0001
,
0002
0000
0010
0010
,
0023
0000
0130
0000
,
0100
0000
1000
0000
,
0001
0000
0110
1001
,
1000
0000
1000
0100
,
0010
0010
0100
0100
,
1000
0000
0001
0100
,
0010
0010
0100
0100
,
0001
0000
1000
0100
,
0001
0100
1000
1000
,
0001
0000
0001
0100
,
1000
0100
0001
0001
,
1000
0000
0100
0000
,
0001
0001
0100
0000
,
1000
0000
0010
0000
,
0001
0010
1000
0000
,
0001
0000
0100
0000
,
1000
1000
0100
0000
,
0001
0000
0010
0000
,
1000
1000
0010
0001
,
1001
0000
0000
0000
;

//---------------dance-single - S-HEAVY----------------
#NOTEDATA:;
#CHARTNAME:xRGTMx-HSP;
#STEPSTYPE:dance-single;
#DESCRIPTION:S-HEAVY;
#CHARTSTYLE:;
#DIFFICULTY:Hard;
#METER:8;
#RADARVALUES:0.515340,0.511045,0.273286,0.327944,0.318834,330.000000,30.000000,36.000000,0.000000,0.000000,0.000000,0.000000,0.000000,0.515340,0.511045,0.273286,0.327944,0.318834,330.000000,30.000000,36.000000,0.000000,0.000000,0.000000,0.000000,0.000000;
#CREDIT:xRGTMx;
#NOTES:
0000
0000
0000
0000
,
0000
0000
0000
0000
,
0000
0000
0000
0000
,
0000
0000
0000
0000
,
0001
0000
0010
0001
0000
0101
0000
0000
,
0100
0000
0020
0000
,
1030
0000
0000
0010
0000
0000
1000
0000
0001
0000
0000
0010
0000
0000
0100
0000
,
0000
0000
0110
1001
,
1000
0010
1000
0200
0000
0010
0000
0000
,
2300
0000
0010
0000
3002
0000
1003
0001
,
0000
0000
0001
0000
0010
0000
0100
0000
0000
0000
0010
0000
0000
0010
0000
0000
,
0000
0000
0001
0000
0000
1000
0000
0000
0001
0000
0100
0000
0100
0000
0000
0000
,
0001
0010
0001
0200
0000
0010
0000
0000
,
0302
0000
0010
0000
2003
0000
3001
1000
,
0010
0000
0000
1000
0000
0000
0001
0000
0010
0000
0000
0100
0000
0000
0100
0000
,
1000
0000
0000
0001
0000
0000
0000
0000
0011
0000
0001
0000
1000
0000
0000
0000
,
0001
0100
0001
0020
0000
0100
0000
0000
,
0032
0000
0100
0000
2003
0000
3001
1000
,
0000
0000
1000
0000
0100
0000
0010
0000
0000
0000
0100
0000
0000
0100
0000
0000
,
0000
0000
1000
0000
0000
0001
0000
0000
1000
0000
0010
0000
0010
0000
0000
0000
,
1000
0100
1000
0020
0000
0100
0000
0000
,
2030
0000
0100
0000
3002
0000
1003
0001
,
0100
0000
0000
0001
0000
0000
1000
0000
0100
0000
0000
0010
0000
0000
0010
0000
,
0001
0000
0000
1000
0000
0000
0000
0000
1100
0000
1000
0000
0001
0000
0000
0000
,
2000
0000
0000
0000
3000
0000
0101
0000
0000
0000
0010
0000
0000
1000
0000
0000
,
0001
0000
0000
0010
0000
0010
0001
0000
0000
1100
0000
0000
1001
0000
0000
0000
,
0002
0000
0000
0000
0003
0000
1100
0000
0000
0000
0010
0000
0000
0001
0000
0000
,
1000
0000
0010
0000
0000
1010
0000
0000
0101
0000
0001
0000
1000
0000
0000
0000
,
0100
0000
0000
0100
1000
0000
0010
0000
0000
0000
0100
0000
0000
0001
0000
0000
,
0001
0000
0000
0010
0000
0100
1000
0000
0000
0101
0000
0000
1100
0000
0000
0000
,
0010
0000
0000
0100
0001
0000
0010
0000
0000
0000
0100
0000
0000
1000
0000
0000
,
1000
0000
0010
0000
0000
0101
0000
0000
1100
0000
1000
0000
0001
1000
0000
0000
,
2000
0000
0000
0000
0000
0000
0000
0000
0000
0000
0010
0000
0000
0001
0000
0000
,
3200
0000
0320
0032
,
0203
0000
0000
0000
0000
0000
0310
0100
0020
0000
0000
0000
0000
0000
0000
0000
,
0030
0000
0010
0000
0000
1000
0000
0000
0001
0000
1000
0000
0001
0000
0000
0000
,
0002
0000
0000
0000
0000
0000
0000
0000
0000
0000
0100
0000
0000
1000
0000
0000
,
0023
0000
0230
2300
,
3020
0000
0000
0000
0000
0000
0130
0010
0200
0000
0000
0000
0000
0000
0000
0000
,
0300
0000
0100
0000
0000
0001
0000
0001
1000
0000
0010
0000
0110
0000
0000
0000
,
1000
0000
0000
0000
0001
0000
1000
0100
0000
0000
0010
0000
0010
0001
0000
0000
,
1000
0000
0001
0000
0100
0010
0000
0000
0010
0000
1000
0000
0000
0011
0000
0000
,
1001
0000
0000
0000
1000
0000
0001
0010
0000
0000
0100
0000
0100
1000
0000
0000
,
0001
0000
0100
0000
0000
1010
0000
0000
0011
0000
0000
0001
1000
0000
0000
0000
,
0001
0000
0000
0000
1000
0000
0001
0010
0000
0000
0100
0000
0100
1000
0000
0000
,
0001
0000
1000
0000
0010
0100
0000
0000
0100
0000
0001
0000
0000
1100
0000
0000
,
1001
0000
0000
0001
1000
0010
0001
1000
,
0100
0001
0010
0100
0020
0000
0032
0000
,
1003
0010
1000
0200
0000
0001
0000
1300
,
0100
0000
0000
0010
0000
0000
0010
0000
0001
1000
0000
0000
0001
0000
0100
0000
,
0000
0000
1000
0000
0100
0000
0001
0000
0000
0000
1000
0000
0000
0100
0000
0000
,
0000
0000
0110
0000
0000
1001
0000
0000
1000
0000
0001
0000
0100
0000
0000
0100
,
0001
0010
0001
0200
0000
1000
0000
0301
,
0100
0000
0000
0010
0000
0000
0010
0000
1000
0001
0000
0000
1000
0000
0000
0000
,
0100
0000
0000
0010
0000
0000
0001
0000
1000
0000
0000
0001
0000
0000
0100
0000
,
0010
0000
0000
0110
0000
0000
0000
0000
1001
0000
1000
0000
0001
0010
0000
0001
,
1000
0010
0100
0002
0000
2003
0000
3100
,
0010
0000
0000
0010
0001
0000
0100
0000
0000
0001
1000
0000
0001
0000
0010
0000
,
0000
0000
0001
0000
0010
0000
1000
0000
0000
0000
0010
0000
0001
1000
0000
0000
,
1000
0000
0010
0000
0000
0110
0000
0000
1001
0000
0001
0000
1000
0100
1000
0000
,
0001
0010
0100
2000
0000
3002
0000
0103
,
0010
0000
0000
0010
1000
0000
0100
0000
1000
0001
0010
0000
0000
1001
0000
0000
,
1000
0000
0000
0010
0000
0000
0001
0000
0010
0000
0000
1000
0000
0000
0001
0000
,
0010
0000
0000
0100
0000
0000
0000
0000
1001
0000
0001
0000
0100
0010
0100
0000
,
0020
0000
0000
0000
,
0000
0000
0000
0000
,
0030
0000
0000
0000
;

//---------------dance-single - S-CHALLENGE----------------
#NOTEDATA:;
#CHARTNAME:xRGTMx-CSP;
#STEPSTYPE:dance-single;
#DESCRIPTION:S-CHALLENGE;
#CHARTSTYLE:;
#DIFFICULTY:Challenge;
#METER:5;
#RADARVALUES:0.231643,0.233204,0.081986,0.091095,0.000000,159.000000,9.000000,10.000000,76.000000,0.000000,0.000000,0.000000,0.000000,0.231643,0.233204,0.081986,0.091095,0.000000,159.000000,9.000000,10.000000,76.000000,0.000000,0.000000,0.000000,0.000000;
#CREDIT:xRGTMx;
#NOTES:
0000
0000
0000
0000
,
0000
0000
0000
0000
,
0000
0000
0000
0000
,
0000
0000
0000
0000
,
0001
0000
0000
0100
0000
1000
0000
0000
,
0010
0000
0001
0000
,
1000
0000
0000
0100
0001
0000
0010
1000
,
0000
0000
MMMM
0000
,
0001
0000
0001
0010
0000
0100
0000
0000
,
0010
0000
MMMM
0000
,
0000
1000
0010
0100
0000
0000
0000
0000
,
0010
0000
MMMM
0000
,
0001
0000
0001
0010
0000
0100
0000
0000
,
0010
0000
MMMM
0000
,
0000
1000
0000
0000
0010
0000
0000
0100
,
0000
0000
1001
MMMM
,
0001
0100
0100
1000
,
0100
0001
0010
0000
,
1000
0100
0100
0001
,
0100
1000
0010
MMMM
,
0001
0010
0010
1000
,
0010
0001
0100
0001
,
1000
0010
0010
0001
,
0010
1000
0100
MMMM
,
0001
0000
0000
0010
0000
0000
0000
0000
,
1000
0000
0000
0100
0000
0000
1001
0000
,
0001
0000
0000
0100
0000
0000
0000
0000
,
0000
1001
0000
0000
0010
0000
MMMM
0000
,
1000
0000
0000
0001
0000
0000
0000
0000
,
0010
0000
0000
0100
0000
0000
1001
0000
,
1000
0000
0000
0001
0000
0000
0000
0000
,
0000
1001
0000
0000
0110
0000
MMMM
0000
,
1002
0000
0103
0000
,
0100
0100
0010
0000
,
0020
0000
1030
0000
,
1000
1000
0100
0000
,
2000
0000
3100
0000
,
0100
0100
0010
0000
,
0020
0000
0031
0000
,
0001
0001
1000
MMMM
,
0002
0000
0100
0100
,
0203
0000
0310
0000
,
0020
0000
1000
1000
,
2030
0000
3001
1000
,
2000
0000
0100
0100
,
3200
0000
0310
0000
,
0010
0001
1000
0010
,
0100
0000
MMMM
0000
,
1000
0000
1000
0100
0000
0010
0000
0000
,
0100
0000
MMMM
0000
,
0000
0001
0100
0010
0000
0000
0000
0000
,
0100
0000
MMMM
0000
,
1000
0000
1000
0100
0000
0010
0000
0000
,
0100
0000
MMMM
0000
,
0000
0001
0000
0000
0100
0000
0000
0010
,
0000
0000
1001
MMMM
,
1000
0100
1000
0100
0000
0010
0000
0000
,
0001
0000
MMMM
0000
,
0000
1000
0001
0100
0000
0000
0000
0000
,
1000
0100
0001
MMMM
,
0001
0010
0001
0010
0000
0100
0000
0000
,
1000
0000
MMMM
0000
,
0000
0001
1000
0010
0000
0000
0000
0000
,
0001
0010
1000
MMMM
,
1001
0000
0000
0000
;

//---------------dance-double - D-HEAVY----------------
#NOTEDATA:;
#CHARTNAME:DJ OMiY-HDP;
#STEPSTYPE:dance-double;
#DESCRIPTION:D-HEAVY;
#CHARTSTYLE:;
#DIFFICULTY:Hard;
#METER:7;
#RADARVALUES:0.435957,0.511045,0.072876,0.209519,0.104760,304.000000,8.000000,23.000000,0.000000,0.000000,0.000000,0.000000,0.000000,0.435957,0.511045,0.072876,0.209519,0.104760,304.000000,8.000000,23.000000,0.000000,0.000000,0.000000,0.000000,0.000000;
#CREDIT:DJ OMiY;
#NOTES:
// measure 0
00000000
00000000
00000000
00000000
,  // measure 1
00000000
00000000
00000000
00000000
,  // measure 2
00000000
00000000
00000000
00000000
,  // measure 3
00000000
00000000
00000000
00000000
,  // measure 4
00000000
00000000
00000000
00000000
,  // measure 5
00000000
00000000
00000000
00000000
,  // measure 6
00000000
00000000
00000000
00000000
,  // measure 7
00000000
00000000
00000000
00000000
,  // measure 8
00010000
00001000
00010000
00200000
00000000
00310000
00000000
00000000
,  // measure 9
00001000
00000000
00010000
00000000
00001000
00000000
00000100
00000010
,  // measure 10
00000000
00000001
00000010
00000200
00000000
00000000
00000301
00000000
,  // measure 11
00001000
00000000
00000100
00000000
00010000
00000100
00010000
00001000
,  // measure 12
00010000
00001000
00010000
00200000
00000000
00310000
00000000
00000000
,  // measure 13
00001000
00010000
00000100
00010000
,  // measure 14
00001000
00000000
00000000
00100000
00000000
00000000
00010000
00000000
10000000
00000000
00000000
01000000
00000000
00000000
00010000
00000000
,  // measure 15
01000000
00000000
00000000
00100000
00000000
00000000
00000000
00000000
00010000
00000000
00100000
00000000
01000000
00000000
00100000
00000000
,  // measure 16
00001000
00010000
00001000
00000020
00000000
00001030
00000000
00000000
,  // measure 17
00010000
00000000
00001000
00000000
00010000
00000000
00100000
01000000
,  // measure 18
00000000
10000000
01000000
00200000
00000000
00300000
00000000
00000000
,  // measure 19
10000000
00000000
00010000
00000000
00100000
00000000
00001000
00010000
,  // measure 20
00001000
00010000
00001000
00000020
00000000
00001030
00000000
00000000
,  // measure 21
00010000
00001000
00100000
00001000
,  // measure 22
00010000
00000000
00000000
00000100
00000000
00000000
00000010
00000000
00000001
00000000
00000000
00000100
00000000
00000000
00001000
00000000
,  // measure 23
00000100
00000000
00000000
00000010
00000000
00000000
00000000
00000000
00001000
00000000
00000100
00000000
00000010
00000000
00000100
00000000
,  // measure 24
00010000
00000000
00000000
00011000
00000000
00000000
00001000
00000000
,  // measure 25
00010000
00000000
00000000
00000100
00000000
00000100
00010000
00000000
00000000
00001000
00000000
00000000
00000100
00000000
00000000
00000000
,  // measure 26
00000001
00000000
00000000
00001001
00000000
00000000
00000100
00000000
,  // measure 27
00000000
00000000
00000001
00000000
00000000
00001000
00000000
00001000
00000100
00000000
00010000
00000000
00001000
00000000
00000000
00000000
,  // measure 28
00100000
00000000
00000000
10010000
00000000
00000000
01000000
00000000
,  // measure 29
00100000
00000000
00000000
10000000
00000000
10000000
00010000
00000000
00000000
00100000
00000000
00000000
00001000
00000000
00000000
00000000
,  // measure 30
00010000
00000000
00000000
00011000
00000000
00000000
00001000
00000000
,  // measure 31
00000000
00000000
00010000
00000000
00000000
00000100
00000000
00000000
00000010
00000000
00000100
00000000
00010000
00000000
00001000
00000000
,  // measure 32
00100000
00010000
00100000
00010000
00100000
00010000
00100000
00010000
,  // measure 33
00100000
00010000
00100000
00010000
00100000
00010000
10000000
02000000
,  // measure 34
00100000
00000000
00000000
00000000
00000000
00000000
13000000
01000000
00200000
00000000
00000000
00000000
00000000
00000000
00000000
00000000
,  // measure 35
00001000
00000000
00001000
00000000
00301000
00010000
00001000
00010000
,  // measure 36
00000010
00001000
00000010
00001000
00000010
00001000
00000010
00001000
,  // measure 37
00000010
00001000
00000010
00001000
00000010
00001000
00000001
00000020
,  // measure 38
00000100
00000000
00000000
00000000
00000000
00000000
00000031
00000010
00000200
00000000
00000000
00000000
00000000
00000000
00000000
00000000
,  // measure 39
00010000
00000000
00001000
00000000
00010300
00000100
00010000
00001000
,  // measure 40
00100000
00001000
00100000
00001000
00100000
00001000
00100000
00001000
,  // measure 41
00100000
00001000
00100000
00001000
00100000
00010000
00100000
00001000
,  // measure 42
00010000
00000100
00010000
00000100
00010000
00000100
00010000
00000100
,  // measure 43
00010000
00000100
00010000
00000100
00010000
00000100
00001000
00000001
,  // measure 44
00000020
00000000
00000000
00000000
00000130
00000010
00000100
00001000
,  // measure 45
00000001
00001100
00010000
01100000
,  // measure 46
20020000
30030000
02200000
03300000
,  // measure 47
10000000
01000000
00010000
00001000
00000010
00000001
00000100
00001000
,  // measure 48
00010000
00001000
00010000
00200000
00000000
00310000
00000000
00000000
,  // measure 49
00001000
00000000
00010000
00000000
00001000
00000000
00000100
00000010
,  // measure 50
00000000
00000001
00000010
00000200
00000000
00000000
00000301
00000000
,  // measure 51
00001000
00000000
00000100
00000000
00010000
00000100
00010000
00001000
,  // measure 52
00010000
00001000
00010000
00200000
00000000
00310000
00000000
00000000
,  // measure 53
00001000
00010000
00000100
00010000
,  // measure 54
00001000
00000000
00000000
00100000
00000000
00000000
00010000
00000000
10000000
00000000
00000000
01000000
00000000
00000000
00010000
00000000
,  // measure 55
01000000
00000000
00000000
00100000
00000000
00000000
00000000
00000000
00010000
00000000
00100000
00000000
01000000
00000000
00100000
00000000
,  // measure 56
00001000
00010000
00001000
00000020
00000000
00001030
00000000
00000000
,  // measure 57
00010000
00000000
00001000
00000000
00010000
00000000
00100000
01000000
,  // measure 58
00000000
10000000
01000000
00200000
00000000
00300000
00000000
00000000
,  // measure 59
10000000
00000000
00010000
00000000
00100000
00000000
00001000
00010000
,  // measure 60
00001000
00010000
00001000
00000020
00000000
00001030
00000000
00000000
,  // measure 61
00010000
00001000
00100000
00001000
,  // measure 62
00010000
00000000
00000000
00000100
00000000
00000000
00000010
00000000
00000001
00000000
00000000
00000100
00000000
00000000
00001000
00000000
,  // measure 63
00000100
00000000
00000000
00000010
00000000
00000000
00000000
00000000
00001000
00000000
00000100
00000000
00000010
00000000
00000100
00000000
,  // measure 64
00010000
00001000
00000100
00000002
00000000
00000200
00000000
00000000
,  // measure 65
00000000
00000000
00000000
00000000
,  // measure 66
00000303
00000000
00000000
00000000
;

//---------------dance-double - D-STANDARD----------------
#NOTEDATA:;
#CHARTNAME:DJ OMiY-SDP;
#STEPSTYPE:dance-double;
#DESCRIPTION:D-STANDARD;
#CHARTSTYLE:;
#DIFFICULTY:Medium;
#METER:5;
#RADARVALUES:0.305820,0.328171,0.109315,0.091095,0.027329,213.000000,12.000000,10.000000,0.000000,0.000000,0.000000,0.000000,0.000000,0.305820,0.328171,0.109315,0.091095,0.027329,213.000000,12.000000,10.000000,0.000000,0.000000,0.000000,0.000000,0.000000;
#CREDIT:DJ OMiY;
#NOTES:
// measure 0
00000000
00000000
00000000
00000000
,  // measure 1
00000000
00000000
00000000
00000000
,  // measure 2
00000000
00000000
00000000
00000000
,  // measure 3
00000000
00000000
00000000
00000000
,  // measure 4
00000000
00000000
00000000
00000000
,  // measure 5
00000000
00000000
00000000
00000000
,  // measure 6
00000000
00000000
00000000
00000000
,  // measure 7
00000000
00000000
00001000
00010000
,  // measure 8
00001000
00000000
00001000
00000100
00000000
00000001
00000000
00000000
,  // measure 9
00000020
00000000
00000000
00000000
00000130
00000000
00000010
00000100
,  // measure 10
00000000
00001000
00000100
00010000
00000000
00000000
00000000
00000000
,  // measure 11
00001000
00000000
00100000
00001000
,  // measure 12
00010000
00000000
00010000
01000000
00000000
10000000
00000000
00000000
,  // measure 13
00010000
00000000
01000000
00000000
,  // measure 14
00100000
00000000
00000000
00100000
10000000
00000000
00000000
10000000
,  // measure 15
01000000
00000000
00000000
00010000
00000000
00000000
00000000
00000000
00011000
00000000
00000000
00000000
00011000
00000000
00000000
00000000
,  // measure 16
00010000
00000000
00000100
00000010
00000000
00000100
00000000
00000000
,  // measure 17
00001000
00000000
00000000
00000000
00000001
00000000
00000010
00000001
,  // measure 18
00000000
00000100
00001000
00010000
00000000
00000000
00000000
00000000
,  // measure 19
00001000
00000000
00100000
00001000
,  // measure 20
00100000
00000000
00100000
10000000
00000000
00100000
00000000
00000000
,  // measure 21
00010000
00000000
10000000
00000000
,  // measure 22
01000000
00000000
00000000
01000000
00010000
00000000
00000000
00010000
,  // measure 23
00001000
00000000
00000000
00000100
00000000
00000000
00000000
00000000
00000101
00000000
00000000
00000000
00000101
00000000
00000000
00000000
,  // measure 24
00000010
00000000
00000000
00001100
00000000
00000000
00000010
00000000
,  // measure 25
00000001
00000000
00001000
00000000
00000100
00010000
00001000
00000000
,  // measure 26
00010000
00000000
00000000
00101000
00000000
00000000
00100000
00000000
,  // measure 27
00010000
00000000
10000000
00000000
00000000
00100000
00000000
00000000
10000000
00000000
00010000
00000000
10000000
00000000
00000000
00000000
,  // measure 28
01000000
00000000
00000000
00110000
00000000
00000000
00001000
00000000
,  // measure 29
00010000
00000000
00000100
00000000
00001000
00000100
00000010
00000000
,  // measure 30
00000001
00000000
00000000
00001001
00000000
00000000
00001000
00000000
,  // measure 31
00000100
00000000
00010000
00000000
00000000
00001000
00000000
00000000
00100000
00000000
00001000
00000000
00010000
00000000
00000000
00000000
,  // measure 32
00002000
00000000
00000100
00000000
,  // measure 33
00010000
00000000
00000000
00000000
00003100
00000000
00000001
00000020
,  // measure 34
00000000
00000000
00000000
00000100
00000130
00000000
00000000
00000000
,  // measure 35
00000010
00000001
00000100
00001000
,  // measure 36
00020000
00000000
00100000
00000000
,  // measure 37
00001000
00000000
00000000
00000000
01030000
00000000
10000000
02000000
,  // measure 38
00000000
00000000
00000000
03100000
01000000
00000000
00000000
00000000
,  // measure 39
00100000
00001000
00010000
00001000
,  // measure 40
00010000
00000100
00010000
00000000
00000100
00010000
00000100
00000000
,  // measure 41
00010000
00000100
00010000
00000000
00000100
00000000
00000010
00000000
,  // measure 42
00000001
00001000
00000001
00000000
00001000
00000001
00001000
00000000
,  // measure 43
00000001
00001000
00000001
00000000
00001000
00000000
00000100
00000000
,  // measure 44
00020000
00000000
00000000
00031000
,  // measure 45
00100000
01000000
10000000
00010000
,  // measure 46
02000000
00000000
03200000
00000000
,  // measure 47
10300000
00000000
01000000
00010000
00001000
00010000
00001000
00010000
,  // measure 48
00001000
00000000
00001000
00000100
00000000
00000001
00000000
00000000
,  // measure 49
00000020
00000000
00000000
00000000
00000130
00000000
00000010
00000100
,  // measure 50
00000000
00001000
00000100
00010000
00000000
00000000
00000000
00000000
,  // measure 51
00001000
00000000
00100000
00001000
,  // measure 52
00010000
00000000
00010000
01000000
00000000
10000000
00000000
00000000
,  // measure 53
00010000
00000000
01000000
00000000
,  // measure 54
00100000
00000000
00000000
00100000
10000000
00000000
00000000
10000000
,  // measure 55
01000000
00000000
00000000
00010000
00000000
00000000
00000000
00000000
00011000
00000000
00000000
00000000
00011000
00000000
00000000
00000000
,  // measure 56
00010000
00000000
00000100
00000010
00000000
00000100
00000000
00000000
,  // measure 57
00001000
00000000
00000000
00000000
00000001
00000000
00000010
00000001
,  // measure 58
00000000
00000100
00001000
00010000
00000000
00000000
00000000
00000000
,  // measure 59
00001000
00000000
00100000
00001000
,  // measure 60
00100000
00000000
00100000
10000000
00000000
00100000
00000000
00000000
,  // measure 61
00010000
00000000
10000000
00000000
,  // measure 62
01000000
00000000
00000000
01000000
00010000
00000000
00000000
00010000
,  // measure 63
00001000
00000000
00000000
00000100
00000000
00000000
00000000
00000000
00000101
00000000
00000000
00000000
00000101
00000000
00000000
00000000
,  // measure 64
00001000
00000000
00000100
00010000
00000000
00002000
00000000
00000000
,  // measure 65
00000000
00000000
00003000
00000000
;

//---------------dance-double - D-LIGHT----------------
#NOTEDATA:;
#CHARTNAME:DJ OMiY-LDP;
#STEPSTYPE:dance-double;
#DESCRIPTION:D-LIGHT;
#CHARTSTYLE:;
#DIFFICULTY:Easy;
#METER:3;
#RADARVALUES:0.222533,0.206046,0.081986,0.282396,0.000000,131.000000,9.000000,31.000000,0.000000,0.000000,0.000000,0.000000,0.000000,0.222533,0.206046,0.081986,0.282396,0.000000,131.000000,9.000000,31.000000,0.000000,0.000000,0.000000,0.000000,0.000000;
#CREDIT:DJ OMiY;
#NOTES:
// measure 0
00000000
00000000
00000000
00000000
,  // measure 1
00000000
00000000
00000000
00000000
,  // measure 2
00000000
00000000
00000000
00000000
,  // measure 3
00000000
00000000
00000000
00000000
,  // measure 4
00000000
00000000
00000000
00000000
,  // measure 5
00000000
00000000
00000000
00000000
,  // measure 6
00000000
00000000
00000000
00000000
,  // measure 7
00000000
00000000
00000000
00000000
,  // measure 8
00002002
00000000
00000000
00003000
00000000
00000003
00000000
00000000
,  // measure 9
00000010
00000000
00000100
00001000
,  // measure 10
00000100
00010000
00000000
00000000
,  // measure 11
00001000
00000000
01000000
00000000
,  // measure 12
20020000
00000000
00000000
00030000
00000000
30000000
00000000
00000000
,  // measure 13
00100000
00000000
10000000
00000000
,  // measure 14
01000000
00010000
01000000
10000000
,  // measure 15
01000000
00010000
00001000
00000000
,  // measure 16
00022000
00000000
00000000
00030000
00000000
00003000
00000000
00000000
,  // measure 17
00100000
00000000
00001000
00010000
,  // measure 18
00000100
00001000
00000000
00000000
,  // measure 19
00000001
00000000
00000010
00000000
,  // measure 20
00002200
00000000
00000000
00003000
00000000
00000300
00000000
00000000
,  // measure 21
00001000
00000000
00000100
00000000
,  // measure 22
00010000
00001000
00010000
00100000
,  // measure 23
01000000
00010000
00000000
00000000
,  // measure 24
20000000
00000000
00000000
30000000
00000000
00000000
00000000
00000000
,  // measure 25
01000000
00100000
00001000
00010000
,  // measure 26
00000200
00000000
00000000
00000300
00000000
00000000
00000000
00000000
,  // measure 27
00000010
00000100
00001000
00000001
,  // measure 28
00000020
00000000
00000000
00000030
00000000
00000000
00000000
00000000
,  // measure 29
00000001
00001000
00000100
00010000
,  // measure 30
00002000
00000000
00000000
00003000
00000000
00000000
00000000
00000000
,  // measure 31
01000000
00100000
01000000
00001000
,  // measure 32
00020000
00000000
00001000
00000000
,  // measure 33
00001000
00000000
00031000
10000000
,  // measure 34
00200000
00000000
02300000
00000000
,  // measure 35
03000000
00001000
00010000
00001000
,  // measure 36
00000200
00000000
00000010
00000000
,  // measure 37
00000010
00000000
00000310
00000100
,  // measure 38
00000002
00000000
00001003
00000000
,  // measure 39
00000000
00000010
00001000
00000001
,  // measure 40
00000200
00000000
00000010
00000000
,  // measure 41
00000010
00000000
00000310
00010000
,  // measure 42
00002000
00000000
00010000
00000000
,  // measure 43
00010000
00000000
00013000
00001000
,  // measure 44
00200000
00000000
00000000
00000000
,  // measure 45
00310000
00010000
10000000
10000000
,  // measure 46
00200000
00000000
00000000
00000000
,  // measure 47
00310000
00001000
00000100
00000001
,  // measure 48
00002002
00000000
00000000
00003000
00000000
00000003
00000000
00000000
,  // measure 49
00000010
00000000
00000100
00001000
,  // measure 50
00000100
00010000
00000000
00000000
,  // measure 51
00001000
00000000
01000000
00000000
,  // measure 52
20020000
00000000
00000000
00030000
00000000
30000000
00000000
00000000
,  // measure 53
00100000
00000000
10000000
00000000
,  // measure 54
01000000
00010000
01000000
10000000
,  // measure 55
01000000
00010000
00001000
00000000
,  // measure 56
00022000
00000000
00000000
00030000
00000000
00003000
00000000
00000000
,  // measure 57
00100000
00000000
00001000
00010000
,  // measure 58
00000100
00001000
00000000
00000000
,  // measure 59
00000001
00000000
00000010
00000000
,  // measure 60
00002200
00000000
00000000
00003000
00000000
00000300
00000000
00000000
,  // measure 61
00001000
00000000
00000100
00000000
,  // measure 62
00010000
00001000
00010000
00100000
,  // measure 63
01000000
00010000
00000000
00000000
,  // measure 64
00022000
00000000
00000000
00030000
00000000
00003000
00000000
00000000
;

//---------------dance-double - D-CHALLENGE----------------
#NOTEDATA:;
#CHARTNAME:DJ OMiY-CDP;
#STEPSTYPE:dance-double;
#DESCRIPTION:D-CHALLENGE;
#CHARTSTYLE:;
#DIFFICULTY:Challenge;
#METER:6;
#RADARVALUES:0.301916,0.294352,0.063767,0.081986,0.127534,216.000000,7.000000,9.000000,200.000000,0.000000,0.000000,0.000000,0.000000,0.301916,0.294352,0.063767,0.081986,0.127534,216.000000,7.000000,9.000000,200.000000,0.000000,0.000000,0.000000,0.000000;
#CREDIT:DJ OMiY;
#NOTES:
// measure 0
00000000
00000000
00000000
00000000
,  // measure 1
00000000
00000000
00000000
00000000
,  // measure 2
00000000
00000000
00000000
00000000
,  // measure 3
00000000
00000000
00000000
00000000
,  // measure 4
00000000
00000000
00000000
00000000
,  // measure 5
00000000
00000000
00000000
00000000
,  // measure 6
00000000
00000000
00000000
00000000
,  // measure 7
00000000
00000000
00011000
MMMMMMMM
,  // measure 8
00001000
00010000
00001000
00000100
00000000
00000010
00000000
00000000
,  // measure 9
00000100
00000000
00000000
00000000
00000001
00000000
00000010
00000001
,  // measure 10
00000000
00000010
00000100
00001000
00000000
00000000
00000100
00000000
,  // measure 11
MMMMMMMM
00000001
MMMMMMMM
00001000
,  // measure 12
00010000
00001000
00010000
01000000
00000000
00100000
00000000
00000000
,  // measure 13
01000000
00000000
10000000
00010000
,  // measure 14
00100000
00000000
00000000
00010000
00000000
00000000
MMMMMMMM
00000000
00100000
00000000
00000000
10000000
00000000
00000000
MMMMMMMM
00000000
,  // measure 15
00100000
00000000
00000000
00001000
00000000
00000000
00000000
00000000
00010000
00000000
00001000
00000000
00010000
00000000
00001000
00000000
,  // measure 16
00000100
00000010
00000100
00000001
00000000
00000100
00000000
00000000
,  // measure 17
00000010
00000000
00000000
00000000
00001000
00000000
00000100
00010000
,  // measure 18
00000000
00001000
00010000
00001000
00000000
00000000
00100000
00000000
,  // measure 19
MMMMMMMM
10000000
MMMMMMMM
00010000
,  // measure 20
00001000
00010000
00001000
00000010
00000000
00000001
00000000
00000000
,  // measure 21
00000100
00000000
00000010
00000000
,  // measure 22
00001000
00000000
00000000
00000100
00000000
00000000
MMMMMMMM
00000000
00000001
00000000
00000000
00000010
00000000
00000000
MMMMMMMM
00000000
,  // measure 23
00001000
00000000
00000000
00000010
00000000
00000000
00000000
00000000
00010000
00000000
00000000
00000000
00011000
00000000
00000000
00000000
,  // measure 24
00001000
00000000
00000000
00101000
00000000
00000000
00010000
00000000
,  // measure 25
00100000
00000000
MMMMMMMM
00000000
10000000
00100000
00010000
00000000
,  // measure 26
00001000
00000000
00000000
00011000
00000000
00000000
00010000
00000000
,  // measure 27
00000010
00000000
MMMMMMMM
00000000
00000001
00000100
00001000
00000000
,  // measure 28
00010000
00000000
00000000
00101000
00000000
00000000
00001000
00000000
,  // measure 29
00100000
00000000
MMMMMMMM
00000000
00010000
00001000
00010000
00000000
,  // measure 30
00000100
00000000
00000000
00001001
00000000
00000000
00000010
00000000
,  // measure 31
00000001
00000000
MMMMMMMM
00000000
00000001
00000010
00001000
00010000
,  // measure 32
00002000
00000100
00000100
00000100
,  // measure 33
00000100
00000000
00000100
00000000
00000100
00000000
00003100
00001000
,  // measure 34
00020000
00000000
02030000
00000000
,  // measure 35
13000000
00100000
00010000
00001000
,  // measure 36
00020000
01000000
01000000
01000000
,  // measure 37
01000000
00000000
01000000
00000000
01000000
00000000
01030000
00010000
,  // measure 38
00002000
00000000
00003200
00000000
,  // measure 39
00000301
00000010
00001000
00010000
,  // measure 40
00002000
00000100
00000100
00000100
,  // measure 41
00000100
00000000
00000100
00000000
00000100
00000000
00003100
00001000
,  // measure 42
00020000
01000000
01000000
01000000
,  // measure 43
01000000
00000000
01000000
00000000
01000000
00000000
01030000
00010000
,  // measure 44
00002000
00000000
00000000
00000010
,  // measure 45
00003010
00000001
00000100
00001000
,  // measure 46
0001000M
000000M0
00000M00
0000M000
000M0000
00M00000
0M000000
M0000000
0000000M
000000M0
00000M00
0000M000
000M0000
00M00000
0M000000
M0000000
,  // measure 47
M0000000
0M000000
00M00000
000M0000
0000M000
00000M00
000000M0
0000000M
M0000000
0M000000
00M00000
000M0000
0000M000
00000M00
000000M0
0000000M
,  // measure 48
00001000
00010000
00001000
00000100
00000000
00000010
00000000
00000000
,  // measure 49
00000100
00000000
00000000
00000000
00000001
00000000
00000010
00000001
,  // measure 50
00000000
00000010
00000100
00001000
00000000
00000000
00000100
00000000
,  // measure 51
MMMMMMMM
00000001
MMMMMMMM
00001000
,  // measure 52
00010000
00001000
00010000
01000000
00000000
00100000
00000000
00000000
,  // measure 53
01000000
00000000
10000000
00010000
,  // measure 54
00100000
00000000
00000000
00010000
00000000
00000000
MMMMMMMM
00000000
00100000
00000000
00000000
10000000
00000000
00000000
MMMMMMMM
00000000
,  // measure 55
00100000
00000000
00000000
00001000
00000000
00000000
00000000
00000000
00010000
00000000
00001000
00000000
00010000
00000000
00001000
00000000
,  // measure 56
00000100
00000010
00000100
00000001
00000000
00000100
00000000
00000000
,  // measure 57
00000010
00000000
00000000
00000000
00001000
00000000
00000100
00010000
,  // measure 58
00000000
00001000
00010000
00001000
00000000
00000000
00100000
00000000
,  // measure 59
MMMMMMMM
10000000
MMMMMMMM
00010000
,  // measure 60
00001000
00010000
00001000
00000010
00000000
00000001
00000000
00000000
,  // measure 61
00000100
00000000
00000010
00000000
,  // measure 62
00001000
00000000
00000000
00000100
00000000
00000000
MMMMMMMM
00000000
00000001
00000000
00000000
00000010
00000000
00000000
MMMMMMMM
00000000
,  // measure 63
00001000
00000000
00000000
00000010
00000000
00000000
00000000
00000000
00010000
00000000
00000000
00000000
00011000
00000000
00000000
00000000
,  // measure 64
00001000
00010000
00001000
00000100
00000000
00000100
00000000
00000000
;
