#VERSION:0.82;
#TITLE:Legendary Dragon;
#SUBTITLE:;
#ARTIST:Vivian;
#TITLETRANSLIT:;
#SUBTITLETRANSLIT:;
#ARTISTTRANSLIT:;
#GENRE:Battle Track;
#ORIGIN:;
#CREDIT:;
#BANNER:Legendary Dragon-bn.png;
#BACKGROUND:Legendary Dragon-bg.png;
#PREVIEWVID:;
#JACKET:Legendary Dragon-jk.png;
#CDIMAGE:;
#DISCIMAGE:;
#LYRICSPATH:;
#CDTITLE:;
#MUSIC:Legendary Dragon.ogg;
#OFFSET:-0.380000;
#SAMPLESTART:16.379999;
#SAMPLELENGTH:21.333334;
#SELECTABLE:YES;
#BPMS:0.000=180.000;
#STOPS:;
#DELAYS:;
#WARPS:;
#TIMESIGNATURES:0.000=4=4;
#TICKCOUNTS:0.000=4;
#COMBOS:0.000=1;
#SPEEDS:0.000=1.000=0.000=0;
#SCROLLS:0.000=1.000;
#FAKES:;
#LABELS:0.000=Song Start;
#BGCHANGES:;
#KEYSOUNDS:;
#ATTACKS:
;

//---------------dance-single - S-HEAVY----------------
#NOTEDATA:;
#CHARTNAME:DJ OMiY-HSP;
#STEPSTYPE:dance-single;
#DESCRIPTION:S-HEAVY;
#CHARTSTYLE:;
#DIFFICULTY:Hard;
#METER:10;
#RADARVALUES:0.931796,1.000000,0.478635,0.807110,0.319090,558.000000,51.000000,86.000000,0.000000,0.000000,0.000000,0.000000,0.000000,0.931796,1.000000,0.478635,0.807110,0.319090,558.000000,51.000000,86.000000,0.000000,0.000000,0.000000,0.000000,0.000000;
#CREDIT:DJ OMiY;
#NOTES:
// measure 0
0000
0000
0000
0000
,  // measure 1
1000
0000
0100
0000
1000
0000
0010
0000
1000
0001
1000
0000
0010
0100
0010
0100
,  // measure 2
0010
0000
1000
0000
0001
0000
0010
0000
0001
0010
0001
0000
1000
0000
0010
0000
,  // measure 3
1000
0000
0100
0000
1000
0000
0010
0000
0100
0010
0100
0000
0001
0000
0010
0000
,  // measure 4
0002
0003
0020
0030
2000
3000
0002
0003
0200
0300
2000
3000
0002
0003
2000
3000
,  // measure 5
0010
0000
0100
0000
0001
0000
1000
0000
0001
0010
0001
0000
1000
0010
1000
0010
,  // measure 6
1000
0000
0001
0000
0100
0000
0010
0000
1000
0001
1000
0000
0100
0000
0010
0000
,  // measure 7
0100
0000
1000
0000
0001
0000
0100
0000
0001
0010
0001
0000
1000
0000
0100
0000
,  // measure 8
0011
0001
1000
1001
0000
1000
0010
0101
,  // measure 9
0000
0001
1000
1010
0000
0100
0010
0100
,  // measure 10
1001
0110
1001
0110
,  // measure 11
0001
0011
1000
1100
,  // measure 12
0001
0000
0010
0000
0100
0000
0001
0000
0100
0000
1000
0000
0001
0000
0100
0001
,  // measure 13
0100
0000
0010
0000
0100
0000
1000
0000
0100
0000
0001
0000
0010
0000
0100
1000
,  // measure 14
0100
0010
0100
0001
0100
1000
0100
0010
,  // measure 15
0002
0003
0200
0300
2000
3000
0002
0003
0020
0030
2000
3000
0002
0003
2000
3000
,  // measure 16
0010
0000
0100
0000
0001
0000
0100
0000
0010
0000
1000
0000
0001
0000
0010
0100
,  // measure 17
1000
0000
0100
0000
0010
0000
1000
0000
0010
0000
0001
0000
0100
0000
0010
1000
,  // measure 18
0001
0100
0001
0100
1000
0001
1000
0100
,  // measure 19
0101
1000
0100
1000
0000
1001
0010
0000
,  // measure 20
0011
0000
0100
0000
1000
0000
0100
0000
0010
0000
0001
0000
0010
0000
0100
0010
,  // measure 21
0001
0000
1000
0000
0100
0000
1000
0000
0010
0000
0100
0000
0001
0000
1000
0100
,  // measure 22
1000
0000
0010
0000
0100
0000
0001
0000
1000
0010
1000
0010
0100
0001
1000
0001
,  // measure 23
2000
3000
0200
0300
0002
0003
2000
3000
0020
0030
0002
0003
2000
3000
0002
0003
,  // measure 24
0010
0000
0000
0000
0100
0000
0010
0000
0001
0000
1000
0000
0001
0000
0100
0001
,  // measure 25
1000
0010
0100
0001
1000
0100
1000
0010
,  // measure 26
0100
0010
1000
0001
0010
1000
0010
0001
,  // measure 27
0011
0100
1000
0001
0000
1010
0100
0000
,  // measure 28
1001
0000
1000
0000
0001
0000
0100
0000
1000
0000
0100
0000
0010
0000
0100
0001
,  // measure 29
1000
0000
0010
0000
1000
0000
0001
0000
0100
0000
0010
0000
1000
0000
0100
1000
,  // measure 30
0001
0000
0010
0000
0100
0000
0010
0000
0001
0000
1000
0000
0100
0010
0001
0000
,  // measure 31
2000
3000
0020
0030
0002
0003
2000
3000
0200
0300
0002
0003
2000
3000
0002
0003
,  // measure 32
0010
0000
0100
0000
0001
0000
0100
0000
1000
0000
0010
0000
0001
0000
0010
1000
,  // measure 33
0010
0000
0100
0000
0001
0000
0100
0000
0010
0000
0100
0000
1000
0000
0100
0001
,  // measure 34
0100
0010
1000
0100
0001
0100
0010
0001
,  // measure 35
0100
0100
0100
1010
,  // measure 36
0101
0000
0000
0000
0100
0000
0000
0000
0100
0000
0010
0000
0100
0000
0000
0100
,  // measure 37
0001
0001
0001
0011
,  // measure 38
1100
0000
0000
0000
1000
0000
0000
0000
0100
0000
0000
0000
1000
0000
0001
0010
,  // measure 39
0100
0100
0100
0011
,  // measure 40
1010
0000
0000
0000
1000
0000
0000
0000
1000
0000
0001
0000
0001
0100
0000
0000
,  // measure 41
0010
0010
0010
1001
,  // measure 42
0110
0000
0000
0000
0100
0000
0000
0000
0010
0000
0100
0000
0010
0000
0000
0010
,  // measure 43
1000
0000
1100
0001
0000
0001
1001
0000
,  // measure 44
0110
0010
0000
1000
1100
0000
0101
0000
,  // measure 45
1001
0000
0110
1000
0000
0100
0101
0000
,  // measure 46
0011
0001
0000
1000
1100
0000
1001
0000
,  // measure 47
0020
0032
0203
2300
,  // measure 48
3200
0302
0023
2030
,  // measure 49
3010
0001
0010
0000
0000
0000
0100
1000
0100
0000
0000
0000
0010
0001
1000
0000
,  // measure 50
0000
0000
0100
1000
0001
0000
0000
0000
0010
0001
0010
0100
0010
0100
1000
0100
,  // measure 51
0010
0000
0022
0000
0000
0000
0000
0000
0033
0000
0000
0000
0001
1000
0001
0000
,  // measure 52
0100
0000
0010
1000
0010
0000
0100
0000
0001
1000
0100
0000
1000
0001
0000
0001
,  // measure 53
0100
0000
0101
0000
0000
0000
0000
0000
0000
0000
0001
1000
0001
0000
0100
0000
,  // measure 54
0010
1000
0010
0000
0100
0000
0001
1000
0001
0000
0010
0000
0001
0100
0001
0000
,  // measure 55
1000
0000
2200
0000
0000
0000
0000
0000
3300
0000
1000
0000
0001
0010
0100
0000
,  // measure 56
0010
0000
0001
0010
0100
0000
1000
0000
0100
0010
0001
0000
0010
0100
0000
0100
,  // measure 57
1000
0000
0000
1100
0000
0000
0011
0000
,  // measure 58
0000
1001
0000
0000
0110
0000
0101
0000
,  // measure 59
0010
1000
0001
0000
0000
0000
0010
1000
0001
0000
0000
0000
0010
1000
0001
0000
,  // measure 60
0000
0000
0010
1000
0001
0000
0000
0000
0001
0000
0101
0000
1000
0000
1010
0000
,  // measure 61
0100
0001
1000
0000
0000
0000
0100
0001
1000
0000
0000
0000
0100
0001
1000
0000
,  // measure 62
0000
0000
0100
0001
1000
0000
0000
0000
0001
0000
0011
0000
1000
0000
1100
0000
,  // measure 63
0010
0100
1000
0000
0000
0000
0010
0100
1000
0000
0000
0000
0010
0100
1000
0000
,  // measure 64
0000
0000
0010
0100
1000
0000
0000
0000
1000
0000
1100
0000
0001
0000
0101
0000
,  // measure 65
0010
1000
0100
0001
0100
1000
0010
0001
,  // measure 66
0010
0100
1000
0100
0001
0100
0010
1000
,  // measure 67
0100
0001
1000
0001
0100
1000
0001
0010
,  // measure 68
0100
0010
1000
0010
0001
1000
0100
0001
,  // measure 69
0200
0300
2000
3000
0200
0300
0020
0030
0200
0300
2000
3000
0002
0003
0200
0300
,  // measure 70
2000
3000
0200
0300
0002
0003
2000
3000
0020
0030
0002
0003
0020
0030
2000
3000
,  // measure 71
0002
0003
0200
0300
2000
3000
0200
0300
0000
0000
0020
0030
0002
0003
0020
0030
,  // measure 72
2000
3000
0000
0000
0002
0003
0020
0030
2000
3000
0020
0030
0000
0000
0200
0300
,  // measure 73
0002
0003
0200
0300
2000
3000
0000
0000
0002
0003
0020
0030
0200
0300
2000
3000
,  // measure 74
0001
0100
0010
0000
0000
0000
1000
0100
0010
0000
0000
0000
0001
0100
0010
0000
,  // measure 75
0000
0000
1000
0100
0010
0000
0000
0000
0002
0003
2020
3030
0200
0300
0022
0033
;

//---------------dance-single - S-STANDARD----------------
#NOTEDATA:;
#CHARTNAME:DJ OMiY-SSP;
#STEPSTYPE:dance-single;
#DESCRIPTION:S-STANDARD;
#CHARTSTYLE:;
#DIFFICULTY:Medium;
#METER:8;
#RADARVALUES:0.691809,0.818900,0.253395,0.469250,0.000000,439.000000,27.000000,50.000000,0.000000,0.000000,0.000000,0.000000,0.000000,0.691809,0.818900,0.253395,0.469250,0.000000,439.000000,27.000000,50.000000,0.000000,0.000000,0.000000,0.000000,0.000000;
#CREDIT:DJ OMiY;
#NOTES:
// measure 0
0000
0000
0000
0000
,  // measure 1
0001
0010
0001
0100
0001
0010
0000
0000
,  // measure 2
0100
1000
0010
1000
0100
1000
0000
1000
,  // measure 3
0001
0010
0001
0100
0001
0010
0000
0100
,  // measure 4
2000
3200
0320
0032
0023
0230
2300
3002
,  // measure 5
1003
0010
0100
0001
1000
0001
0000
0000
,  // measure 6
0100
0001
1000
0001
0010
0001
0000
1000
,  // measure 7
0100
1000
0001
1000
0100
0010
0000
0100
,  // measure 8
1000
0100
1000
0001
0000
0001
0100
0010
,  // measure 9
0000
0010
1000
0100
0000
0100
0010
0001
,  // measure 10
0010
0110
1001
0110
,  // measure 11
0000
1100
0000
0101
,  // measure 12
0010
0001
0100
0010
0100
0001
1000
0000
,  // measure 13
0100
1000
0001
0100
1000
0100
0001
0000
,  // measure 14
0010
0001
0010
0001
0010
0100
1000
0000
,  // measure 15
0002
0023
0230
2300
3200
0320
0032
2003
,  // measure 16
3001
0100
0001
1000
0100
0010
0001
0000
,  // measure 17
1000
0100
1000
0010
0100
0010
1000
0000
,  // measure 18
0010
0100
0001
0010
0100
1000
0100
0000
,  // measure 19
0010
0100
0010
0100
0000
1000
0001
0000
,  // measure 20
0010
0001
0100
1000
0100
0001
1000
0100
,  // measure 21
0000
0010
0000
0100
0000
1000
0100
0010
,  // measure 22
0000
0001
0000
0100
0001
0010
0100
1000
,  // measure 23
0020
2030
3200
0320
0032
2003
3020
0230
,  // measure 24
0301
0000
0010
0001
0100
0010
1000
0100
,  // measure 25
0000
1000
0000
0001
0000
0010
1000
0010
,  // measure 26
0001
0010
0100
1000
0001
0010
0100
1000
,  // measure 27
0001
0100
0001
0100
0000
0010
1000
0000
,  // measure 28
0110
0000
0100
0001
0100
0010
1000
0000
,  // measure 29
1001
0000
0010
0001
1000
0100
1000
0000
,  // measure 30
0110
0000
1000
0100
0010
0001
1000
0000
,  // measure 31
0002
2003
3200
0320
0032
0023
0230
2300
,  // measure 32
3010
0100
0010
1000
0001
0010
0001
0000
,  // measure 33
1000
0100
0000
0010
0000
0100
1000
0000
,  // measure 34
0010
0100
0001
1000
0000
1000
0001
0100
,  // measure 35
0010
0010
0010
2000
,  // measure 36
3200
0000
0310
0000
0010
0100
0010
0000
,  // measure 37
0001
0001
0001
2000
,  // measure 38
3020
0000
0130
0000
0001
1000
0001
0000
,  // measure 39
1000
1000
1000
0002
,  // measure 40
0023
0000
0130
0000
0100
1000
0100
0000
,  // measure 41
0010
0010
0010
0002
,  // measure 42
2003
0000
3010
0000
0010
1000
0001
0000
,  // measure 43
0101
0000
0000
1100
0000
0000
0101
0000
,  // measure 44
0000
1010
0000
0001
1000
0000
0110
0000
,  // measure 45
0011
0000
0000
1100
0000
0000
1001
0000
,  // measure 46
0000
1010
0000
1000
0100
0000
0011
0000
,  // measure 47
2000
3200
0320
0032
,  // measure 48
0023
2030
3020
0032
,  // measure 49
1003
0100
0000
0001
0100
0000
1000
0100
,  // measure 50
0000
0001
0100
0000
1000
0100
0001
0100
,  // measure 51
1000
1001
0000
0000
0000
0000
0020
0000
,  // measure 52
0031
0001
1000
0100
0100
1000
0001
0000
,  // measure 53
1000
1001
0000
0000
0000
0000
0000
0000
,  // measure 54
0010
0001
0010
0001
0010
1000
0010
0001
,  // measure 55
1000
1001
0000
0000
0000
0000
0020
0000
,  // measure 56
1030
1000
0010
0100
0100
0001
1000
0000
,  // measure 57
0011
0000
0000
1100
0000
0000
0011
0000
,  // measure 58
0000
0101
0000
0000
1010
0000
1001
0000
,  // measure 59
0010
1000
0000
1000
0010
0000
0010
1000
,  // measure 60
0000
1000
0010
0000
0010
1000
0010
1000
,  // measure 61
0001
0010
0000
0010
0001
0000
0001
0010
,  // measure 62
0000
0010
0001
0000
0001
1000
0001
1000
,  // measure 63
0010
0100
0000
0100
0010
0000
0010
0100
,  // measure 64
0000
0100
0010
0000
0010
1000
0010
1000
,  // measure 65
0001
0010
0100
0010
0001
1000
0100
0000
,  // measure 66
1000
0010
0100
0010
0001
0010
1000
0000
,  // measure 67
0001
0010
0100
0010
0001
1000
0100
0000
,  // measure 68
1000
0001
0100
0010
1000
0100
1000
0000
,  // measure 69
0001
0010
0001
0100
0001
1000
0100
0010
,  // measure 70
0001
0010
0100
1000
0001
0100
0001
1000
,  // measure 71
0010
0100
0010
0100
0000
0001
0100
0001
,  // measure 72
0100
0000
0010
1000
0010
1000
0000
0100
,  // measure 73
0010
0100
0010
0000
0010
0001
0010
0100
,  // measure 74
1000
0001
0000
0001
0100
0000
0100
0010
,  // measure 75
0000
0010
1000
0000
0100
0001
0100
1000
;

//---------------dance-single - S-LIGHT----------------
#NOTEDATA:;
#CHARTNAME:DJ OMiY-LSP;
#STEPSTYPE:dance-single;
#DESCRIPTION:S-LIGHT;
#CHARTSTYLE:;
#DIFFICULTY:Easy;
#METER:5;
#RADARVALUES:0.341882,0.391648,0.028155,0.366015,0.000000,213.000000,3.000000,39.000000,0.000000,0.000000,0.000000,0.000000,0.000000,0.341882,0.391648,0.028155,0.366015,0.000000,213.000000,3.000000,39.000000,0.000000,0.000000,0.000000,0.000000,0.000000;
#CREDIT:DJ OMiY;
#NOTES:
// measure 0
0000
0000
0000
0000
,  // measure 1
0010
0100
0010
0000
,  // measure 2
1000
0100
0010
0000
,  // measure 3
0001
0010
0100
0000
,  // measure 4
1000
0000
0000
0001
0000
0000
1000
0000
,  // measure 5
0100
1000
0010
0000
,  // measure 6
0100
0001
0100
0000
,  // measure 7
0010
1000
0001
0000
,  // measure 8
0010
0000
0000
0100
0000
0000
0000
1000
,  // measure 9
0000
0000
0000
0001
0000
0000
0000
0000
,  // measure 10
0100
0100
0010
0110
,  // measure 11
0000
1001
0000
0110
,  // measure 12
1000
0100
0010
0001
,  // measure 13
1000
0001
0100
0000
,  // measure 14
0010
0100
0001
0010
,  // measure 15
0100
0000
0000
0010
0000
0000
0100
0000
,  // measure 16
1000
0100
1000
0010
,  // measure 17
0001
0010
1000
0000
,  // measure 18
0001
0010
0100
1000
,  // measure 19
0001
0000
0000
0000
0000
0100
0000
0000
,  // measure 20
0020
0000
1030
0100
,  // measure 21
0020
0000
0031
1000
,  // measure 22
0002
0023
0230
2300
,  // measure 23
3001
0000
0000
0100
0000
0000
0001
0000
,  // measure 24
2000
0000
3001
1000
,  // measure 25
0200
0000
0310
0100
,  // measure 26
2000
3200
0320
0032
,  // measure 27
1003
0000
0000
0000
0000
0010
0000
0000
,  // measure 28
0100
0001
0010
0100
,  // measure 29
0010
0001
1000
0100
,  // measure 30
0010
1000
0010
0001
,  // measure 31
1000
0000
0000
0001
0000
0000
1000
0000
,  // measure 32
0020
0100
0130
0100
,  // measure 33
0200
0001
0301
0001
,  // measure 34
1000
0001
0000
0001
,  // measure 35
2000
0000
0000
0100
,  // measure 36
3200
0000
0000
0000
,  // measure 37
0320
0000
0000
0001
,  // measure 38
0032
0000
0000
0000
,  // measure 39
0203
0000
0000
0010
,  // measure 40
0320
0000
0000
0000
,  // measure 41
2030
0000
0000
0001
,  // measure 42
0002
0000
0000
3003
,  // measure 43
0001
0000
0000
0100
0000
0000
0001
0000
,  // measure 44
0000
0100
0000
0000
0020
0000
0030
0000
,  // measure 45
1000
0000
0000
0100
0000
0000
1000
0000
,  // measure 46
0000
0100
0000
0000
2000
0000
3000
0000
,  // measure 47
0001
0010
0100
1000
,  // measure 48
0001
0010
0100
1000
,  // measure 49
0010
0000
0000
0010
0000
0000
0100
0000
,  // measure 50
0000
0100
0000
0000
0010
0000
0100
0000
,  // measure 51
0010
0010
0000
0000
0000
0000
0200
0000
,  // measure 52
0302
0000
0000
1000
0000
0000
0103
0000
,  // measure 53
0010
0010
0000
0000
0000
0000
0000
0000
,  // measure 54
0000
1000
0100
0010
,  // measure 55
0100
0100
0000
0000
0000
0000
2000
0000
,  // measure 56
3002
0000
0000
0010
0000
0000
1003
0000
,  // measure 57
0001
0000
0000
0001
0000
0000
1000
0000
,  // measure 58
0000
1000
0000
0000
0001
0000
1000
0000
,  // measure 59
0020
0000
0000
0030
0000
0000
0200
0000
,  // measure 60
0000
0300
0000
0000
0010
0000
1000
0000
,  // measure 61
0002
0000
0000
0003
0000
0000
0020
0000
,  // measure 62
0000
0030
0000
0000
0100
0000
1000
0000
,  // measure 63
0002
0000
0000
0003
0000
0000
0200
0000
,  // measure 64
0000
0300
0000
0000
0010
0000
0100
0000
,  // measure 65
0001
0001
0010
0000
,  // measure 66
0100
1000
0100
0000
,  // measure 67
1000
1000
0010
0000
,  // measure 68
0100
0001
1000
0000
,  // measure 69
0010
1000
0100
0010
,  // measure 70
0001
0100
0010
0100
,  // measure 71
0002
0000
0000
0003
0000
2000
0000
0000
,  // measure 72
3000
0000
0020
0000
0000
0030
0000
0200
,  // measure 73
0000
0300
0002
0000
,  // measure 74
1003
0000
0000
1000
0000
0000
0010
0000
,  // measure 75
0000
0010
0000
0000
0100
0010
0100
0010
;

//---------------dance-single - BEGINNER----------------
#NOTEDATA:;
#CHARTNAME:DJ OMiY-BEG;
#STEPSTYPE:dance-single;
#DESCRIPTION:BEGINNER;
#CHARTSTYLE:;
#DIFFICULTY:Beginner;
#METER:3;
#RADARVALUES:0.264121,0.284366,0.046925,0.431710,0.000000,146.000000,5.000000,46.000000,0.000000,0.000000,0.000000,0.000000,0.000000,0.264121,0.284366,0.046925,0.431710,0.000000,146.000000,5.000000,46.000000,0.000000,0.000000,0.000000,0.000000,0.000000;
#CREDIT:DJ OMiY;
#NOTES:
// measure 0
0000
0000
0000
0000
,  // measure 1
2000
0000
3000
0000
,  // measure 2
0002
0000
0003
0000
,  // measure 3
0200
0000
0300
0000
,  // measure 4
0020
0000
0000
0030
0000
0000
0100
0000
,  // measure 5
0200
0000
0300
0000
,  // measure 6
0002
0000
0003
0000
,  // measure 7
0020
0000
0030
0000
,  // measure 8
0200
0000
0000
0300
0000
0000
0000
2000
,  // measure 9
0000
0000
0000
3000
0000
0000
0000
0000
,  // measure 10
0001
1000
0001
1000
,  // measure 11
0000
0010
0000
0010
,  // measure 12
0010
0000
1000
0000
,  // measure 13
0100
0000
0001
0000
,  // measure 14
0100
0000
1000
0000
,  // measure 15
0002
0000
0000
0003
0000
0000
0001
0000
,  // measure 16
1000
0000
0100
0000
,  // measure 17
0010
0000
0100
0000
,  // measure 18
1000
0000
0010
0000
,  // measure 19
0200
0000
0000
0000
0000
0300
0000
0000
,  // measure 20
0010
0000
0100
0000
,  // measure 21
0001
0000
0010
0000
,  // measure 22
0100
0100
0100
0000
,  // measure 23
2000
0000
0000
3000
0000
0000
1000
0000
,  // measure 24
0001
0000
0010
0000
,  // measure 25
0001
0000
0100
0000
,  // measure 26
0010
0100
0010
0000
,  // measure 27
0200
0000
0000
0000
0000
0300
0000
0000
,  // measure 28
0001
0001
0001
0000
,  // measure 29
1000
1000
1000
0000
,  // measure 30
0010
0010
0100
0100
,  // measure 31
0020
0000
0000
0030
0000
0000
0010
0000
,  // measure 32
1000
0000
0001
0000
,  // measure 33
1000
0010
0100
0000
,  // measure 34
0010
0100
0001
0000
,  // measure 35
2000
0000
3000
1000
,  // measure 36
0200
0000
0300
0000
,  // measure 37
0020
0000
0030
0010
,  // measure 38
0002
0000
0003
0000
,  // measure 39
0002
0000
0003
0001
,  // measure 40
0200
0000
0300
0000
,  // measure 41
0020
0000
0030
0010
,  // measure 42
2000
0000
3000
0000
,  // measure 43
0002
0000
0000
0003
0000
0000
2000
0000
,  // measure 44
0000
3000
0000
0000
0001
0000
1000
0000
,  // measure 45
0020
0000
0000
0030
0000
0000
0200
0000
,  // measure 46
0000
0300
0000
0000
0010
0000
0100
0000
,  // measure 47
0001
0000
1000
0000
,  // measure 48
0010
0000
1000
0000
,  // measure 49
0100
0000
1000
0000
,  // measure 50
0001
1000
0001
1000
,  // measure 51
2002
3003
0000
0000
0000
0000
0000
0000
,  // measure 52
0010
0000
0100
0000
,  // measure 53
2002
3003
0000
0000
0000
0000
0000
0000
,  // measure 54
1000
0000
0001
0000
,  // measure 55
2002
3003
0000
0000
0000
0000
0000
0000
,  // measure 56
0001
0000
0010
0000
,  // measure 57
0200
0000
0000
0300
0000
0000
2000
0000
,  // measure 58
0000
3000
0000
0000
0001
0000
0010
0000
,  // measure 59
0002
0000
0000
0003
0000
0000
0200
0000
,  // measure 60
0000
0300
0000
0000
0001
0000
0100
0000
,  // measure 61
0020
0000
0000
0030
0000
0000
2000
0000
,  // measure 62
0000
3000
0000
0000
0010
0000
1000
0000
,  // measure 63
0002
0000
0000
0003
0000
0000
2000
0000
,  // measure 64
0000
3000
0000
0000
0001
0000
1000
0000
,  // measure 65
0001
0000
0010
0000
,  // measure 66
0100
0000
1000
0000
,  // measure 67
0100
0000
0001
0000
,  // measure 68
0100
0000
1000
0000
,  // measure 69
0010
0100
0010
0000
,  // measure 70
1000
0001
1000
0000
,  // measure 71
0002
0000
0000
0003
0000
0020
0000
0000
,  // measure 72
0030
0000
0200
0000
0000
0300
0000
2000
,  // measure 73
0000
3000
0001
0000
,  // measure 74
2000
0000
0000
3000
0000
0000
0002
0000
,  // measure 75
0000
0003
0000
0000
1001
0000
1001
0000
;

//---------------dance-double - D-HEAVY----------------
#NOTEDATA:;
#CHARTNAME:xRGTMx-HDP;
#STEPSTYPE:dance-double;
#DESCRIPTION:D-HEAVY;
#CHARTSTYLE:;
#DIFFICULTY:Hard;
#METER:10;
#RADARVALUES:0.840628,0.747691,0.534945,0.347245,0.267473,533.000000,57.000000,37.000000,0.000000,0.000000,0.000000,0.000000,0.000000,0.840628,0.747691,0.534945,0.347245,0.267473,533.000000,57.000000,37.000000,0.000000,0.000000,0.000000,0.000000,0.000000;
#CREDIT:xRGTMx;
#NOTES:
00000000
00000000
00000000
00000000
,
10000000
00000000
00100000
00000000
10000000
00000000
01000000
00000000
00100000
00010000
00000000
00000000
00010000
00100000
00010000
00100000
,
00001000
00000000
00010000
00000000
00000010
00000000
00001000
00000000
00000100
00000010
00000000
00000000
00000010
00000001
00000010
00000001
,
00001000
00000000
00000100
00000000
00010000
00000000
00000010
00000000
00010000
00001000
00000000
00000000
00001000
00100000
00001000
00100000
,
02000000
13000000
00100000
00020000
10030000
01000000
00020000
00130000
,
00001000
00000000
00100000
00000000
01000000
00000000
10000000
00000000
00100000
10000000
00000000
00000000
00010000
00100000
00010000
00100000
,
01000000
00000000
00100000
00000000
00001000
00000000
00010000
00000000
00000100
00001000
00000000
00000000
00000010
00001000
00000010
00001000
,
00000100
00000000
00001000
00000000
00000001
00000000
00000100
00000000
00000010
00000100
00000000
00000000
00000001
00000010
00000001
00000010
,
00000200
00001300
00010000
02000000
03000000
00100000
01000000
10010000
,
00000000
00100000
01000000
00011000
00000000
00000010
00000100
00000010
,
00001001
00001010
00011000
00110000
,
01000000
10100000
01000000
00101000
,
00001000
00000000
00010000
00000000
00001000
00000000
00000100
00000000
00000010
00000000
00001000
00000000
00000100
00000000
00000010
00000001
,
00000010
00000000
00000100
00000000
00010000
00000000
00001000
00000000
00010000
00000000
00100000
00000000
10000000
00000000
01000000
10000000
,
01000000
00000000
00100000
00000000
00010000
00000000
01000000
00000000
00001000
00000000
00010000
00000000
00000100
00001000
00000100
00000000
,
00000020
00000031
00001000
00000020
00000031
00001000
00000200
00000301
,
00001000
00000000
00000100
00000000
00010000
00000000
00100000
00000000
10000000
00000000
01000000
00000000
00100000
00000000
00010000
01000000
,
00010000
00000000
00100000
00000000
00001000
00000000
00000100
00000000
00000010
00000000
00001000
00000000
00000100
00000000
00000010
00000001
,
00000010
00000000
00000100
00000000
00001000
00000000
00000010
00000000
00010000
00000000
00001000
00000000
00100000
01000000
00100000
00000000
,
00020000
01000000
01000000
02030000
00000000
00100000
03100000
00000000
,
10000000
00100000
00010000
00100000
10000000
01000000
00100000
00001000
,
00000000
00010100
00000000
00101000
00000000
00010100
00001000
00000110
,
00000000
00000000
00000011
00000000
00000001
00000000
00000100
00000000
00000010
00001000
00000010
00000000
00001000
00000100
00001000
00000000
,
00000200
00010300
00001000
02000000
03001000
00010000
00000200
00000310
,
00000001
00000000
00000010
00000100
00001000
00000010
00010000
00000100
,
00000000
00101000
00000000
01010000
00000000
00101000
00001000
01000000
,
00100000
10000000
01000000
00010000
10000000
00100000
00010000
01000000
,
00002000
00010000
00010000
00023000
00000000
00001000
00031000
00000000
,
00001000
00010000
00100000
00010000
00001000
00000100
00000010
00001000
,
00000100
00000010
00000000
00000011
00000000
00001010
00001000
00000100
,
00010000
00100000
00000000
10100000
00000000
01010000
00010000
10000000
,
02000000
03010000
00001000
00000200
00001300
00010000
02000000
03010000
,
00001000
00010000
00100000
01000000
00010000
00100000
01000000
10000000
,
00100000
10000000
00000000
00110000
00000000
00011000
00001000
00010000
,
00000100
00000000
00000010
00000000
00000001
00000000
00000010
00000000
00000100
00000000
00010000
00000000
00001000
00010000
00001000
00000000
,
00200000
00010000
00010000
00000000
01000000
00000000
00302000
00010000
,
00023000
00000000
00000100
00000000
00000100
00000000
00000000
00000000
00030010
00000000
00010000
00000000
00000100
00000000
00000000
00000100
,
00000020
00000001
00000001
00000000
00001000
00000000
00000230
00001000
,
00002300
00000000
00000000
00000000
01000000
00000000
00000000
00000000
00003200
00000000
00000000
00000000
00010300
00000000
00001000
00100000
,
00002000
00010000
00010000
00000000
01000000
00000000
00203000
01000000
,
02300000
00000000
10000000
00000000
10000000
00000000
00000000
00000000
03100000
00000000
00000000
00100000
01000000
00000000
00000000
10000000
,
00020000
10000000
10000000
00000000
00100000
00000000
02030000
00001000
,
03002000
00010000
00010000
00000000
00003100
00000000
00010010
00000000
,
00000101
00000000
00000001
00000000
00001000
00000000
00001100
00000000
00000100
00000000
00010000
00000000
00001000
00000000
00100000
00001000
,
00100000
01000000
00000000
01000000
10000000
00000000
10100000
00000000
,
01010000
00000000
00010000
00000000
00100000
00000000
00101000
00000000
00001000
00000000
00010000
00000000
00000100
00000000
00001000
00000010
,
00001000
00000000
00000100
00000000
00000000
00000000
00000010
00000000
00000001
00000000
00000000
00000000
00001010
00000000
00000010
00010000
,
00002000
00000000
00000000
00000000
00203000
00000000
00000000
00000000
02300000
00000000
00000000
00000000
13000000
00000000
00010000
01000000
,
00020000
20030000
32000000
03100000
,
00100000
00001000
00010000
00000000
00000000
00000000
00000010
00010000
00001000
00000000
00000000
00000000
01000000
00001000
00010000
00000000
,
00000000
00000000
00000100
00010000
00001000
00000000
00000000
00000000
00100000
00001000
00010000
00000000
00000010
00010000
00001000
00000000
,
00101000
00010010
00000000
00000000
00000000
00000000
00000011
00000000
,
00001100
00000000
00000000
00011000
00000000
01010000
11000000
00000000
,
01001000
00010100
00000000
00000000
00000000
00000000
00000000
00000000
,
00000001
00000010
00000100
00000010
00000100
00001000
00000100
00010000
,
00010100
01001000
00000000
00000000
00000000
00000000
11000000
00000000
,
00110000
00000000
00000000
00011000
00000000
00001010
00000011
00000000
,
00000110
00000000
00000000
00001100
00000000
00000000
00011000
00000000
,
00000000
01010000
00000000
00000000
01100000
00000000
10010000
00000000
,
10000000
01000000
00100000
00000000
00000000
00000000
01000000
00100000
00010000
00000000
00000000
00000000
00100000
00001000
00010000
00000000
,
00000000
00000000
00001000
00010000
00000100
00000000
00000000
00000000
00000100
00000000
00000010
00000000
00000001
00000000
00001000
00000000
,
00000001
00000010
00000100
00000000
00000000
00000000
00000010
00000100
00001000
00000000
00000000
00000000
00000100
00010000
00001000
00000000
,
00000000
00000000
00010000
00001000
00100000
00000000
00000000
00000000
00100000
00000000
01000000
00000000
10000000
00000000
00010000
00000000
,
10000000
00100000
01000000
00000000
00000000
00000000
00100000
01000000
00010000
00000000
00000000
00000000
01000000
00001000
00010000
00000000
,
00000000
00000000
00001000
00010000
00000010
00000000
00000000
00000000
00000010
00000000
00000100
00000000
00000001
00000000
00001000
00000000
,
00000001
00000010
00001000
00000010
00000100
00010000
00001000
00010000
,
01000000
10000000
00100000
00010000
00100000
01000000
00010000
00100000
,
00001000
00000100
00000001
00000010
00001000
00010000
01000000
10000000
,
00100000
01000000
00010000
00100000
00001000
00000100
00000010
00001000
,
00000001
00000010
00001000
00010000
00100000
10000000
00010000
00100000
,
10000000
00100000
00010000
00001000
00000010
00000001
00000100
00000010
,
00001000
00000100
00010000
00011000
00000000
00001000
00100000
01000000
,
11000000
00000000
01010000
00010000
00100000
00001000
00000000
00001010
,
00000010
00000100
00000001
00000000
00000011
00000100
00001000
00000100
,
00010000
00001000
00100000
00000000
00000000
00000000
00001000
00010000
00000010
00000000
00000000
00000000
00010000
00001000
01000000
00000000
,
00000000
00000000
00001000
00010000
00000100
00000000
00000000
00000000
00010000
00000000
00100000
00000000
01000000
00000000
10010000
00000000
;

//---------------dance-double - D-STANDARD----------------
#NOTEDATA:;
#CHARTNAME:xRGTMx-DDP;
#STEPSTYPE:dance-double;
#DESCRIPTION:D-STANDARD;
#CHARTSTYLE:;
#DIFFICULTY:Medium;
#METER:7;
#RADARVALUES:0.496064,0.498461,0.375400,0.150160,0.000000,314.000000,40.000000,16.000000,0.000000,0.000000,0.000000,0.000000,0.000000,0.496064,0.498461,0.375400,0.150160,0.000000,314.000000,40.000000,16.000000,0.000000,0.000000,0.000000,0.000000,0.000000;
#CREDIT:xRGTMx;
#NOTES:
00000000
00000000
00000000
00000000
,
10000000
10000000
01000000
01000000
,
00100000
00000000
00001000
00000000
00010000
00001000
00010000
00000000
,
00000010
00000010
00000100
00000100
,
00000001
00000000
00000000
00000110
00000000
00000000
00011000
00000000
,
00010000
00010000
00000010
00000010
,
00000100
00000000
00000001
00000000
00001000
00000001
00001000
00000000
,
00000100
00010000
00010000
01000000
,
10000000
00000000
00000000
01100000
00000000
00000000
00000000
00011000
,
00000000
00000000
00000000
00000110
00000000
00000000
00000100
00000000
,
00001001
00001100
00001010
00010100
,
00100000
01010000
00100000
10010000
,
10000000
01000000
10000000
00000000
01000000
00000000
00100000
00000000
,
00001000
00010000
00001000
00000000
00010000
00000000
00010000
00000000
,
00000100
00000010
00000001
00001000
,
00001010
00000000
00000000
00011000
00000000
00000000
00101000
00000000
,
10000000
00100000
10000000
00000000
00100000
00000000
01000000
00000000
,
00001000
00010000
00001000
00000000
00010000
00000000
00010000
00000000
,
00000010
00000100
00000001
00001000
,
00001100
00000000
00000000
00000000
00000000
00011000
00000000
00000000
,
00100000
00000000
00010000
00000000
01000000
00000000
10000000
00100000
,
00000000
01100000
00000000
00110000
00000000
00010000
00001000
00010000
,
00000000
00000100
00000010
00000000
00000001
00000000
00001000
00000000
,
00010100
00000000
00000000
00101000
00000000
00000000
10010000
00000000
,
00100000
00000000
10000000
00000000
01000000
00000000
00010000
00100000
,
00000000
01100000
00000000
01001000
00000000
00010000
00001000
00010000
,
00001000
00010000
00000100
00000100
,
00000010
00000000
00000000
00000000
00000000
00001001
00000000
00000000
,
00000001
00000010
00000100
00000010
,
00000100
00010000
00000000
00001000
00000000
00010000
00001000
00000000
,
00001000
01000000
00000000
00100000
00000000
10000000
01000000
00000000
,
00110000
00000000
00000000
00011000
00000000
00000000
00001010
00000000
,
00000010
00000000
00001000
00000000
00000100
00000000
00000010
00000001
,
00000010
00000100
00000000
00010000
00000000
00001000
01000000
00000000
,
00100000
00000000
10000000
01000000
00000000
01000000
00100000
00000000
,
00020000
01000000
10030000
00010000
,
00200000
00001000
00310000
00100000
,
00002000
00000100
00013000
00001000
,
00020000
00000010
00030100
00000010
,
00000002
00000010
00000103
00000001
,
00002000
00000100
00003010
00001000
,
00000200
00010000
00001300
00000100
,
00020000
01000000
00031000
00010000
,
00001000
00000000
00000000
00001100
00000000
00000000
00011000
00000000
,
00000000
00110000
00000000
00100000
01000000
00000000
10000000
00000000
,
10100000
00000000
00000000
01010000
00000000
00000000
00011000
00000000
,
00000000
00010100
00000000
00000100
00000010
00000000
00000001
00000000
,
00000002
00000023
00000230
00020300
,
00032000
00203000
02300000
23000000
,
30010000
10000000
00000000
10000000
00010000
00000000
00010000
00100000
,
00000000
00100000
00001000
00000000
00010000
00001000
00010000
00000000
,
00000100
00000010
00000000
00000000
00000000
00000000
00001001
00000000
,
00001100
00000000
00000000
00000100
00000000
00010000
00001000
00000000
,
00100000
01000000
00000000
00000000
00000000
00000000
00000000
00000000
,
10000000
01000000
00100000
00010000
,
00010000
00001000
00000000
00000000
00000000
00000000
00001100
00000000
,
00001010
00000000
00000000
00000010
00000000
00000100
00000001
00000000
,
00000001
00000000
00000000
00000110
00000000
00000000
00001000
00000000
,
00000000
00110000
00000000
00000000
01000000
00000000
10000000
00000000
,
10000000
00010000
00000000
00010000
01000000
00000000
01000000
00001000
,
00000000
00001000
00010000
00000000
00000100
00000010
00000100
00000000
,
00001000
00000001
00000000
00000001
00000100
00000000
00000100
00000010
,
00000000
00000010
00010000
00000000
00001000
00010000
00001000
00000000
,
00100000
01000000
00000000
01000000
10000000
00000000
10000000
00010000
,
00000000
00010000
01000000
00000000
00001000
00010000
00001000
00000000
,
00010000
00000100
00000010
00000010
,
00000001
00000100
00001000
00000010
,
00000001
00000100
00000100
00000010
,
00010000
00000000
00001000
00000000
00010000
00001000
00010000
00000000
,
00001000
00100000
01000000
01000000
,
10000000
00100000
00010000
01000000
,
10000000
00000000
00100000
01000000
00000000
01000000
00000000
00000000
,
00001000
00000000
00010000
00000000
00010000
00001000
00000000
00001000
,
00000000
00000000
00000100
00000000
00000010
00000000
00000010
00001000
,
00000010
00001000
00000000
00001000
00000100
00000000
00000100
00010000
,
00000000
00010000
00001000
00000000
00001000
01000000
00001000
01000000
;

//---------------dance-double - D-LIGHT----------------
#NOTEDATA:;
#CHARTNAME:xRGTMx-LDP;
#STEPSTYPE:dance-double;
#DESCRIPTION:D-LIGHT;
#CHARTSTYLE:;
#DIFFICULTY:Easy;
#METER:5;
#RADARVALUES:0.313727,0.284835,0.112620,0.131390,0.000000,208.000000,12.000000,14.000000,0.000000,0.000000,0.000000,0.000000,0.000000,0.313727,0.284835,0.112620,0.131390,0.000000,208.000000,12.000000,14.000000,0.000000,0.000000,0.000000,0.000000,0.000000;
#CREDIT:xRGTMx;
#NOTES:
00000000
00000000
00000000
00000000
,
10000000
01000000
00100000
00000000
,
01000000
00100000
00001000
00000000
,
00100000
00001000
00010000
00000000
,
00001000
00000000
00000000
00010000
00000000
00000000
00001000
00000000
,
00010000
00000100
00000010
00000000
,
00000100
00000010
00000001
00000000
,
00000010
00000001
00001000
00000000
,
00000010
00000000
00000000
00000100
00000000
00000000
00000000
00000010
,
00000000
00000000
00000000
00010000
00000000
00000000
00001000
00000000
,
00010000
00010000
00001000
00001000
,
00000000
01100000
00000000
10010000
,
10000000
01000000
00100000
01000000
,
00100000
00001000
00010000
00001000
,
00010000
00000100
00000010
00000100
,
00000010
00000000
00000000
00000100
00000000
00000000
00001001
00000000
,
00000001
00000100
00000010
00000100
,
00000010
00010000
00001000
00010000
,
00001000
01000000
00100000
01000000
,
00100000
00000000
00000000
00000000
00000000
10010000
00000000
00000000
,
10000000
00000000
01000000
00000000
00010000
00000000
00000000
00010000
,
00000000
01000000
00000000
10000000
00000000
00000000
00000000
10000000
,
00000000
00100000
00000000
00000000
01000000
00000000
00000000
00000000
,
00010000
00000000
00000000
00010000
00000000
00000000
00001000
00000000
,
00001000
00000000
00000100
00000000
00000001
00000000
00000000
00000001
,
00000000
00000100
00000000
00001000
00000000
00000000
00000000
00000000
,
00001000
00000010
00000100
00000000
,
00000010
00000000
00000000
00000000
00000000
00001001
00000000
00000000
,
00000001
00000100
00001000
00001000
,
00000000
00000100
00000000
00000001
00000000
00000000
00000001
00000000
,
00000000
00000010
00000000
00000100
00000000
00000000
00000000
00000000
,
00001000
00000000
00000000
00001000
00000000
00000000
00010000
00000000
,
00010000
01000000
10000000
10000000
,
00000000
01000000
00000000
00010000
00000000
00000000
00000000
00000000
,
00010000
00000000
00100000
00000000
00000000
01000000
00000000
00000000
,
00200000
00000000
00300000
00010000
,
00020000
00000000
00030000
00000000
,
00002000
00000000
00003000
00000100
,
00000200
00000000
00000300
00000000
,
00000020
00000000
00000030
00000001
,
00000002
00000000
00000003
00000000
,
00002000
00000000
00003000
00000100
,
00000200
00000000
00000300
00000000
,
00011000
00000000
00000000
00010000
00000000
00000000
01000000
00000000
,
00000000
01000000
00000000
00000000
10000000
00000000
00010000
00000000
,
10000000
00000000
00000000
10000000
00000000
00000000
00100000
00000000
,
00000000
00100000
00000000
00000000
00010000
00000000
00001000
00000000
,
00010000
00000000
00001000
00000000
,
00000100
00000000
00000010
00000000
,
00001001
00000000
00000000
00000100
00000000
00000000
00001000
00000000
,
00000000
00010000
00000000
00000000
01000000
00000000
00100000
00000000
,
20020000
30030000
00000000
00000000
00000000
00000000
00010000
00000000
,
10000000
00000000
00000000
01000000
00000000
00000000
00000000
00000000
,
00022000
00033000
00000000
00000000
00000000
00000000
00000000
00000000
,
00001000
00000000
00000000
00000010
00000000
00000000
00000100
00000000
,
00002002
00003003
00000000
00000000
00000000
00000000
00000001
00000000
,
00001000
00000000
00000000
00000100
00000000
00000000
00000000
00000000
,
00011000
00000000
00000000
00010000
00000000
00000000
01000000
00000000
,
00000000
01000000
00000000
00000000
00100000
00000000
00100000
00000000
,
00010000
00000000
00000000
00010000
00000000
00000000
10000000
00000000
,
00000000
10000000
00000000
00000000
00100000
00000000
00100000
00000000
,
01000000
00000000
00000000
01000000
00000000
00000000
00001000
00000000
,
00000000
00001000
00000000
00000000
00010000
00000000
00010000
00000000
,
00000100
00000000
00000000
00000100
00000000
00000000
00000010
00000000
,
00000000
00000010
00000000
00000000
00000001
00000000
00000001
00000000
,
00001000
00000100
00000010
00000000
,
00000100
00001000
00000010
00000000
,
00010000
00001000
00010000
00000000
,
00001000
00010000
00001000
00000000
,
00100000
00010000
01000000
00000000
,
00100000
01000000
00010000
00000000
,
10000000
01000000
10000000
00000000
,
00010000
01000000
00010000
00000000
,
00100000
00001000
00010000
00000000
,
00001000
00000000
00000000
00010000
00000000
00000000
00001000
00000000
,
00000000
00010000
00000000
00000000
00000100
00000000
00000000
00001001
;
