#VERSION:0.81;
#TITLE:LUV TO ME;
#SUBTITLE:~Super Euro Version~;
#ARTIST:tiger YAMATO mixed by Y&Co.;
#TITLETRANSLIT:;
#SUBTITLETRANSLIT:;
#ARTISTTRANSLIT:;
#GENRE:;
#ORIGIN:;
#CREDIT:;
#BANNER:LUV TO ME ~Super Euro Version~-bn.png;
#BACKGROUND:LUV TO ME ~Super Euro Version~-bg.png;
#PREVIEWVID:;
#JACKET:LUV TO ME ~Super Euro Version~-jk.png;
#CDIMAGE:;
#DISCIMAGE:;
#LYRICSPATH:;
#CDTITLE:;
#MUSIC:LUV TO ME ~Super Eurobeat Version~.ogg;
#OFFSET:0.000000;
#SAMPLESTART:61.312500;
#SAMPLELENGTH:12.000000;
#SELECTABLE:YES;
#BPMS:0.000=160.000;
#STOPS:;
#DELAYS:;
#WARPS:;
#TIMESIGNATURES:0.000=4=4;
#TICKCOUNTS:0.000=4;
#COMBOS:0.000=1;
#SPEEDS:0.000=1.000=0.000=0;
#SCROLLS:0.000=1.000;
#FAKES:;
#LABELS:0.000=Song Start,
267.000=Song End;
#BGCHANGES:;
#KEYSOUNDS:;
#ATTACKS:
;

//---------------dance-single - S-HEAVY----------------
#NOTEDATA:;
#CHARTNAME:DJ OMiY-HSP;
#STEPSTYPE:dance-single;
#DESCRIPTION:S-HEAVY;
#CHARTSTYLE:;
#DIFFICULTY:Hard;
#METER:7;
#RADARVALUES:0.493349,0.516566,0.203144,0.203144,0.058041,315.000000,21.000000,21.000000,0.000000,0.000000,0.000000,0.000000,0.000000,0.493349,0.516566,0.203144,0.203144,0.058041,315.000000,21.000000,21.000000,0.000000,0.000000,0.000000,0.000000,0.000000;
#CREDIT:DJ OMiY;
#NOTES:
0000
0000
0000
0000
,
0000
0000
0000
0000
,
0000
0000
0000
0000
,
0000
0000
0000
0000
,
0010
0010
0010
0010
,
0100
0100
0100
0100
,
0001
1000
0001
1000
,
1001
0000
0000
0000
0000
0000
0000
0010
,
0001
0100
0010
1000
0000
0001
0000
0000
,
0000
0000
1100
0000
0000
0011
0000
0000
,
1000
0010
0100
0001
0000
0100
0000
0000
,
0010
0000
0000
0010
0000
0000
1000
0000
0000
1000
0000
0000
0100
0000
0010
0000
,
0001
0100
0010
1000
0000
0100
0000
0000
,
0000
0000
1010
0000
0000
0101
0000
0000
,
1000
0010
0100
0001
0000
0100
0000
0000
,
1001
0000
0000
0000
,
0002
0000
0203
0000
0310
1000
0100
0010
,
0002
0000
0203
0000
0310
1000
0100
0010
,
0001
0000
0000
0001
0000
0000
1000
0000
0100
0000
0000
0100
0000
0000
1000
0000
,
0001
0000
0000
0010
0000
0000
0100
0000
0000
1000
0000
0000
0001
0000
0100
0000
,
0001
0000
1100
0000
0010
1000
0100
0000
,
0010
0100
1000
0001
0200
0000
0320
0000
,
1030
0100
1000
0100
0010
0001
0010
0001
,
0100
0010
0000
1000
0000
0001
0000
0010
,
0100
0100
1000
0001
,
0010
0000
0001
0000
0100
0010
1000
0001
,
0100
0100
0001
0001
,
0010
0000
0100
1000
0000
0101
0000
0000
,
1000
1000
0001
0010
,
0001
0000
1000
0000
0010
0100
0001
1000
,
0100
0000
0001
0100
1000
0000
0001
0100
,
0001
0000
1000
0100
0000
2001
0000
3001
,
0010
0101
1100
0101
,
1000
0010
0100
0001
0000
1000
0000
0001
,
0010
0000
1010
0000
0011
0000
1000
0001
,
0010
0000
0000
0010
0000
0000
0020
0000
0000
0000
0030
0000
0100
0000
1000
0000
,
0100
0000
1000
0001
0100
0000
0010
0000
,
0100
0001
0010
0100
0000
0100
0000
1000
,
0002
0010
0203
0010
,
0301
0000
0000
0010
0000
0000
0100
0000
2000
0000
0000
0000
3000
0000
0000
0000
,
1010
1010
0101
0101
,
1000
0010
0100
0001
0000
0100
0000
0001
,
0000
0010
0001
0010
0000
0100
0000
1000
,
0100
1000
0001
0100
0000
0010
0000
0100
,
0000
0100
0000
0110
0000
1001
0000
1000
,
0010
0100
0001
0100
0000
0001
0000
0010
,
0001
0010
0100
1000
0000
0100
0000
2000
,
0000
3001
0100
0002
0000
0203
0000
0310
,
0000
0010
1000
0010
0100
0001
0000
1000
,
0100
0010
0100
1000
0000
1000
0000
0001
,
0010
0100
0010
0001
0000
0001
0000
0100
,
0010
1000
0010
0100
0000
0001
0000
0000
,
1000
0001
1000
0001
0100
0010
0000
0000
,
1000
0001
0010
0100
0000
0100
0000
0010
,
0001
1000
0100
0010
0000
0010
0000
0100
,
1000
0001
1000
0001
0000
0001
0000
0100
,
0000
0010
1000
0010
0100
0001
0000
0000
,
2000
0000
3020
0000
0130
0001
0010
0100
,
2000
0000
3020
0000
0130
0001
0010
0100
,
1000
0000
0000
1000
0000
0000
0001
0000
0100
0000
0000
0100
0000
0000
0001
0000
,
1000
0000
0000
0100
0000
0000
0010
0000
0000
0001
0000
0000
1000
0000
0001
0000
,
0100
0000
0110
0000
1000
0001
0100
0000
,
0001
0010
0100
1000
0002
0000
0023
0000
,
0031
0100
0010
1000
0001
0010
0100
1000
,
0001
0100
0000
0001
0000
1000
0000
0010
,
0200
0000
0000
0000
,
0000
0300
0000
0010
;

//---------------dance-single - S-CHALLENGE----------------
#NOTEDATA:;
#CHARTNAME:DJ OMiY-CSP;
#STEPSTYPE:dance-single;
#DESCRIPTION:S-CHALLENGE;
#CHARTSTYLE:;
#DIFFICULTY:Challenge;
#METER:9;
#RADARVALUES:0.686820,0.710278,0.077388,0.270859,0.319226,461.000000,8.000000,28.000000,0.000000,0.000000,0.000000,0.000000,0.000000,0.686820,0.710278,0.077388,0.270859,0.319226,461.000000,8.000000,28.000000,0.000000,0.000000,0.000000,0.000000,0.000000;
#CREDIT:DJ OMiY;
#NOTES:
// measure 0
0000
0000
0000
0000
,  // measure 1
0000
0000
0000
0000
,  // measure 2
0000
0000
0000
0000
,  // measure 3
0000
0000
0000
0000
0000
0000
0000
0001
,  // measure 4
0100
0100
0100
0100
,  // measure 5
0001
0001
0001
0001
,  // measure 6
1000
1000
1000
1000
,  // measure 7
1001
0000
0000
0000
0000
0000
0000
0010
,  // measure 8
0100
0001
0100
0010
1000
0100
1000
0001
,  // measure 9
0100
0001
1000
0100
0010
0001
0000
0001
,  // measure 10
1000
0100
0010
0100
1000
0001
0100
0001
,  // measure 11
1000
0100
0000
1000
0100
0000
0010
0001
0000
0010
0001
0000
1000
0001
1000
0000
,  // measure 12
0001
0100
0001
0100
0010
0100
0001
1000
,  // measure 13
0100
0010
0001
1000
0100
1000
0000
1000
,  // measure 14
0010
0100
0001
0100
1000
0100
0001
1000
,  // measure 15
0001
0000
0000
0000
,  // measure 16
2000
0000
0000
0000
3020
0000
0000
0000
1030
0100
0010
0001
1000
0000
0001
0000
,  // measure 17
0200
0000
0000
0000
0302
0000
0000
0000
0013
0001
0010
0100
1000
0000
0001
0000
,  // measure 18
1000
0100
0000
1000
0000
0000
0010
0000
0100
0001
0000
0100
0000
0000
0010
0000
,  // measure 19
0100
0010
0000
0100
0010
0000
1000
0010
0000
1000
0010
0000
0100
0000
0001
0000
,  // measure 20
0010
0100
0000
0010
0000
0100
0000
0010
0001
0000
1000
0000
0001
0000
0100
0000
,  // measure 21
0001
0010
1000
0010
0002
0000
0203
0000
,  // measure 22
0310
1000
0010
0001
0010
1000
0010
0100
,  // measure 23
0002
0000
0013
0000
0002
0000
1003
0000
0001
0100
0001
0100
0001
0100
0001
0100
,  // measure 24
0001
1000
0100
0000
1000
0010
0100
0010
,  // measure 25
1000
0001
0001
0010
0100
0010
0001
1000
,  // measure 26
0100
0000
1000
0010
0100
0000
0001
0100
,  // measure 27
0010
0000
0000
0000
1000
0000
0001
0000
0100
0000
0001
0000
1000
0000
1000
0001
,  // measure 28
0100
0010
0010
1000
0010
0100
0001
0010
,  // measure 29
0100
1000
0100
0010
0100
0010
0001
1000
,  // measure 30
0001
0000
0010
0001
0100
0000
0010
1000
,  // measure 31
1100
0000
0010
0011
0000
0101
0000
0020
,  // measure 32
0130
0000
0010
0000
1000
0000
0000
0100
0010
0000
0000
0000
0001
0000
1000
0000
,  // measure 33
0001
0100
1000
0100
0001
0100
0000
0100
,  // measure 34
0010
0100
0001
0100
0001
0010
0100
1000
,  // measure 35
0100
0000
1000
0001
0000
0001
0100
0000
0010
0000
0100
0000
0100
0000
0100
0000
,  // measure 36
0001
1000
0100
1000
0001
0000
0010
0001
,  // measure 37
0100
0010
0100
0001
0010
1000
0010
0001
,  // measure 38
2000
0100
3100
1000
0002
0100
0103
0001
,  // measure 39
0010
0000
0000
1000
0000
0000
0010
0000
0001
0000
0100
0010
0100
0010
0100
0010
,  // measure 40
0100
0000
1001
0000
0110
0000
1001
0010
,  // measure 41
1000
0100
1000
0002
0000
0100
0000
0013
,  // measure 42
0001
1000
0010
2000
0000
0010
0000
3100
,  // measure 43
1000
0010
0100
0020
0000
0001
0000
0130
,  // measure 44
0010
1000
0010
0000
0200
0000
0301
0010
0001
0000
2000
0000
3010
0000
0010
0000
,  // measure 45
0100
0001
0100
0020
0000
1000
0000
0031
,  // measure 46
0010
1000
0001
0200
0000
0010
0000
1300
,  // measure 47
0100
0001
1000
0200
0000
0310
0100
1000
,  // measure 48
0001
0010
0001
0010
0001
0000
1000
0100
1000
0100
1000
0001
0100
0000
0001
0000
,  // measure 49
0010
0100
1000
0100
0010
0001
0000
0001
,  // measure 50
1000
0100
1000
0010
0100
1000
0000
1000
,  // measure 51
0100
0001
0100
0010
0100
0001
1000
0100
,  // measure 52
1000
0001
1000
0000
0020
0000
0130
0001
0100
0000
0020
0000
1030
0000
0001
0000
,  // measure 53
0010
0001
1000
0100
1000
0010
0000
0010
,  // measure 54
1000
0001
0010
0100
1000
0001
0000
0001
,  // measure 55
0100
0010
0100
0001
1000
0100
0000
0100
,  // measure 56
0010
0001
0000
0001
0010
0000
0100
1000
0000
1000
0100
0000
1000
0000
0001
0000
,  // measure 57
0200
0000
0000
0000
0320
0000
0000
0000
1030
0010
0100
0001
0100
0000
0001
0000
,  // measure 58
2000
0000
0000
0000
3002
0000
0000
0000
0103
0001
0100
0010
1000
0000
0010
0000
,  // measure 59
0100
0001
0000
0100
0000
0000
0010
0000
1000
0010
0000
1000
0000
0000
0001
0000
,  // measure 60
0010
0100
0000
0010
0100
0000
1000
0100
0000
1000
0100
0000
0010
0000
0001
0000
,  // measure 61
1000
0001
0000
0010
0000
0010
0000
0001
0100
0000
0001
0000
1000
0000
0010
0000
,  // measure 62
0001
0010
1000
0001
0020
0000
0230
0000
,  // measure 63
1300
0100
0001
0100
1000
0010
0001
0010
,  // measure 64
1000
0000
1000
0000
0001
0000
0001
0000
0100
0010
0100
0010
1000
0010
1000
0010
,  // measure 65
0200
0000
0000
0000
,  // measure 66
0000
0300
0000
1001
;

//---------------dance-single - S-STANDARD----------------
#NOTEDATA:;
#CHARTNAME:DJ OMiY-SSP;
#STEPSTYPE:dance-single;
#DESCRIPTION:S-STANDARD;
#CHARTSTYLE:;
#DIFFICULTY:Medium;
#METER:5;
#RADARVALUES:0.382795,0.451995,0.251511,0.299879,0.004837,220.000000,26.000000,31.000000,0.000000,0.000000,0.000000,0.000000,0.000000,0.382795,0.451995,0.251511,0.299879,0.004837,220.000000,26.000000,31.000000,0.000000,0.000000,0.000000,0.000000,0.000000;
#CREDIT:DJ OMiY;
#NOTES:
0000
0000
0000
0000
,
0000
0000
0000
0000
,
0000
0000
0000
0000
,
0000
0000
0000
0000
,
1000
0100
1000
0100
,
0001
0100
0001
0100
,
1000
0001
1000
0001
,
0010
0000
0000
0000
,
0100
1000
0100
1000
0000
0100
0000
0000
,
0000
0000
1000
0000
0000
1001
0000
0000
,
0001
0100
0001
0100
0000
0001
0000
0000
,
2000
0000
0000
3020
0000
0000
0130
0000
,
0010
1000
0010
1000
0000
0001
0000
0000
,
0000
0000
0010
0000
0000
0110
0000
0000
,
1000
0001
1000
0001
0000
0100
0000
0000
,
0010
0000
0000
0000
,
1000
0000
1000
0000
0100
0010
0001
0000
,
1000
0000
1000
0000
0100
0010
0001
0000
,
1200
0301
0201
1300
,
0002
0000
0000
0203
0000
0000
0320
0000
,
1030
0000
0100
0000
1000
0001
0100
0000
,
0010
1000
0100
0000
0010
0000
0010
0000
,
0001
1000
0100
1000
,
0010
1000
0000
0100
0000
0001
0000
0010
,
1000
0001
1000
0001
,
0010
0000
0100
0000
1000
0000
0100
0010
,
0002
0000
0000
2000
0000
3003
0000
0000
,
0010
0000
0000
1000
0000
0001
0000
0000
,
0010
0100
1000
0100
,
0010
0000
0000
0001
0000
0000
1000
0000
,
0200
0000
0000
0320
0000
0000
0030
0000
,
0001
0000
0100
0010
0000
1000
0000
0000
,
0001
0001
0101
0000
,
1000
0000
0100
0010
0000
0100
0000
0000
,
1000
0001
1001
0000
,
0010
0000
0000
1000
0000
0000
0002
0000
0000
0000
0000
0000
0003
0000
0000
0000
,
1000
0100
1100
0000
,
0010
0000
0100
1000
0000
0100
0000
0000
,
2000
0000
0002
3000
,
0203
0000
0000
0310
0100
0000
0000
0000
,
1001
1001
1001
1001
,
0001
0000
0100
0001
0000
1000
0000
0200
,
0000
0300
0000
1000
0000
0010
0000
0010
,
0100
0000
0000
0001
0000
1000
0000
0001
,
0000
0001
0000
1000
0000
1000
0000
0000
,
0010
0000
0100
0001
0000
0100
0000
0020
,
0000
0030
0000
1000
0000
0100
0000
2000
,
0000
3000
0000
0001
0000
0100
0000
0000
,
0010
0000
0010
0000
1000
0001
0000
0000
,
1100
0000
0000
0000
0000
0101
0000
0202
,
0000
0303
0000
0000
0000
0011
0000
0022
,
0000
0033
0000
0000
0000
1001
0000
0000
,
1000
0100
1000
0000
0001
0100
0000
0000
,
0110
0000
0000
0000
0000
1010
0000
0202
,
0000
0303
0000
0000
0000
0011
0000
2200
,
0000
3300
0000
0000
0000
0000
1001
0000
,
0010
0001
0100
0000
0010
1000
0000
0000
,
0001
0000
0001
0000
0010
0100
1000
0000
,
0001
0000
0001
0000
0010
0100
1000
0000
,
0001
0000
0000
1000
0001
0000
0000
1000
,
0200
0000
0000
0320
0000
0000
0032
0000
,
1003
0000
1000
0000
0001
0100
0001
0000
,
1000
0100
0010
0000
0100
0000
0100
0000
,
0010
0001
0100
1000
,
0220
0330
0001
1000
,
1001
0000
0000
0000
,
0000
0000
0000
0110
;

//---------------dance-single - S-LIGHT----------------
#NOTEDATA:;
#CHARTNAME:DJ OMiY-LSP;
#STEPSTYPE:dance-single;
#DESCRIPTION:S-LIGHT;
#CHARTSTYLE:;
#DIFFICULTY:Easy;
#METER:3;
#RADARVALUES:0.245984,0.258283,0.087062,0.203144,0.000000,148.000000,9.000000,21.000000,0.000000,0.000000,0.000000,0.000000,0.000000,0.245984,0.258283,0.087062,0.203144,0.000000,148.000000,9.000000,21.000000,0.000000,0.000000,0.000000,0.000000,0.000000;
#CREDIT:DJ OMiY;
#NOTES:
0000
0000
0000
0000
,
0000
0000
0000
0000
,
0000
0000
0000
0000
,
0000
0000
0000
0000
,
0001
0000
0001
0000
,
1000
0000
1000
0000
,
0100
0000
0010
0000
,
0220
0000
0330
0000
,
0001
0001
0100
0000
,
0010
0000
1000
0000
,
0100
0100
0010
0000
,
2002
0000
0000
3003
,
1000
0010
0010
0000
,
0100
0000
0001
0000
,
0010
0010
0100
0000
,
1001
0000
0000
0000
,
1000
0000
1000
0000
,
0100
0000
0100
0000
,
2000
3000
0002
0003
,
0010
0100
0010
0100
,
1000
0000
0010
0000
,
0200
0000
0301
0001
,
1000
0000
0001
0000
,
0220
0000
0330
0000
,
1000
0000
0001
0000
,
0100
0100
0010
0000
,
1000
0000
0100
0000
,
0010
0001
0010
0000
,
0100
0000
1000
0000
,
0001
0000
0100
0001
,
0010
0000
0100
0000
,
2000
0000
3000
0000
,
0001
0001
0001
0000
,
0100
0000
0000
0000
,
0010
1000
1000
0000
,
2002
0000
3003
0000
,
0010
0010
0010
0000
,
0001
0000
0001
0000
,
2000
0000
3200
0000
,
0320
0000
0032
0000
,
1003
1000
0100
1000
,
0010
0000
0100
0010
,
0100
0000
0001
0010
,
0001
0000
1000
0100
,
2000
0000
0001
0000
,
3100
0010
0100
0000
,
0010
0001
0010
0000
,
0001
0000
1000
0000
,
1001
0000
1001
0000
,
0010
0100
0010
0000
,
1000
0010
1000
0000
,
0001
0100
0001
0000
,
2000
0000
0100
0000
,
3001
0010
0001
0000
,
1000
0100
1000
0000
,
0001
1000
0001
0000
,
1001
0000
1001
0000
,
0010
0000
0010
0000
,
0100
0000
0100
0000
,
0002
0003
2000
3000
,
0010
1000
0010
1000
,
0100
0000
0010
0000
,
0200
0000
1300
1000
,
0001
0000
0100
0000
,
0010
1000
0001
1000
,
0100
0000
0000
0000
,
0000
0000
0000
1000
;

//---------------dance-single - BEGINNER----------------
#NOTEDATA:;
#CHARTNAME:DJ OMiY-BEG;
#STEPSTYPE:dance-single;
#DESCRIPTION:BEGINNER;
#CHARTSTYLE:;
#DIFFICULTY:Beginner;
#METER:1;
#RADARVALUES:0.134047,0.193712,0.019347,0.125756,0.000000,82.000000,2.000000,13.000000,0.000000,0.000000,0.000000,0.000000,0.000000,0.134047,0.193712,0.019347,0.125756,0.000000,82.000000,2.000000,13.000000,0.000000,0.000000,0.000000,0.000000,0.000000;
#CREDIT:DJ OMiY;
#NOTES:
0000
0000
0000
0000
,
0000
0000
0000
0000
,
0000
0000
0000
0000
,
0000
0000
0000
0000
,
0020
0000
0030
0000
,
0200
0000
0300
0000
,
0002
0000
0000
0000
,
0003
0000
0000
0000
,
1000
0000
0000
0000
,
0000
0000
0200
0000
0000
0300
0000
0000
,
0010
0000
0000
0000
,
0001
0000
1000
0000
,
0001
0000
0000
0000
,
0000
0000
0200
0000
0000
0300
0000
0000
,
0010
0000
0000
0000
,
1001
0000
0000
0000
,
2000
3000
1000
0000
,
0002
0003
0001
0000
,
0100
0000
0100
0000
,
0200
0000
0000
0300
,
0100
0000
0000
0000
,
0010
0000
0000
0000
,
1000
0000
0001
0000
,
1000
0000
0000
0000
,
0001
0000
0000
0000
,
0010
0000
0000
0000
,
0001
0000
0000
0000
,
1000
0000
0000
0000
,
0010
0000
0000
0000
,
0100
0000
0000
0000
,
0010
0000
0000
0000
,
1001
0000
0000
0000
,
1000
1000
1000
0000
,
0001
0000
0000
0000
,
0010
0010
0010
0000
,
0100
0000
0000
0000
,
1000
0000
0001
0000
,
0100
0000
0000
0000
,
0010
0000
0010
0000
,
0010
0000
0010
0000
,
0020
0000
0030
0000
,
1000
0000
0000
0000
,
0001
0000
0000
0000
,
0010
0000
0000
0000
,
0001
0000
0100
0000
,
0010
0000
0000
0000
,
1000
0000
0000
0000
,
0100
0000
0000
0000
,
0010
0000
0100
0000
,
1000
0000
0000
0000
,
0001
0000
0000
0000
,
1000
0000
0000
0000
,
0010
0000
0100
0000
,
0001
0000
0000
0000
,
1000
0000
0000
0000
,
0010
0000
0000
0000
,
1000
0000
0010
0000
,
0200
0300
0100
0000
,
0020
0030
0010
0000
,
1000
0000
0001
0000
,
2000
0000
0000
3000
,
1000
0000
0000
0000
,
0010
0000
0000
0000
,
1000
0000
0100
0000
,
0010
0000
0001
0000
,
0020
0000
0000
0000
,
0000
0000
0000
0030
;

//---------------dance-double - D-CHALLENGE----------------
#NOTEDATA:;
#CHARTNAME:DJ OMiY-CDP;
#STEPSTYPE:dance-double;
#DESCRIPTION:D-CHALLENGE;
#CHARTSTYLE:;
#DIFFICULTY:Challenge;
#METER:9;
#RADARVALUES:0.646744,0.645707,0.299879,0.212817,0.246675,415.000000,31.000000,22.000000,0.000000,0.000000,0.000000,0.000000,0.000000,0.646744,0.645707,0.299879,0.212817,0.246675,415.000000,31.000000,22.000000,0.000000,0.000000,0.000000,0.000000,0.000000;
#CREDIT:DJ OMiY;
#NOTES:
00000000
00000000
00000000
00000000
,
00000000
00000000
00000000
00000000
,
00000000
00000000
00000000
00000000
,
00000000
00000000
00000000
00000000
00000000
00000000
00000000
00010000
,
00100000
00100000
00100000
00100000
,
10000000
10000000
10000000
10000000
,
01000000
01000000
01000000
01000000
,
01010000
00000000
00000000
00000000
00000000
00000000
00000000
00001000
,
00010000
00001000
00000100
00000001
00000000
00000010
00000000
00000001
,
00000000
00000100
00000020
00001000
00001030
00000200
00000000
00010300
,
00001000
00000100
00001000
00010000
00000000
00001000
00000000
00000000
,
00100000
00010000
00000000
00100000
00001000
00000000
00100000
00010000
00000000
10000000
00010000
00000000
01000000
00000000
00010000
00000000
,
00100000
00001000
00010000
00000010
00000000
00001000
00000000
00010000
,
00000000
00100000
00002000
01000000
01003000
00200000
00000000
01300000
,
00100000
10000000
01000000
00100000
00000000
00001000
00000000
00010000
,
00000100
00000000
00000000
00000000
,
00000110
00000000
00000000
00000000
00000011
00000000
00000000
00000000
00001000
00000100
00001000
00000100
00001000
00000000
00000100
00000000
,
00010000
00000000
00000000
00000000
00011000
00000000
00000000
00000000
00100000
00010000
00100000
00010000
00100000
00000000
00010000
00000000
,
10000000
00100000
00000000
01000000
00000000
00000000
00010000
00000000
00100000
01000000
00000000
00100000
00000000
00000000
00001000
00000000
,
00010000
00000100
00000000
00001000
00000010
00000000
00000100
00000001
00000000
00001000
00000001
00000000
00000010
00000000
00000100
00000000
,
00000010
00000001
00000000
00001000
00000000
00001000
00000000
00000001
00000100
00000000
00001000
00000000
00010000
00000000
00001000
00000000
,
00010000
01000000
10000000
01000000
00020000
00000000
00032000
00000000
,
00013000
00100000
10000000
01000000
00010000
00001000
00000010
00000001
,
00000100
00000010
00000100
00000010
00000100
00001000
00000100
00001000
,
00010000
00001000
01000000
00000000
00100000
01000000
00010000
10000000
,
01000000
00100000
00000000
00100000
00000000
00010000
10000000
00010000
,
00100000
00000000
00001000
00010000
00000100
00000000
00000010
00000100
,
00001000
00000000
00000000
00000000
00000100
00000000
00000010
00000000
00000000
00000000
00000001
00000000
00000100
00000000
00000001
00001000
,
00000001
00000100
00000010
00000100
00001000
00010000
00001000
00010000
,
00000100
00000010
00000000
00000010
00000000
00000100
00010000
00001000
,
01000000
00000000
00010000
10000000
00100000
00000000
01000000
00010000
,
00110000
00000000
00100000
00001000
00000000
00010100
00000000
00002000
,
00013000
00000000
00000000
00000000
00000100
00000000
00000000
00001000
00000001
00000000
00000000
00000000
00000010
00000000
00000000
00000000
,
00000001
00000100
00001000
00010000
00000000
00100000
00000000
01000000
,
00010000
01000000
00010000
01000000
00001000
00000000
00010000
00001000
,
00100000
00000000
01000000
00100000
00000000
01000000
10000000
00000000
00010000
00000000
00100000
00000000
00001000
00000000
00100000
00000000
,
00010000
01000000
00001000
00010000
00000100
00000000
00001100
00000000
,
00000010
00000100
00001000
00000001
00000000
00001000
00000000
00000010
,
00020000
00000100
00030100
00001000
00000020
00001000
00001030
00000010
,
00010000
00000000
00000000
00001000
00000000
00000000
00100000
00000000
01000000
00000000
00000000
00000000
10010000
00000000
00000000
00000000
,
10000000
00100000
00010000
00001000
00000100
00000001
00000010
00001000
,
00010000
00001000
00010000
00000100
00000000
00000110
00000000
00000011
,
00000000
00001000
00000100
00010000
00000000
00011000
00000000
00110000
,
00010000
10000000
00100000
01000000
00000000
01010000
00000000
10100000
,
00100000
01000000
00010000
00000000
00200000
00000000
00301000
00010000
00000100
00000000
00000020
00000000
00000031
00000000
00000001
00000000
,
00001000
00000100
00000010
00000100
00000000
00011000
00000000
00001100
,
00010000
00001000
00100000
01000000
00000000
10010000
00000000
01100000
,
00000000
00010000
00100000
00010000
00000000
01010000
00000000
00100000
,
00001000
00010000
00001000
00000000
00200000
00000000
00310000
10000000
00010000
00000000
02000000
00000000
03100000
00000000
01000000
00000000
,
00010000
10000000
01000000
00100000
00000000
11000000
00000000
00110000
,
00100000
00001000
00000010
00000001
00000000
00000101
00000000
00001010
,
00000010
00001000
00000100
00010000
00000000
00001100
00000000
00000000
,
00010000
00001000
00010000
00000000
00000200
00000000
00010300
00001000
00010000
00000000
00000020
00000000
00001030
00000000
00000001
00000000
,
00001000
00000100
00001000
00010000
00000000
00110000
00000000
10100000
,
00010000
01000000
00100000
01000000
00000000
01010000
00000000
01001000
,
00010000
00100000
00001000
00010000
00000000
00010100
00000000
00001001
,
00001000
00000001
00000010
00001000
00010000
01000000
10000000
00100000
,
00020000
00000000
00000000
00000000
00032000
00000000
00000000
00000000
00013000
00000100
00010000
00000100
00010000
00000000
00000100
00000000
,
00002000
00000000
00000000
00000000
00003002
00000000
00000000
00000000
00000013
00000100
00000010
00000100
00000010
00000000
00000100
00000000
,
00001000
00000100
00000000
00001000
00000000
00000000
00010000
00000000
00100000
00010000
00000000
00100000
00000000
00000000
01000000
00000000
,
10000000
00100000
00000000
01000000
00010000
00000000
00100000
00001000
00000000
00010000
00000100
00000000
00001000
00000000
00000010
00000000
,
00000100
00000001
00000000
00000010
00000000
00000010
00000000
00000001
00001000
00000000
00000100
00000000
00001000
00000000
00000100
00000000
,
00010000
00001000
00100000
01000000
20000000
00000000
30020000
00000000
,
10030000
00100000
00010000
00001000
00000100
00000001
00000010
00001000
,
00010000
00000000
00001000
00000000
00010000
00000000
00001000
00000000
00010000
00000100
00010000
00000100
00010000
00000100
00010000
00000100
,
00002000
00000000
00000000
00000000
,
00003000
00000000
00000000
00000011
;

//---------------dance-double - D-HEAVY----------------
#NOTEDATA:;
#CHARTNAME:DJ OMiY-HDP;
#STEPSTYPE:dance-double;
#DESCRIPTION:D-HEAVY;
#CHARTSTYLE:;
#DIFFICULTY:Hard;
#METER:7;
#RADARVALUES:0.468475,0.484281,0.232164,0.048368,0.058041,310.000000,24.000000,5.000000,0.000000,0.000000,0.000000,0.000000,0.000000,0.468475,0.484281,0.232164,0.048368,0.058041,310.000000,24.000000,5.000000,0.000000,0.000000,0.000000,0.000000,0.000000;
#CREDIT:DJ OMiY;
#NOTES:
00000000
00000000
00000000
00000000
,
00000000
00000000
00000000
00000000
,
00000000
00000000
00000000
00000000
,
00000000
00000000
00000000
00000000
,
00000100
00000100
00000100
00000100
,
00000010
00000010
00000010
00000010
,
00000001
00000100
00000010
00001000
,
00011000
00000000
00000000
00000000
00000000
00000000
00000000
00100000
,
00001000
00010000
00000100
00010000
00000000
00001000
00000000
00000000
,
00000000
00000000
00101000
00000000
00000000
10010000
00000000
00000000
,
00100000
01000000
00010000
10000000
00000000
01000000
00000000
00000000
,
00100000
00000000
00000000
00001000
00000000
00000000
00010000
00000000
00000000
00000010
00000000
00000000
00000100
00000000
00000000
00000000
,
00000001
00000010
00000100
00001000
00000000
00000100
00000000
00000000
,
00000000
00000000
00010100
00000000
00000000
00001001
00000000
00001000
,
00000100
00010000
00001000
00010000
00000000
01000000
00000000
00000000
,
10000000
00000000
00000000
00000000
,
00100000
00000000
01000000
00000000
00010000
10000000
01000000
00100000
,
00001000
00000000
00010000
00000000
00001000
00010000
00000100
00000010
,
00000001
00000000
00000000
00000001
00000000
00000000
00000000
00000000
00001000
00000000
00000000
00001000
00000000
00000000
00000000
00000000
,
00000010
00000000
00000000
00001000
00000000
00000000
00000100
00000000
00000000
00010000
00000000
00000000
00001000
00000000
00001000
00000000
,
00100000
00000000
00110000
00000000
00010000
10000000
01000000
00000000
,
10000000
00100000
01010000
11000000
,
00100000
00001000
00010000
00000000
00001000
00010000
00000100
00000000
,
00000010
00000000
00000001
00001000
00000010
00001000
00000010
00000100
,
00000001
00000010
00000001
00001000
,
00000100
00000000
00010000
00000000
00001000
01000000
00001000
00100000
,
00010000
10000000
01000000
00100000
,
01000000
00000000
10000000
00000000
00100000
00000000
01000000
00001000
,
00010000
01000000
00010000
00001000
,
00000100
00000000
00000001
00000000
00000100
00000010
00001000
00000001
,
00000010
00000000
00000100
00000000
00001000
00000000
00000100
00010000
,
00010000
00000000
00001000
00000100
00000000
00000110
00000000
00000000
,
00000001
00000101
00001010
00010000
,
00001000
00010000
00001000
00100000
00000000
01000000
00000000
00100000
,
00010000
00000000
11000000
00000000
00110000
00000000
10000000
00100000
,
01000000
00000000
00000000
00010000
00000000
00000000
01000000
00000000
00000000
00000000
00100000
00000000
10000000
00000000
01000000
00000000
,
00100000
00000000
00001000
00010000
00001000
00000000
00000010
00000000
,
00000100
00001000
00000100
00000010
00000000
00000001
00000000
00000100
,
00000001
00000010
00000001
00000010
00000100
00001000
00000100
00001000
,
00000100
00000000
00000000
00010000
00000000
00000000
00000100
00000000
00002000
00000000
00000000
00000000
00003000
00000000
00000000
00000000
,
00001001
00000110
00011000
01100000
,
10010000
00000000
00100000
00010000
00000000
10000000
00000000
00100000
,
00000000
01000000
00010000
01000000
00000000
00100000
00000000
00000000
,
10000000
01000000
00100000
00001000
00000000
00010000
00000000
00000010
,
00000000
00000100
00000000
00000101
00000000
00001010
00000000
00000100
,
00000010
00001000
00000010
00000100
00000000
00000001
00000000
00000010
,
00000100
00001000
00000100
00001000
00000000
00000100
00000000
00010000
,
00000000
00001000
01000000
00001000
00000000
00100000
00000000
00010000
,
00000000
10000000
01000000
00010000
01000000
10000000
00000000
00100000
,
01000000
00001000
01000000
00010000
00000000
00100000
00000000
00001000
,
00010000
00000100
00001000
00000100
00000000
00001000
00000000
00000010
,
00000100
00000010
00001000
00000100
00000000
00010000
00000000
00000000
,
00001000
00010000
00100000
10000000
01000000
10000000
00000000
00000000
,
01000000
00100000
00010000
00100000
00000000
01000000
00000000
00000000
,
00100000
00001000
00010000
00001000
00000000
00100000
00000000
00010000
,
10000000
01000000
00100000
00001000
00000000
00010000
00000000
00000100
,
00000000
00001000
00000010
00000100
00000001
00000010
00000000
00000000
,
00000002
00000000
00000203
00000000
00000301
00000010
00000100
00010000
,
00002000
00000000
00023000
00000000
00031000
00100000
01000000
10000000
,
00010000
00000000
00000000
00100000
00000000
00000000
00000000
00000000
01000000
00000000
00000000
10000000
00000000
00000000
00000000
00000000
,
00100000
00000000
00000000
01000000
00000000
00000000
00010000
00000000
00000000
00100000
00000000
00000000
00010000
00000000
00001000
00000000
,
00000010
00000000
00001001
00000000
00000100
00000001
00000100
00000000
,
00000010
00001000
00000100
00000000
00010100
00000000
00101000
00000000
,
00010000
00001000
00010000
00001000
00100000
00010000
01000000
10000000
,
01000000
00000000
00010000
00000000
10000000
01000000
00100000
00001000
,
00010000
00000000
00000000
00000000
,
00000000
00000000
00000000
00000110
;

//---------------dance-double - D-STANDARD----------------
#NOTEDATA:;
#CHARTNAME:DJ OMiY-SDP;
#STEPSTYPE:dance-double;
#DESCRIPTION:D-STANDARD;
#CHARTSTYLE:;
#DIFFICULTY:Medium;
#METER:5;
#RADARVALUES:0.377267,0.419710,0.232164,0.251511,0.009674,223.000000,24.000000,26.000000,0.000000,0.000000,0.000000,0.000000,0.000000,0.377267,0.419710,0.232164,0.251511,0.009674,223.000000,24.000000,26.000000,0.000000,0.000000,0.000000,0.000000,0.000000;
#CREDIT:DJ OMiY;
#NOTES:
00000000
00000000
00000000
00000000
,
00000000
00000000
00000000
00000000
,
00000000
00000000
00000000
00000000
,
00000000
00000000
00000000
00000000
,
10000000
00000000
00010000
00000000
,
10000000
00000000
00010000
00000000
,
00001000
00000000
00000001
00000000
,
00000220
00000000
00000000
00000000
00000000
00000000
00000330
00000010
,
00001000
00000000
00000001
00000100
00000000
00000001
00000000
00000000
,
00000000
00000000
00002000
00000000
00000000
00003200
00000000
00000000
,
00010300
00000000
00001000
00100000
00000000
00010000
00000000
00000000
,
20000000
00000000
00000000
32000000
00000000
00000000
03100000
00010000
,
01000000
00000000
00010000
10000000
00000000
00010000
00000000
00000000
,
00000000
00000000
00200000
00000000
00000000
00302000
00000000
00000000
,
00013000
00000000
00000100
00001000
00000000
00000001
00000000
00000000
,
00000110
00000000
00000000
00000000
,
00001000
00000000
00000001
00000000
00001000
00000100
00001000
00000000
,
00000100
00000000
00010000
00000000
00001000
00100000
00001000
00000000
,
02000000
00000000
00200000
03300000
,
20000000
00000000
00000000
30020000
00000000
00000000
00130000
00000000
,
11000000
00000000
11000000
00000000
00100000
00001000
00010000
00000000
,
00001000
00000100
00000002
00002003
,
00003001
00000010
00000100
00000000
00000010
00000100
00001000
00000000
,
00000200
00000000
00010000
00010300
,
00011000
00001000
00100000
00010000
,
10000000
00000000
01000000
00000000
00100000
00000000
01000000
10000000
,
01000000
00010000
00001000
00010000
,
00001000
00000000
00000100
00000001
00000000
00000100
00000000
00000000
,
00000001
00000001
00001000
00000010
,
00001000
00000000
00000100
00000000
00000010
00000000
00000100
00010000
,
00001000
00100000
00001000
00010000
,
01000000
00000000
00100000
01000000
00000000
10000000
00000000
00000000
,
00010000
01000000
01010000
00000000
,
00100000
00000000
10000000
00100000
00000000
10000000
00000000
00000000
,
00010000
00100000
00101000
00000000
,
00010000
00000000
00000000
00000100
00000000
00000000
00001000
00000000
00000000
00000000
00000000
00000000
00000001
00000000
00000010
00000000
,
00000001
00000010
00000110
00000000
,
00000100
00000000
00010000
00000100
00000000
00000010
00000000
00000000
,
00000100
00001000
00000100
00000000
00010000
00001000
00010000
00000000
,
00001000
00000000
00000000
00100000
00000000
00000000
00001000
00000000
00010000
00000000
00000000
00000000
00000000
00000000
00000000
00000000
,
01000000
10000000
00010000
01000000
,
01100000
00000000
00000000
00100000
00000000
10000000
00000000
00020000
,
00000000
00030000
00000000
00100000
00000000
00001000
00000000
00020000
,
00000000
00030000
00000000
00000100
00000000
00001000
00000000
00000010
,
00000000
00000100
00000000
00001001
00000000
00000110
00000000
00000000
,
00000001
00000000
00000000
00001000
00000000
00000100
00000000
00020000
,
00000000
00030000
00000000
00001000
00000000
00100000
00000000
02000000
,
00000000
03000000
00000000
10000000
00000000
00010000
00000000
01000000
,
00000000
00000000
00100000
00000000
10000000
01000000
00000000
00000000
,
00110000
00000000
00000000
00000000
00000000
11000000
00000000
01010000
,
00000000
00000000
00000000
00000000
00000000
00011000
00000000
00001100
,
00000000
00000000
00000000
00000000
00000000
00000110
00000000
00000000
,
00000001
00000000
00001000
00000100
00000010
00000001
00000000
00000000
,
00000101
00000000
00000000
00000000
00000000
00001010
00000000
00001100
,
00000000
00000000
00000000
00000000
00000000
00011000
00000000
00110000
,
00000000
00000000
00000000
00000000
00000000
10010000
00000000
00000000
,
00100000
10000000
01000000
00100000
00010000
01000000
00000000
00000000
,
00100000
00000000
00100000
00000000
10000000
01000000
10000000
00000000
,
00010000
00000000
00010000
00000000
00100000
00001000
00100000
00000000
,
00002000
00000000
00020000
00033000
,
00020000
00000000
00000000
00030200
00000000
00000000
00000310
00000001
,
00000010
00000000
00000100
00000000
00001000
00000001
00001000
00000000
,
00000010
00000100
00000002
00002003
,
00003100
00010000
00001000
00000000
00100000
00010000
01000000
00000000
,
00200000
00000000
00000000
00000000
10300000
01000000
00100000
00001000
,
00010000
00000000
00000000
00000000
,
00000000
00000000
00000000
00011000
;

//---------------dance-double - D-LIGHT----------------
#NOTEDATA:;
#CHARTNAME:DJ OMiY-LDP;
#STEPSTYPE:dance-double;
#DESCRIPTION:D-LIGHT;
#CHARTSTYLE:;
#DIFFICULTY:Easy;
#METER:3;
#RADARVALUES:0.243220,0.290568,0.067715,0.164450,0.000000,152.000000,7.000000,17.000000,0.000000,0.000000,0.000000,0.000000,0.000000,0.243220,0.290568,0.067715,0.164450,0.000000,152.000000,7.000000,17.000000,0.000000,0.000000,0.000000,0.000000,0.000000;
#CREDIT:DJ OMiY;
#NOTES:
00000000
00000000
00000000
00000000
,
00000000
00000000
00000000
00000000
,
00000000
00000000
00000000
00000000
,
00000000
00000000
00000000
00000000
,
00001000
00000000
00001000
00000000
,
00010000
00000000
00010000
00000000
,
00001000
00000000
00010000
00000000
,
00001000
00000000
00000000
00000000
,
00100000
00000000
00100000
00000000
,
01000000
00000000
20000000
00000000
00000000
30000000
00000000
00000000
,
00100000
00000000
00100000
00000000
,
02000000
00000000
00000000
03000000
00000000
00000000
00010000
00000000
,
00100000
00000000
00001000
00000000
,
00010000
00000000
00000200
00000000
00000000
00000300
00000000
00000000
,
00000010
00000000
00000100
00000000
,
00001001
00000000
00000000
00000000
,
00000010
00000001
00000001
00000000
,
00000010
00001000
00001000
00000000
,
00010000
00000000
00001000
00000000
,
00100000
00010000
01000000
10000000
,
01000000
01000000
00010000
00000000
,
00100000
00000000
00002000
00023000
,
00030100
00010000
00001000
00100000
,
02000000
00000000
00000000
03000000
,
11000000
00000000
00100000
00000000
,
00010000
00000000
00100000
00001000
,
00010000
00000000
00000010
00000000
,
00000100
00000000
00000100
00000001
,
00001000
00000000
00000010
00000000
,
00001000
00000000
00000100
00010000
,
00001000
00000000
00010000
00000000
,
02200000
00000000
00000000
00000000
00000000
03300000
00000000
00000000
,
10010000
10000000
00010000
00000000
,
01000000
00000000
00100000
00000000
,
10000000
00100000
00010000
00000000
,
00001000
00000000
00010000
00000000
,
00000100
00000000
00000010
00000000
,
00000100
00001000
00000001
00000000
,
00000020
00000030
00000002
00000003
,
00001000
00000100
00010000
00000000
,
00022000
00000000
00000000
00033000
,
00001000
00100000
01000000
00000000
,
10000000
01000000
00100000
00000000
,
00010000
00000000
00100000
00000000
,
00001000
00010000
00001000
00000010
,
00000001
00000000
00000100
00000000
,
00000001
00000010
00000100
00000000
,
00001000
00000000
00001000
00000000
,
00000100
00010000
00002000
00003000
,
00100000
00010000
01000000
00000000
,
00100000
10000000
01000000
00000000
,
10000000
01000000
00100000
00000000
,
00010000
00000000
00011000
00000000
,
00001000
00000100
00001000
00000000
,
00000001
00000100
00000001
00000000
,
00000010
00000000
00000010
00000000
,
00000100
00001000
00000020
00000030
,
00001000
00001000
00000100
00000000
,
00001000
00001000
00010000
00000000
,
00100000
00000000
01000000
00000000
,
10000000
00010000
01000000
00010000
,
10000000
00000000
00010000
00000000
,
00100000
00000000
00002000
00023000
,
00030100
00000010
00000001
00000010
,
00000200
00000000
00000000
00000000
,
00010300
00000000
00000000
00000000
,
00000000
00000000
00000000
11000000
;
