#VERSION:0.82;
#TITLE:この青空の下で;
#SUBTITLE:;
#ARTIST:TAG meets "eimy";
#TITLETRANSLIT:Kono aozora no shita de;
#SUBTITLETRANSLIT:;
#ARTISTTRANSLIT:;
#GENRE:;
#ORIGIN:;
#CREDIT:;
#BANNER:Kono aozora no shita de-bn.png;
#BACKGROUND:Kono aozora no shita de-bg.png;
#PREVIEWVID:;
#JACKET:Kono aozora no shita de-jk.png;
#CDIMAGE:;
#DISCIMAGE:;
#LYRICSPATH:;
#CDTITLE:;
#MUSIC:Kono aozora no shita de.ogg;
#OFFSET:0.000000;
#SAMPLESTART:36.856888;
#SAMPLELENGTH:11.636364;
#SELECTABLE:YES;
#BPMS:0.000=165.000;
#STOPS:;
#DELAYS:;
#WARPS:;
#TIMESIGNATURES:0.000=4=4;
#TICKCOUNTS:0.000=4;
#COMBOS:0.000=1;
#SPEEDS:0.000=1.000=0.000=0;
#SCROLLS:0.000=1.000;
#FAKES:;
#LABELS:0.000=Song Start;
#BGCHANGES:;
#KEYSOUNDS:;
#ATTACKS:
;

//---------------dance-double - D-CHALLENGE----------------
#NOTEDATA:;
#CHARTNAME:xRGTMx-CDP;
#STEPSTYPE:dance-double;
#DESCRIPTION:D-CHALLENGE;
#CHARTSTYLE:;
#DIFFICULTY:Challenge;
#METER:10;
#RADARVALUES:0.811605,0.824764,0.694087,0.197087,0.702656,559.000000,81.000000,23.000000,0.000000,0.000000,0.000000,0.000000,0.000000,0.811605,0.824764,0.694087,0.197087,0.702656,559.000000,81.000000,23.000000,0.000000,0.000000,0.000000,0.000000,0.000000;
#CREDIT:xRGTMx;
#NOTES:
00000000
00000000
00000000
00000000
,
00000000
00000000
00000000
00000000
,
00000000
00000000
00000000
00000000
,
00000000
00000000
00000000
00000000
,
00000000
00000000
00000000
00000000
,
00001000
00000001
00001000
00000000
00000001
00000010
00000000
00000100
00010000
00000000
00001000
00100000
00000000
00100000
00010000
00000000
,
01000000
00010000
00000000
00010000
00000000
00000000
10000000
01000000
00000000
01000000
00000000
00000000
00110000
00000000
00101000
00000000
,
00001000
00010000
00001000
00000000
00100000
01000000
00000000
10000000
00100000
00000000
01000000
00001000
00000000
00010000
00000100
00000000
,
00001000
00000010
00000000
00000110
00000000
00000000
00000101
00000000
00000000
00000000
00000010
00000000
00010000
00000000
00011000
00000000
,
00000000
00000000
00001000
00000000
00100000
00000000
01000000
00100000
01000000
00000000
10000000
00000000
00000000
00000000
10100000
00000000
,
00000000
00100000
01000000
00000000
00010000
00000000
00100000
00000000
00000000
00100000
00001000
00000000
00010000
00000000
00000100
00010000
,
00000100
00000000
00000000
00000100
00000010
00000000
00000001
00000000
00000000
00000001
00001000
00000000
00000010
00000000
00001000
00000000
,
00000000
00001000
00000100
00000000
00000000
00000100
00010000
00000000
00000000
00010000
00001000
00000000
00000000
00001000
00100000
00000000
,
00001000
00000000
00010000
00000000
00000100
00000000
00000010
00000100
00000010
00000000
00000001
00000000
00000000
00000000
00000101
00000000
,
00000000
00000100
00000010
00000000
00001000
00000000
00000100
00000000
00000000
00000100
00010000
00000000
00001000
00000000
00100000
00001000
,
00100000
00000000
00000000
00100000
01000000
00000000
10000000
00000000
00000000
10000000
00010000
00000000
01000000
00000000
00010000
00000000
,
00000000
00010000
00100000
00000000
00000000
00100000
00001000
00000000
00010000
00000000
00000100
00000000
00000010
00000000
00000001
00000000
,
00001000
00000000
00010010
00000000
00010000
00011000
00000000
00101000
,
00000000
01100000
00000000
01000000
11000000
00000000
10010000
00000000
,
00010000
01010000
00000000
01000000
01001000
00000000
00001000
00011000
,
00000000
00010100
00000000
00000110
00000011
00000000
00001001
00000000
,
00001010
00001000
00000100
00010100
00000000
00011000
00000000
00101000
,
00000000
01100000
01000000
10000000
10010000
00000000
01010000
00000000
,
00100000
10000000
01000000
00010000
00001000
00000010
00000001
00000100
,
00000010
00001000
00000010
00000000
00010000
00000100
00010000
00000000
00001000
00100000
00001000
00100000
00010000
01000000
00010000
01000000
,
00100000
20020000
00000000
00000000
00000000
00000000
30030000
00000000
,
10100000
00000000
00100000
10000000
00000000
10000000
01000000
00000000
00100000
00000000
00010000
00000000
00100000
00000000
00001000
00000000
,
00010000
00000000
00000100
00001000
00000000
00001000
00000010
00000000
00000100
00000000
00000101
00000000
00000000
00000000
00001100
00000000
,
00000001
00000000
00000010
00000001
00000000
00000001
00000100
00000000
00000010
00000000
00001000
00000000
00000010
00000000
00010000
00000000
,
00001000
00000000
01000000
00010000
00000000
00010000
00100000
00000000
01000000
00000000
11000000
00000000
00000000
00000000
01010000
00000000
,
10000000
00000000
10000000
01000000
00000000
01000000
00010000
00000000
00001000
00000000
00000100
00000000
00000010
00000000
00001000
00000000
,
00000001
00000000
00000001
00000010
00000000
00000010
00001000
00000000
00010000
00000000
00100000
00000000
01000000
00000000
00010000
00000000
,
11000000
00000000
00000000
00101000
00000000
00000000
00010200
00000000
00000000
00000000
00000000
00000000
00000310
00000000
00000100
00000000
,
00001000
00000100
00001000
00000100
00010000
00000100
00010000
00000100
00010000
00001000
00010000
00001000
00100000
00001000
00100000
00001000
,
01000000
00000000
00000000
01001000
00000000
00000000
10010000
00000000
10000000
00000000
01000000
00000000
00100000
00000000
00010000
00000000
,
01000000
00000000
01000000
00001000
00000000
00001000
00010000
00000000
00000100
00000000
00001100
00000000
00000000
00000000
00001001
00000000
,
00000001
00000000
00000001
00000010
00000000
00000000
00000110
00000000
00000100
00000000
00001000
00000100
00000000
00000000
00010100
00000000
,
00010000
00000000
00000000
00101000
00000000
00000000
02010000
00000000
00000000
00000000
03100000
00000000
01000000
00000000
00010000
00000000
,
10000000
01000000
00000000
01000000
00100000
00000000
00100000
00010000
01000000
00000000
01020000
00000000
00000000
00000000
00130000
00000000
,
00010000
00100000
00000000
00100000
00001000
00000000
00010000
00000100
00001000
00000000
00001020
00000000
00000000
00000000
00000130
00000000
,
00000001
00000010
00000100
00000000
00000010
00000100
00010000
00000000
00000100
00010000
00001000
00000000
00001000
00100000
00001000
00100000
,
00010000
00000000
00000000
01010000
00000000
00000000
20020000
00000000
00000000
00000000
00000000
00000000
30030000
00000000
00000000
00000000
,
10000000
00000000
00100000
01000000
00000000
00000000
00010000
00000000
00100000
00001000
00000000
00000000
00010000
00000000
00000100
00001000
,
00000000
00000000
00000010
00000000
00000100
00000001
00000000
00000000
00001000
00000000
00000100
00000010
00000000
00000010
00000001
00000100
,
00000001
00000000
00000100
00000010
00000000
00000000
00001000
00000000
00000100
00010000
00000000
00000000
00001000
00000000
00100000
00010000
,
00000000
00000000
01000000
00000000
00100000
10000000
00000000
00000000
00010000
00000000
00100000
01000000
00000000
01000000
10000000
00100000
,
10000000
00000000
00100000
00000000
00010000
00000000
00001000
00000000
00000100
00000000
00000010
00000000
00001000
00000000
00000001
00001000
,
00000001
00000010
00001000
00010000
01000000
00100000
00010000
10000000
,
00100000
10000000
00100000
00000000
01000000
00000000
01000000
00000000
00010000
00100000
00010000
00000000
00100000
00000000
00100000
00000000
,
00001000
00010000
00001000
00000000
00010000
00000100
00010000
00000000
00000100
00000010
00000100
00000010
00000001
00001000
00000001
00001000
,
00000010
00000110
00000000
00000000
00000000
00000000
00000000
00000000
,
00001002
00000010
00000000
00000023
00000000
00001000
00000000
00002030
,
00000000
00010000
00000000
00023000
00000000
00100000
00000000
00130000
,
01100000
20010000
00000000
30200000
00000000
00310000
00000000
00011000
,
00000000
00000000
00010100
00000000
00000000
00000000
00001010
00000000
00000000
00000000
00000110
00000000
00000101
00000000
00000001
00001000
,
00000001
00000000
00000000
00000001
00000000
00000000
00000010
00000000
00000000
00000000
00001000
00000000
00000000
00000000
00001000
00000000
,
00010000
00000000
00000000
00010000
00000000
00000000
00100000
00000000
00000000
00000000
10000000
00000000
00000000
00000000
10000000
00000000
,
01000000
00000000
00000000
00100000
00000000
00000000
00022000
00000000
00000000
00000000
00000000
00000000
00033000
00000000
00000000
00000000
,
00010000
00000100
00010000
00000000
00000010
00001000
00000010
00000000
00000100
00000001
00000100
00000001
00000010
00000001
00000010
00000001
,
00000100
00000000
00000000
00000110
00000000
00000000
00001001
00000000
00000001
00000000
00000010
00000000
00000100
00000000
00001000
00000000
,
00000010
00000000
00000010
00010000
00000000
00010000
00001000
00000000
00100000
00000000
00110000
00000000
00000000
00000000
10010000
00000000
,
10000000
00000000
10000000
01000000
00000000
00000000
01100000
00000000
00100000
00000000
00010000
00100000
00000000
00000000
00101000
00000000
,
00001000
00000000
00000000
00010100
00000000
00000000
00001020
00000000
00000000
00000000
00000130
00000000
00000010
00000000
00001000
00000000
,
00000001
00000010
00000000
00000010
00000100
00000000
00000100
00001000
00000010
00000000
00002010
00000000
00000000
00000000
00003100
00000000
,
00001000
00000100
00000000
00000100
00010000
00000000
00001000
00100000
00010000
00000000
02010000
00000000
00000000
00000000
03100000
00000000
,
10000000
00000000
01000000
00000000
00010000
00000000
01000000
00000000
00100000
00001000
00100000
00001000
00010000
00000100
00010000
00000100
,
00001000
00000000
00000000
00000110
00000000
00000000
00002002
00000000
00000000
00000000
00000000
00000000
00003003
00000000
00000000
00000000
,
00001000
00000001
00001000
00000000
00000001
00000100
00000000
00000010
00010000
00000000
00001000
01000000
00000000
01000000
00010000
00000000
,
00100000
00010000
00000000
00010000
00000000
00000000
10000000
00100000
00000000
00100000
00000000
00000000
01010000
00000000
01001000
00000000
,
00001000
00010000
00001000
00000000
01000000
00100000
00000000
10000000
01000000
00000000
00100000
00001000
00000000
00010000
00000010
00001000
,
00000010
00000000
00001000
00000100
00000000
00000100
00000010
00000000
00000010
00000001
00000000
00000001
00000100
00000000
00001001
00000000
,
00001000
00000001
00001000
00000000
00000001
00000010
00000000
00000100
00010000
00000000
00001000
00100000
00000000
00100000
00010000
00000000
,
01000000
00010000
00000000
00010000
00000000
00000000
10000000
01000000
00000000
01000000
00000000
00000000
00110000
00000000
00101000
00000000
,
00001000
00010000
00001000
00000000
00100000
01000000
00000000
10000000
00100000
00000000
01000000
00001000
00000000
00010000
00000100
00000000
,
00001000
00000010
00000000
00000110
00000000
00000000
00000101
00000000
00000000
00000000
00001010
00000000
00011000
00000000
00110000
00000000
,
02200000
00000000
00000000
00000000
,
00000000
00000000
00000000
00000000
,
03300000
00000000
00000000
00000000
;

//---------------dance-double - D-HEAVY----------------
#NOTEDATA:;
#CHARTNAME:xRGTMx-HDP;
#STEPSTYPE:dance-double;
#DESCRIPTION:D-HEAVY;
#CHARTSTYLE:;
#DIFFICULTY:Hard;
#METER:9;
#RADARVALUES:0.686743,0.725793,0.736932,0.137104,0.269923,459.000000,86.000000,16.000000,0.000000,0.000000,0.000000,0.000000,0.000000,0.686743,0.725793,0.736932,0.137104,0.269923,459.000000,86.000000,16.000000,0.000000,0.000000,0.000000,0.000000,0.000000;
#CREDIT:xRGTMx;
#NOTES:
00000000
00000000
00000000
00000000
,
00000000
00000000
00000000
00000000
,
00000000
00000000
00000000
00000000
,
00000000
00000000
00000000
00000000
,
00000000
00000000
00000000
00000000
,
00001000
00000001
00000010
00001000
00010000
00100000
10000000
00010000
,
10000000
01000000
00000000
10000000
00000000
00000000
00010000
01000000
00000000
00010000
00000000
00000000
00100000
00000000
00001000
00000000
,
00010000
00000100
00000001
00000100
00010000
01000000
10000000
00010000
,
00100000
01000000
00000000
11000000
00000000
00000000
01010000
00000000
00000000
00000000
00010000
00000000
00100000
00000000
00011000
00000000
,
00000000
00001000
00010000
00000100
00000010
00000001
00000000
00000101
,
00000000
00000100
00000001
00001000
00000000
00001000
00000100
00000010
,
00001000
00000000
00010000
01000000
00000000
01000000
10000000
00000000
,
00100000
10000000
00000000
11000000
00000000
01010000
00000000
00011000
,
00000000
00001000
00000100
00000001
00000100
00010000
00000000
00101000
,
00000000
00100000
01000000
10000000
00000000
00010000
01000000
00100000
,
10100000
00000000
10000000
01010000
00000000
00010000
00100000
00010100
,
00000000
00000110
00000000
00000011
00000001
00001000
00000010
00000100
,
00000001
00000000
00001100
00000100
00010000
00011000
00000000
00101000
,
00000000
01100000
00000000
01000000
11000000
10000000
10010000
00000000
,
00010000
01010000
01000000
00001000
00011000
00000000
00010000
00010100
,
00000000
00000011
00000001
00000100
00000110
00000000
00001010
00000000
,
00001100
00000100
00010000
00011000
00000000
00101000
00000000
11000000
,
00000000
10100000
00100000
01000000
01010000
00000000
00101000
00000000
,
00010000
00001000
00000010
00000001
00000010
00000100
00001000
00010000
,
00100000
00000000
01000000
00000000
10000000
00000000
00010000
00000000
01000000
00000000
00001000
00010000
00001000
00000000
00010000
00000000
,
00000100
00000220
00000000
00000000
00000000
00000000
00000330
00000000
,
00001001
00000000
00001000
00000001
00000000
00000000
00000100
00000000
00000000
00000000
00000010
00000000
00001000
00000000
00000100
00000000
,
00010000
00000000
00001000
00100000
00000000
00000000
01000000
00000000
00000000
00000000
11000000
00000000
00000000
00000000
01010000
00000000
,
00010000
00000000
00100000
00001000
00000000
00001000
00010000
00000000
00000100
00000000
00000010
00000000
00000001
00000000
00001000
00000000
,
00000010
00000000
00000000
00001010
00000000
00000000
00000011
00000000
00000000
00000000
00001100
00000000
00000100
00000000
00010000
00000000
,
00001000
00000000
00000000
01001000
00000000
00000000
10100000
00000000
00000000
00000000
10000000
00000000
01000000
00000000
00100000
00000000
,
00010000
00000000
00010000
00100000
00000000
00000000
01001000
00000000
00000000
00000000
00010100
00000000
00000000
00000000
00000010
00000000
,
00000001
00000000
00000100
00000010
00000000
00000000
00002001
00000000
00000000
00000000
00000010
00000000
00000000
00000000
00003100
00000000
,
00001000
00000100
00001000
00000000
00000100
00010000
00000100
00000000
00010000
00000000
00001000
00000000
01000000
00000000
00100000
00000000
,
01000000
00000000
00000000
10100000
00000000
00000000
00110000
00000000
00000000
00000000
00010000
00000000
00100000
00000000
00001000
00000000
,
00010000
00000000
00010000
00000010
00000000
00000000
00001010
00000000
00000000
00000000
00000110
00000000
00000100
00000000
00000001
00000000
,
00000010
00000000
00000010
00000100
00000000
00000000
00001000
00000000
00000100
00000000
00010000
00000000
01000000
00000000
10000000
00000000
,
00100000
00000000
00100000
01000000
00000000
00000000
10010000
00000000
00000000
00000000
00101000
00000000
00000000
00000000
00010100
00000000
,
00000100
00001000
00000100
00000000
00001000
00000001
00001000
00000000
00000001
00000000
00000110
00000000
00000000
00000000
00011000
00000000
,
00100000
00001000
00100000
00000000
01000000
10000000
01000000
00000000
00100000
00000000
01010000
00000000
00000000
00000000
10010000
00000000
,
00100000
10000000
01000000
00100000
00001000
00010000
00000100
00000010
,
00000001
00000000
00000000
00000110
00000000
00000000
00022000
00000000
00000000
00000000
00000000
00000000
00033000
00000000
00000000
00000000
,
00010000
00000000
00000000
01000000
00000000
00000000
10000000
00000000
00000000
00100000
00000000
00000000
00010000
00000000
00000000
00001000
,
00000000
00000000
00000100
00000000
00000000
00000001
00000000
00000000
00000010
00000000
00000000
00001000
00000000
00000000
00010000
00001000
,
00010000
00000000
00000000
00100000
00000000
00000000
10000000
00000000
00000000
01000000
00000000
00000000
00010000
00000000
00000000
00001000
,
00000000
00000000
00000010
00000000
00000000
00000001
00000000
00000000
00000100
00000000
00000000
00001000
00000000
00000000
00010000
00001000
,
00010000
00100000
10000000
01000000
00100000
00001000
00010000
00010000
,
00000100
00000010
00000001
00001000
00000010
00000100
00001000
00001000
,
00000100
00000001
00000010
00001000
00010000
01000000
10000000
00100000
,
01000000
00010000
00100000
00001000
00010000
00000100
00000010
00000001
,
00000100
00000110
00000000
00000000
00000000
00000000
00000000
00000000
,
00001002
00000100
00000000
00000203
00000000
00001000
00000000
00002300
,
00000000
00010000
00000000
00023000
00000000
01000000
00000000
01030000
,
01100000
20010000
00000000
32000000
00000000
03010000
00000000
00011000
,
00000000
00000000
00010010
00000000
00000000
00000000
00001010
00000000
00000000
00000000
00000110
00000000
00000011
00000000
00000001
00001000
,
00000001
00000000
00000000
00000001
00000000
00000000
00000100
00000000
00000000
00000000
00001000
00000000
00000000
00000000
00001000
00000000
,
00010000
00000000
00000000
00010000
00000000
00000000
01000000
00000000
00000000
00000000
10000000
00000000
00000000
00000000
10000000
00000000
,
00100000
00000000
00000000
01000000
00000000
00000000
00022000
00000000
00000000
00000000
00000000
00000000
00033000
00000000
00000000
00000000
,
00010000
00000100
00000010
00000100
00001000
00100000
01000000
00100000
,
00010000
00000000
00000000
11000000
00000000
00000000
01010000
00000000
00000000
00000000
00010000
00000000
00100000
00000000
00001000
00000000
,
00010000
00000000
00010000
00000100
00000000
00000000
00001100
00000000
00000000
00000000
00000110
00000000
00000010
00000000
00000001
00000000
,
00000100
00000000
00000100
00000010
00000000
00000000
00001000
00000000
00000010
00000000
00010000
00000000
00100000
00000000
10000000
00000000
,
01000000
00000000
01000000
00100000
00000000
00000000
10010000
00000000
00000000
00000000
00101000
00000000
00000000
00000000
00010010
00000000
,
00000010
00001000
00000010
00000000
00001000
00000001
00001000
00000000
00000001
00000000
00000110
00000000
00000000
00000000
00011000
00000000
,
01000000
00001000
01000000
00000000
00100000
10000000
00100000
00000000
01000000
00000000
00110000
00000000
00000000
00000000
10010000
00000000
,
01000000
10000000
00100000
01000000
00001000
00010000
00000010
00000100
,
00000001
00000000
00000000
00000110
00000000
00000000
00022000
00000000
00000000
00000000
00000000
00000000
00033000
00000000
00000000
00000000
,
00001000
00000001
00000010
00001000
00010000
00100000
10000000
00010000
,
10000000
01000000
00000000
10000000
00000000
00000000
00010000
01000000
00000000
00010000
00000000
00000000
00100000
00000000
00001000
00000000
,
00010000
00000100
00000001
00000100
00010000
01000000
10000000
00010000
,
00100000
00000000
00000000
11000000
00000000
00000000
01010000
00000000
00000000
00101000
00000000
00000000
00010100
00000000
00000100
00000000
,
00001000
00000001
00000100
00001000
00010000
01000000
10000000
00010000
,
10000000
00100000
00000000
10000000
00000000
00000000
00010000
00100000
00000000
00010000
00000000
00000000
01000000
00000000
00001000
00000000
,
00010000
00000100
00000010
00000100
00010000
00100000
10000000
00010000
,
01000000
00100000
00000000
11000000
00000000
00000000
01010000
00000000
00000000
00000000
00010000
00000000
00100000
00000000
00001000
00000000
,
00020000
00000000
00000000
00000000
,
00000000
00000000
00000000
00000000
,
00030000
00000000
00000000
00000000
;

//---------------dance-double - D-STANDARD----------------
#NOTEDATA:;
#CHARTNAME:xRGTMx-SDP;
#STEPSTYPE:dance-double;
#DESCRIPTION:D-STANDARD;
#CHARTSTYLE:;
#DIFFICULTY:Medium;
#METER:7;
#RADARVALUES:0.463949,0.520994,0.565553,0.077121,0.055698,304.000000,66.000000,9.000000,0.000000,0.000000,0.000000,0.000000,0.000000,0.463949,0.520994,0.565553,0.077121,0.055698,304.000000,66.000000,9.000000,0.000000,0.000000,0.000000,0.000000,0.000000;
#CREDIT:xRGTMx;
#NOTES:
00000000
00000000
00000000
00000000
,
00000000
00000000
00000000
00000000
,
00000000
00000000
00000000
00000000
,
00000000
00000000
00000000
00000000
,
00000000
00000000
00000000
00000000
,
00000001
00000100
00010100
00101000
,
01000000
00000000
00000000
01000000
00000000
00000000
00100000
00000000
00000000
00100000
00000000
00000000
10000000
00000000
00010000
00000000
,
10000000
00100000
00101000
00010100
,
00000100
00000000
00000000
00000100
00000000
00000000
00000010
00000000
00000000
00000000
00000010
00000000
00000001
00000000
00001000
00000000
,
00000000
00000001
00000100
00000000
00000010
00000100
00000000
00000010
,
00000000
00001000
00000000
00000100
00000000
00000100
00010000
00000000
,
00001000
00000000
00001000
00100000
00000000
00100000
01000000
00000000
,
00000000
10000000
00000000
10000000
00000000
00010000
00000000
00010000
,
00000000
10000000
00100000
00000000
01000000
00100000
00000000
01000000
,
00000000
00010000
00000000
00100000
00000000
00100000
00001000
00000000
,
00010000
00000000
00010000
00000100
00000000
00000100
00000010
00000001
,
00000000
00000001
00001000
00000000
00000100
00010000
00000100
00010000
,
00001000
00000000
00101000
00000000
00000000
01010000
00000000
01100000
,
00000000
10100000
00000000
10000000
01000000
00000000
10010000
00000000
,
00000000
01010000
00000000
00000000
00011000
00000000
00000000
00010100
,
00000000
00001100
00000000
00000100
00000010
00000000
00000001
00000000
,
00001000
00000000
00000000
00001010
00000000
00000110
00000000
00000101
,
00000000
00000001
00000000
00001000
00000100
00000000
00001000
00000000
,
00000100
00000000
00000100
00010000
00000000
01000000
00000000
10000000
,
00000000
00000000
20000000
00020000
00000000
00000000
30030000
00000000
,
00100000
00100000
00000000
00000000
00000000
00000000
00000010
00000000
,
00001001
00000000
00000001
00000000
00000100
00000010
00000100
00000000
,
00000010
00010000
00001000
00100000
,
10010000
00000000
10000000
00000000
01000000
00100000
01000000
00000000
,
00100000
00001000
00010000
00000010
,
00001001
00000101
00001100
00010000
,
00011000
00101000
11000000
00010000
,
01010000
00011000
00001100
00000010
,
00000001
00000010
00000100
00000010
00000100
00001000
00000001
00000000
,
00000101
00001100
00010000
10000000
,
11000000
01010000
00001000
00000001
,
00000011
00001010
00011000
00110000
,
11000000
01010000
00011000
00001100
,
00000010
00000100
00000010
00000000
00001000
00000001
00000000
00000000
,
00001000
00000100
00001000
00000000
00000100
00010000
00000000
00000000
,
00001000
00100000
01000000
10000000
,
00100000
00000000
00000000
00100000
00000000
00000000
10010000
00000000
00000000
00000000
00000000
00000000
00000000
00000000
00000000
00000000
,
10000000
01000000
00010000
01000000
,
10000000
01000000
00100000
00000000
00010000
00000000
00000010
00000000
,
00000001
00000100
00001000
00000100
,
00000001
00000100
00000010
00000000
00001000
00000000
00100000
00000000
,
10000000
01000000
00010000
00000000
00010000
01000000
10000000
00000000
,
10000000
01000000
00100000
00000000
00010000
00000000
00000010
00000000
,
00000001
00000100
00001000
00000000
00001000
00000100
00000001
00000000
,
00000001
00000100
00000010
00000000
00001000
00000000
00100000
00000000
,
01000000
01000000
00000000
00000000
00000000
00000000
00000000
00000000
,
00001002
00000000
00000013
00000000
,
00000020
00000000
00001030
00000000
,
00002000
00010000
00000000
00000000
00003000
00000000
00000000
00011000
,
00000000
00110000
00000000
01100000
00000000
01000000
10000000
00010000
,
10000000
00000000
01000000
00000000
,
00010000
00000000
00001000
00000000
,
00000100
00000000
00000000
00000100
00000000
00000000
00000200
00000000
00000000
00000000
00000000
00000000
00000300
00000000
00000000
00000000
,
00000001
00000010
00000100
00000010
00000100
00001000
00000001
00000000
,
00000011
00001010
00010000
10000000
,
10100000
00110000
00001000
00000001
,
00000101
00001100
00011000
01010000
,
10100000
00110000
00011000
00001010
,
00000100
00000010
00000100
00000000
00001000
00000001
00000000
00000000
,
00001000
00000010
00001000
00000000
00000010
00010000
00000000
00000000
,
00001000
01000000
00100000
10000000
,
01000000
00000000
00000000
01000000
00000000
00000000
20020000
00000000
00000000
00000000
00000000
00000000
30030000
00000000
00000000
00000000
,
10000000
00100000
00101000
00010100
,
00000010
00000000
00000000
00000010
00000000
00000000
00000100
00000000
00000000
00000100
00000000
00000000
00000001
00000000
00001000
00000000
,
00000001
00000100
00010100
00101000
,
00100000
00000000
00000000
00100000
00000000
00000000
01000000
00000000
00000000
01000000
00000000
00000000
10000000
00000000
00010000
00000000
,
10000000
01000000
01001000
00010010
,
00000100
00000000
00000000
00000100
00000000
00000000
00000010
00000000
00000000
00000010
00000000
00000000
00000001
00000000
00001000
00000000
,
00000001
00000010
00010010
01001000
,
01000000
00000000
00000000
00100000
00000000
00000000
01100000
00000000
00000000
00000000
01000000
00000000
00010000
00000000
10000000
00000000
,
00020000
00000000
00000000
00000000
,
00030000
00000000
00000000
00000000
;

//---------------dance-double - D-LIGHT----------------
#NOTEDATA:;
#CHARTNAME:xRGTMx-LDP;
#STEPSTYPE:dance-double;
#DESCRIPTION:D-LIGHT;
#CHARTSTYLE:;
#DIFFICULTY:Easy;
#METER:5;
#RADARVALUES:0.368466,0.385604,0.291345,0.034276,0.000000,263.000000,34.000000,4.000000,0.000000,0.000000,0.000000,0.000000,0.000000,0.368466,0.385604,0.291345,0.034276,0.000000,263.000000,34.000000,4.000000,0.000000,0.000000,0.000000,0.000000,0.000000;
#CREDIT:xRGTMx;
#NOTES:
00000000
00000000
00000000
00000000
,
00000000
00000000
00000000
00000000
,
00000000
00000000
00000000
00000000
,
00000000
00000000
00000000
00000000
,
00000000
00000000
00000000
00000000
,
00000001
00000010
00001000
00010000
,
00100000
00000000
00000000
01000000
00000000
00000000
10010000
00000000
,
10000000
00100000
00010000
00001000
,
00000010
00000000
00000000
00000110
00000000
00000000
00001001
00000000
,
00000000
00001000
00000001
00000001
,
00001000
00000100
00000010
00000100
,
00010000
00000000
00000000
00001000
00000000
00000000
00010000
00000000
,
00000000
00100000
00000000
00100000
00000000
01000000
00000000
01000000
,
00000000
00010000
10000000
10000000
,
00010000
00100000
01000000
00100000
,
00001000
00000000
00000000
00010000
00000000
00000000
00001000
00000000
,
00000000
00000100
00000000
00000100
00000010
00000000
00000010
00000000
,
00001001
00000100
00011000
00100000
,
10010000
01000000
00011000
00000010
,
00001001
00000010
00011000
01000000
,
10010000
00100000
00011000
00000100
,
00000001
00000010
00001000
00000100
,
00000001
00001000
00010000
10000000
,
00010000
00100000
10000000
01000000
,
00010000
00001000
00000100
00000010
,
00001000
00000001
00000000
00000000
00000000
00000000
00100000
00000000
,
10010000
10000000
01000000
01000000
,
00100000
00100000
00001000
00010000
,
00001000
00001000
00000100
00000100
,
00000010
00000000
00000010
00000000
00001000
00000001
00001000
00000000
,
00000001
00000001
00000010
00000010
,
00000100
00000100
00010000
00001000
,
00010000
00010000
00100000
00100000
,
01000000
00100000
01000000
00000000
00100000
00000000
10010000
00000000
,
10000000
01000000
00010000
00001000
,
00010000
00001000
00000100
00000001
,
00000001
00000100
00001000
00010000
,
00001000
00010000
01000000
10000000
,
00100000
01000000
00100000
00000000
01000000
00000000
00001000
00000000
,
00010000
00001000
00010000
00000000
00000100
00000000
00000010
00000000
,
00000001
00001000
00000001
00000000
00000100
00000000
00000010
00000000
,
00010000
00000000
00000000
00001000
00000000
00000000
00000000
00000000
,
00010000
00010000
01000000
01000000
,
00001000
00001000
00000100
00000100
,
00010000
00010000
00100000
00100000
,
00001000
00001000
00000010
00000010
,
00011000
00100000
00011000
00000010
,
00011000
01000000
00011000
00000100
,
00011000
00100000
10010000
01000000
,
00011000
00000010
00001001
00000100
,
00010000
00001000
00000000
00000000
00000000
00000000
00000000
00000000
,
20000000
00000000
31000000
00000000
,
02000000
00000000
03100000
00000000
,
00200000
00000000
00310000
00000000
,
00020000
00000000
00031000
00000000
,
00001000
00001000
00000100
00000000
,
00000100
00000100
00000001
00000000
,
00000001
00000001
00001000
00000000
,
00011000
00110000
01100000
10010000
,
10000000
00100000
00010000
00001000
,
00010000
00001000
00000010
00000001
,
00000001
00000010
00001000
00010000
,
00001000
00010000
00100000
10000000
,
01000000
00100000
01000000
00000000
00100000
00000000
00001000
00000000
,
00010000
00001000
00010000
00000000
00000010
00000000
00000100
00000000
,
00000001
00001000
00000001
00000000
00000010
00000000
00000100
00000000
,
00010000
00000000
00000000
00000110
00000000
00000000
00001001
00000000
,
00000001
00000100
00001000
00010000
,
01000000
00000000
00000000
00100000
00000000
00000000
10010000
00000000
,
10000000
01000000
00010000
00001000
,
00000100
00000010
00000110
00001001
,
00000001
00000010
00001000
00010000
,
00100000
00000000
00000000
01000000
00000000
00000000
10010000
00000000
,
10000000
00100000
00010000
00001000
,
00000010
00000000
00000000
00000110
00000000
00000000
00001001
00000000
,
00011000
00000000
00000000
00000000
;

//---------------dance-single - S-CHALLENGE----------------
#NOTEDATA:;
#CHARTNAME:DJ OMiY-CSP;
#STEPSTYPE:dance-single;
#DESCRIPTION:S-CHALLENGE;
#CHARTSTYLE:;
#DIFFICULTY:Challenge;
#METER:10;
#RADARVALUES:0.874036,0.866163,0.334190,0.556984,0.676949,610.000000,39.000000,65.000000,0.000000,0.000000,0.000000,0.000000,0.000000,0.874036,0.866163,0.334190,0.556984,0.676949,610.000000,39.000000,65.000000,0.000000,0.000000,0.000000,0.000000,0.000000;
#CREDIT:DJ OMiY;
#NOTES:
0000
0000
0000
0000
,
0000
0000
0000
0000
,
0000
0000
0000
0000
,
0000
0000
0000
0000
,
0000
0000
0000
0000
,
0010
1000
0001
0000
0010
0001
0000
1000
0010
0000
0100
0001
0000
1000
0100
0000
,
0010
0100
0000
1000
0000
0000
0001
0010
0000
0001
0100
0000
0010
0000
0100
0000
,
0010
1000
0100
0000
1000
0100
0000
0010
0100
0000
0010
0001
0000
0100
0001
0000
,
1000
0100
0000
1001
0000
0000
0101
0000
0000
0000
0010
0000
0001
0000
0100
0000
,
1000
0100
0001
0100
0001
0010
0100
1000
,
0010
1000
0100
0010
0001
0010
0001
1000
,
0001
0100
0010
0100
0001
1000
0100
0001
,
1000
0010
0001
0100
1000
0100
0001
1000
,
0010
0100
0010
0100
0001
0100
0010
1000
,
0100
0010
0100
1000
0001
0100
0001
1000
,
0010
1000
0100
1000
0001
1000
0010
0100
,
0001
0010
1000
0010
0001
0001
0100
0100
,
0010
1000
2020
3030
0001
0202
0303
0022
,
0033
1100
1000
0001
0220
0330
0202
0303
,
0001
2002
3003
0010
2200
3300
1000
0202
,
0303
0011
0010
0100
2200
3300
2020
3030
,
0202
0303
1000
2200
3300
2002
3003
0001
,
1000
0001
2200
3300
0220
0330
2002
3003
,
0001
0100
0001
0000
1000
0010
1000
0000
0001
0010
0100
0000
0010
0100
1000
0000
,
0001
1000
0100
0000
1000
0001
0100
0000
0001
1000
0100
1000
0001
0010
0100
1000
,
0001
0101
0000
1000
1000
0100
0010
0100
,
1000
0000
0010
0100
0001
0000
1000
0000
0001
0000
0010
0001
1000
0000
0100
0000
,
1000
0000
0100
0010
0001
0000
1000
0000
0010
0000
0220
0000
0330
0000
1010
0000
,
1000
0000
0010
0100
0001
0000
1000
0000
0001
0000
0010
0100
1000
0000
0100
0000
,
0010
0000
0001
1000
0001
0000
0010
0000
0001
0000
0202
0000
0303
0000
1100
0000
,
0010
0000
0100
0010
0001
0000
1000
0000
0001
0000
1000
0000
0100
0000
0001
0000
,
0100
1000
0001
0100
0001
0010
1000
0010
,
0002
1000
1003
0001
0100
0010
1000
0100
,
1000
0001
1000
0001
0010
0001
1000
0001
0010
0100
0010
0001
1000
0000
0100
0000
,
0010
0000
0100
1000
0100
0000
0010
0000
0001
0000
1000
0000
0010
0000
0100
0000
,
0001
0000
1000
0001
0100
0000
0202
0000
0303
0000
2200
0000
3300
0000
0010
0000
,
0001
0000
1000
0001
1000
0000
0010
0000
0100
0000
0001
0000
0010
0000
0100
0000
,
1000
0000
0100
0010
0001
0000
0022
0000
0033
0000
2020
0000
3030
0000
0001
0000
,
0100
0001
0000
0001
1000
0000
0010
0100
0010
0000
2000
0000
0100
0000
3001
0000
,
0100
0001
0000
1000
0100
0000
1000
0001
0020
0000
0001
0000
0130
0000
0010
0000
,
0001
0000
0100
0000
0010
0000
0100
0000
0001
0000
1000
0000
0100
0010
0100
1000
,
0001
0000
0000
0101
0000
0000
2010
0000
0000
0000
0000
0000
3000
0000
0000
0000
,
0001
0010
0000
0010
0001
0000
0001
0100
0000
0100
0001
0000
1000
0100
0000
0100
,
1000
0000
0010
0100
0000
0100
0010
0000
1000
0100
0000
0010
0001
0000
1000
0001
,
0010
0000
0000
0001
0100
0000
0001
0000
1000
0100
0000
0100
1000
0000
0010
0000
,
0100
0000
0010
1000
0000
1000
0010
0000
0100
0000
0001
0000
0010
0000
0001
1000
,
0100
1000
0000
0100
1000
0000
0100
1000
0000
0100
1000
0000
0100
1000
0100
0010
,
0001
0100
0000
0001
0100
0000
0001
0100
0000
0001
0100
0000
0001
1000
0001
0010
,
0100
0010
0001
1000
0100
0010
0001
1000
0010
1000
0001
0000
0100
0000
0010
0000
,
1000
0000
1000
0000
0001
0000
0001
0000
0010
0001
0010
0001
0100
0010
1000
0001
,
0100
0110
0000
0001
0001
0000
1000
0000
,
0010
0000
0000
0010
0000
0000
0100
0000
0001
0000
0000
0010
0000
0000
0100
0000
,
1000
0000
0000
1000
0000
0000
0100
0000
0001
0000
0000
0000
0001
0000
0100
0000
,
1000
0000
1000
0100
0000
0000
0001
0000
0100
0000
0000
0100
0000
0000
0010
0000
,
0100
0000
1000
0010
0000
0000
0010
0000
0100
0000
0001
0000
0001
0000
0001
1000
,
0010
0000
0000
0010
0000
0000
0100
0000
0000
0000
0002
0000
0000
0000
0013
0000
,
0100
0000
0000
0010
0000
0000
0002
0000
0000
0000
2003
0000
0000
0000
3010
0000
,
0100
0000
0000
0100
0000
0000
2002
0000
0000
0000
0000
0000
0000
0000
3003
0000
,
1000
0010
0100
0001
1000
0001
0010
0100
1000
0100
0010
0001
1000
0000
0001
0000
,
0100
0000
0010
0100
0001
0000
0100
0000
0010
0000
1000
0000
0100
0000
0010
0000
,
0001
0000
1000
0001
1000
0000
0022
0000
0033
0000
2020
0000
3030
0000
0100
0000
,
0001
0000
0100
0010
0100
0000
0001
0000
1000
0000
0010
1000
0010
0000
0100
0000
,
0010
0000
0100
0001
1000
0000
2020
0000
3030
0000
0022
0000
0033
0000
1000
0000
,
0001
0010
0000
0010
0001
0000
1000
0001
0100
0000
0220
0000
0330
0000
1000
0000
,
0001
1000
0000
1000
0100
0000
0010
0100
1000
0000
0202
0000
0303
0000
0001
0000
,
0010
0001
0000
0001
0100
0000
0100
0010
1000
0000
0100
0000
0100
0000
0100
0000
,
0010
0000
0000
0010
0001
0000
0100
0000
1000
0000
0100
0000
0001
0000
0000
0000
,
1000
0010
1000
0000
0001
0010
0000
0010
0001
0000
1000
0010
0000
0010
1000
0000
,
0001
0100
0000
0001
1000
0000
0100
0010
0000
0010
0100
0000
1000
0000
0001
0000
,
0100
0010
1000
0000
0010
0100
0000
0100
0001
0000
1000
0001
0000
0001
0010
0000
,
0001
0000
1000
0010
0000
0100
0001
0000
1000
0100
0000
0010
0100
1000
0100
0010
,
0001
1000
0001
0000
0010
0001
0000
0010
0100
0000
0010
0100
0000
1000
0100
0000
,
1000
0010
0000
0010
1000
0000
0001
0100
0000
0100
0001
0000
1000
0000
0010
0000
,
1000
0100
0010
0000
0001
0010
0000
0100
1000
0000
1000
0001
0010
0001
1000
0010
,
0100
0001
0000
0100
0000
0000
0010
0000
0000
0000
1000
0000
0100
0000
0001
0000
;

//---------------dance-single - S-HEAVY----------------
#NOTEDATA:;
#CHARTNAME:DJ OMiY-HSP;
#STEPSTYPE:dance-single;
#DESCRIPTION:S-HEAVY;
#CHARTSTYLE:;
#DIFFICULTY:Hard;
#METER:9;
#RADARVALUES:0.592484,0.546273,0.257069,0.119966,0.321337,440.000000,30.000000,14.000000,0.000000,0.000000,0.000000,0.000000,0.000000,0.592484,0.546273,0.257069,0.119966,0.321337,440.000000,30.000000,14.000000,0.000000,0.000000,0.000000,0.000000,0.000000;
#CREDIT:DJ OMiY;
#NOTES:
0000
0000
0000
0000
,
0000
0000
0000
0000
,
0000
0000
0000
0000
,
0000
0000
0000
0000
,
0000
0000
0000
0000
,
0001
0000
0100
0000
0000
0001
0000
0000
0100
0000
0000
0010
0000
0000
1000
0000
,
0100
0010
0000
0100
0000
0000
0010
0001
0000
0010
0000
0000
0001
0000
1000
0000
,
0010
0000
0100
0000
0000
0001
0000
0000
1000
0000
0000
0100
0000
0000
1000
0000
,
0001
0100
0000
0001
0000
0000
1100
0000
0000
0000
0010
0000
0100
0000
1000
0000
,
0001
0010
0001
0100
0010
0100
0010
1000
,
0000
0100
0010
0001
0000
1000
0100
1000
,
0010
0100
0010
1000
0000
0100
0010
0000
,
0001
0020
0000
0032
0000
2003
0000
3010
,
0100
0010
1000
0010
0100
0002
0000
2003
,
0000
3001
0010
0100
0000
0010
0100
1000
,
0001
0000
0010
1000
0000
0010
0001
1000
,
0010
0200
0000
0302
0000
1003
0100
0010
,
0001
0100
0010
1000
0100
0010
0000
0010
,
0001
0100
0100
0000
1010
0000
0101
0000
,
1000
0000
0010
0010
0100
0001
1000
0100
,
0000
0010
0100
1100
0000
0100
0010
0001
,
0101
0000
0001
1000
0000
1000
0010
0100
,
0002
0023
0230
2300
,
3001
0000
0100
0001
1000
0100
1000
0010
,
0000
0000
0010
0000
0100
0000
0000
0000
0001
0000
1000
0000
0001
0010
0100
1000
,
0001
1001
0000
0010
0010
0000
1001
0000
,
0010
0000
0000
1000
0010
0000
0100
0000
0001
0000
0000
0010
0001
0000
1000
0000
,
0010
0000
0000
0100
0010
0000
1000
0000
1001
0000
0000
0000
0011
0000
0000
0000
,
1001
0000
0000
0001
0100
0000
0001
0000
1000
0000
0000
0100
0010
0000
0100
0000
,
1000
0000
0000
0001
0100
0000
0010
0000
1010
0000
0000
0000
1001
0000
0000
0000
,
0010
0000
0000
0010
0001
0000
0100
0000
0010
0000
1000
0000
0010
0000
0001
0000
,
0010
0000
1000
0100
0010
0001
0010
1000
,
0020
0000
0130
0001
0100
1000
0000
0000
,
0001
0000
0100
0001
0100
0000
0010
0000
0100
0000
0001
1000
0001
0000
0010
0000
,
0100
0000
0010
0100
1000
0000
0100
0000
0000
0000
0010
0000
0010
0000
0001
0000
,
0010
0000
0000
0001
0000
0000
1001
0000
0000
0000
0110
0000
0000
0000
1000
0000
,
0001
0000
0010
0001
0010
0000
0001
0000
1000
0000
0100
1000
0100
0000
0010
0000
,
0100
0000
0000
0100
0000
0000
0100
0000
0000
0000
0010
0000
0000
0000
0100
0000
,
1000
0100
0001
0100
1000
0001
0000
0010
,
0001
0010
1000
0010
0001
0100
0000
0010
,
1000
0010
0100
0010
1000
0001
0010
0100
,
1000
0000
0000
0101
0000
0000
1001
0000
0000
0000
0000
0000
0000
0000
0000
0000
,
0100
0000
0000
0001
0000
0000
0010
0000
0000
0001
0000
0000
1000
0000
0000
0010
,
0000
0000
0100
0000
0000
0001
0000
0000
0010
0000
0000
0100
0000
0000
1000
0000
,
0001
0000
0000
0100
0000
0000
0001
0000
0000
0010
0000
0000
0001
0000
0000
1000
,
0000
0000
0100
0000
0000
0010
0000
0000
0100
0000
0000
1000
0000
0000
0100
0000
,
0010
0000
0000
0001
0000
0000
0100
0000
0000
1000
0000
0000
0100
0000
0000
0001
,
0000
0000
0100
0000
0000
0010
0000
0000
1000
0000
0000
0001
0000
0000
0010
0000
,
0001
0000
0000
0001
0100
0000
0000
0100
0010
0000
0000
0010
1000
0000
0000
1000
,
0010
0001
0010
1000
0100
0001
0100
1000
,
0001
0101
0000
0000
0000
0000
0000
0000
,
1000
0000
0000
0100
0000
0000
1000
0000
0001
0000
0000
0000
0100
0000
0000
0000
,
0001
0000
0000
0010
0000
0000
0100
0000
0000
0000
1100
0000
0000
0000
0000
0000
,
0001
0101
0000
0010
0000
1000
0000
0110
,
0000
1010
0000
0101
0000
1000
0100
0001
,
0100
0000
0000
1000
0000
0000
0100
0000
0000
0000
0010
0000
0001
0000
0010
0000
,
0100
0000
0000
0010
0000
0000
0001
0000
0000
0000
1000
0000
0000
0000
0001
0000
,
0100
0000
0000
0100
0000
0000
0220
0000
0000
0000
0000
0000
0330
0000
0000
0000
,
0010
1000
0100
0010
0001
1000
0101
0000
,
1000
0000
0000
1000
0000
0000
1000
0000
0000
0000
0001
0000
0100
0000
0001
0000
,
0010
0000
0000
0100
0000
0000
0010
0000
0000
0000
0011
0000
0000
0000
0001
0000
,
0100
0010
1000
0010
0100
0001
0010
0100
,
1000
0000
0000
0100
0000
0000
0010
0000
0000
0000
1001
0000
0000
0000
0010
0000
,
1000
0100
0001
0100
1000
0010
0000
0100
,
0001
0010
1000
0010
0001
0100
0000
0010
,
1000
1000
0100
0100
0010
0010
0001
0001
,
1000
0000
0000
0101
0000
0000
1100
0000
0000
0000
0001
0000
0001
0000
0010
0000
,
0001
0000
0100
0000
0000
0010
0000
0000
0100
0000
0000
0001
0000
0000
1000
0000
,
0100
1000
0000
0001
0000
0000
0100
0001
0000
1000
0000
0000
0100
0000
0010
0000
,
0001
0000
1000
0000
0000
0100
0000
0000
1000
0000
0000
0010
0000
0000
0100
0000
,
0010
0000
0000
1000
0000
0000
0100
0000
0000
0010
0000
0000
0001
0000
0100
0000
,
0001
0000
0010
0000
0000
0001
0000
0000
1000
0000
0000
0010
0000
0000
1000
0000
,
0001
0010
0000
0001
0000
0000
1000
0100
0000
1000
0000
0000
0010
0000
0100
0000
,
0010
0000
1000
0000
0000
0001
0000
0000
0010
0000
0000
0100
0000
0000
0010
0000
,
0001
0100
0000
0001
0000
0000
1100
0000
0000
0000
0001
0000
1000
0000
1000
0000
,
0101
0000
0000
0000
;

//---------------dance-single - S-STANDARD----------------
#NOTEDATA:;
#CHARTNAME:DJ OMiY-SSP;
#STEPSTYPE:dance-single;
#DESCRIPTION:S-STANDARD;
#CHARTSTYLE:;
#DIFFICULTY:Medium;
#METER:7;
#RADARVALUES:0.445587,0.514139,0.257069,0.102828,0.042845,322.000000,30.000000,12.000000,0.000000,0.000000,0.000000,0.000000,0.000000,0.445587,0.514139,0.257069,0.102828,0.042845,322.000000,30.000000,12.000000,0.000000,0.000000,0.000000,0.000000,0.000000;
#CREDIT:DJ OMiY;
#NOTES:
0000
0000
0000
0000
,
0000
0000
0000
0000
,
0000
0000
0000
0000
,
0000
0000
0000
0000
,
0000
0000
0000
0000
,
0001
0101
1010
0101
,
1000
0000
0000
0100
0000
0000
0010
0000
0000
0001
0000
0000
1000
0000
0001
0000
,
0100
0011
1100
0011
,
1000
0000
0000
0010
0000
0000
0110
0000
0000
0000
1000
0000
1000
0000
0001
0000
,
1000
0000
0100
0000
0010
0100
1000
0000
,
0001
0000
0100
0001
0000
0001
0010
0000
,
0001
0000
0010
0100
0000
0010
0001
0000
,
1000
0100
0000
0100
0000
0010
0000
0010
,
0001
0000
1000
0000
0001
0100
0001
0000
,
1000
0000
0100
0010
0000
0001
1000
0000
,
0020
0000
0130
0002
0000
0103
0010
2000
,
0100
0000
0001
0000
3100
1000
0001
1000
,
0001
0000
0100
0000
0000
0100
0000
0010
,
0000
1000
0001
0000
0010
0000
0010
0000
,
0000
0100
0000
0000
1000
0000
0000
0001
,
0000
0100
0000
0010
1000
0000
1001
0000
,
0010
0000
0000
1000
0000
0001
0000
0100
,
0000
0001
0000
0000
0010
0000
0001
0000
,
1100
0000
0000
0011
0000
0000
1001
0000
,
0010
1000
0100
0000
0010
0001
0100
0000
,
1001
2002
0000
0000
0000
0000
3003
0000
,
0010
0000
1000
0100
0001
0000
0001
0100
,
1000
0000
0001
0100
0010
0000
1001
0000
,
0010
1000
0100
0000
0100
1000
0010
0000
,
0100
0001
0010
0001
0100
0000
1001
0000
,
0010
1000
0100
0010
,
0001
0000
1000
0001
0000
0001
0000
0100
,
0010
0000
1000
0001
0000
0000
0000
0000
,
0010
0001
0100
0010
1000
0100
1000
0000
,
0020
0000
0000
2030
0000
0000
3002
0000
,
0013
0001
0000
1000
0000
0010
0000
0000
,
0200
0000
0302
0000
,
1003
0100
0000
0010
0000
0100
0000
0000
,
1000
0100
0010
0001
1000
0001
0000
0000
,
0001
0010
0100
1000
0001
1000
0000
0000
,
0001
0010
0100
1000
0001
0010
0100
2000
,
0002
0000
0000
3000
0000
0000
0003
0000
1000
0000
0000
0000
0011
0000
0000
0000
,
1001
0100
0001
0010
,
1000
0010
0001
0100
,
0010
1000
0001
0010
,
1000
0010
0001
1000
,
0100
1000
0010
0000
0100
0001
0010
0000
,
0100
1000
0010
0000
0100
0001
0010
0000
,
0001
0010
0100
1000
0001
0010
0100
1000
,
0001
1000
0001
1000
0010
0100
0010
0100
,
0001
1001
0000
0000
0000
0000
0000
0000
,
1000
0001
0000
0000
0000
0000
0000
0000
,
0000
0000
0000
0000
,
0001
1000
0000
0000
0000
0000
0000
1001
,
0000
0110
0000
1001
0000
0010
0010
0100
,
0010
0000
0000
0000
,
0000
0000
0000
0000
,
0000
0000
0000
0000
,
0001
0010
0100
1000
0001
0010
0100
1000
,
0001
0100
0001
0000
1000
0100
1000
0000
,
0010
0100
0000
0001
0000
1000
0000
0100
,
0010
0100
1000
0000
0001
0010
0100
0000
,
0010
0001
0000
1000
0000
0001
0000
0000
,
0100
0000
0010
0000
1000
0001
0000
0000
,
0010
0000
0001
0000
1000
0010
0000
0000
,
0100
0001
0100
0000
0010
1000
0010
0000
,
0001
1100
0101
1100
,
0010
0001
0100
0000
0010
1000
0100
0000
,
0010
0000
0000
0100
0000
0000
0010
0000
0000
0001
0000
0000
1000
0000
0001
0000
,
0100
0010
1000
0000
0010
0100
0001
0000
,
1000
0000
0000
0100
0000
0000
0010
0000
0000
0001
0000
0000
1000
0000
0001
0000
,
0100
1001
0110
1001
,
0010
0000
0000
1000
0000
0000
0001
0000
0000
0100
0000
0000
0001
0000
0010
0000
,
0100
0011
1100
0011
,
1000
0000
0000
0001
0000
0000
0010
0000
0000
0000
0001
0000
0100
0000
0001
0000
,
0010
0000
0000
0000
;

//---------------dance-single - S-LIGHT----------------
#NOTEDATA:;
#CHARTNAME:DJ OMiY-LSP;
#STEPSTYPE:dance-single;
#DESCRIPTION:S-LIGHT;
#CHARTSTYLE:;
#DIFFICULTY:Easy;
#METER:4;
#RADARVALUES:0.254621,0.385604,0.077121,0.137104,0.000000,183.000000,9.000000,16.000000,0.000000,0.000000,0.000000,0.000000,0.000000,0.254621,0.385604,0.077121,0.137104,0.000000,183.000000,9.000000,16.000000,0.000000,0.000000,0.000000,0.000000,0.000000;
#CREDIT:DJ OMiY;
#NOTES:
// measure 0
0000
0000
0000
0000
,  // measure 1
0000
0000
0000
0000
,  // measure 2
0000
0000
0000
0000
,  // measure 3
0000
0000
0000
0000
,  // measure 4
0000
0000
0000
0000
,  // measure 5
1000
1000
0100
0100
,  // measure 6
0001
0100
1000
0000
,  // measure 7
0001
0001
0100
0100
,  // measure 8
1000
0000
0000
0100
0000
0000
0001
0000
,  // measure 9
1000
0000
0010
0000
,  // measure 10
0100
0000
0001
0010
,  // measure 11
0100
0000
0100
1000
,  // measure 12
0000
0000
0000
0000
,  // measure 13
0010
0100
0001
0000
,  // measure 14
1000
0000
0001
0010
,  // measure 15
0100
0000
0010
0001
,  // measure 16
0001
0000
1000
0001
,  // measure 17
1001
0000
0100
0010
,  // measure 18
0100
0000
0001
0000
,  // measure 19
0010
0000
0100
1000
,  // measure 20
0001
0000
0100
0010
,  // measure 21
1000
0000
0100
0010
,  // measure 22
0001
0000
0100
0001
,  // measure 23
2000
0000
3002
0000
,  // measure 24
0103
0001
0100
0001
,  // measure 25
2002
0000
0000
3003
,  // measure 26
0010
0010
0100
0000
,  // measure 27
0010
0010
0001
0000
,  // measure 28
0100
0100
1000
0000
,  // measure 29
0100
0100
0001
0000
,  // measure 30
1000
0000
0100
0000
,  // measure 31
0010
0000
0001
0000
,  // measure 32
2000
0000
0002
3003
,  // measure 33
0220
0330
2002
3003
,  // measure 34
0010
0010
0100
1000
,  // measure 35
0001
0000
0100
0000
,  // measure 36
0010
0010
1000
0001
,  // measure 37
0010
0000
1001
0000
,  // measure 38
0010
0000
1000
0100
,  // measure 39
0001
0000
0001
0100
,  // measure 40
1000
0000
0001
0000
,  // measure 41
0100
0010
0100
0010
,  // measure 42
1001
0000
1000
0000
,  // measure 43
0001
0000
0001
0100
,  // measure 44
0010
0000
0010
0000
,  // measure 45
1000
0000
0100
0010
,  // measure 46
0001
0010
0001
0010
,  // measure 47
0100
1000
0100
1000
,  // measure 48
0002
0003
2000
3000
,  // measure 49
0001
0001
1000
1000
,  // measure 50
2002
3003
0000
0000
,  // measure 51
0010
0000
0000
0000
,  // measure 52
0100
0000
0000
0000
,  // measure 53
0010
0000
0000
0000
,  // measure 54
1000
0000
0000
0000
,  // measure 55
0002
0000
0003
0000
,  // measure 56
0020
0000
0030
0000
,  // measure 57
0100
0000
0000
0000
,  // measure 58
1000
1000
0100
0100
,  // measure 59
0010
0001
0100
0000
,  // measure 60
0010
0000
1000
0000
,  // measure 61
0001
0100
0010
0000
,  // measure 62
1000
0000
0100
0000
,  // measure 63
0010
0100
1000
0000
,  // measure 64
0001
0010
0100
0000
,  // measure 65
1000
0100
0010
0001
,  // measure 66
1000
0001
1000
1001
,  // measure 67
0010
0000
0010
0000
,  // measure 68
0100
0010
1000
0000
,  // measure 69
0001
0000
1000
0000
,  // measure 70
0010
1000
0100
0000
,  // measure 71
0010
0000
0100
0000
,  // measure 72
1000
0100
0010
0000
,  // measure 73
0001
0000
0100
0000
,  // measure 74
0001
0000
0000
0100
0000
0000
0001
0000
,  // measure 75
1001
0000
0000
0000
;

//---------------dance-single - BEGINNER----------------
#NOTEDATA:;
#CHARTNAME:DJ OMiY-BEG;
#STEPSTYPE:dance-single;
#DESCRIPTION:BEGINNER;
#CHARTSTYLE:;
#DIFFICULTY:Beginner;
#METER:1;
#RADARVALUES:0.117517,0.192802,0.034276,0.119966,0.000000,78.000000,4.000000,14.000000,0.000000,0.000000,0.000000,0.000000,0.000000,0.117517,0.192802,0.034276,0.119966,0.000000,78.000000,4.000000,14.000000,0.000000,0.000000,0.000000,0.000000,0.000000;
#CREDIT:DJ OMiY;
#NOTES:
// measure 0
0000
0000
0000
0000
,  // measure 1
0000
0000
0000
0000
,  // measure 2
0000
0000
0000
0000
,  // measure 3
0000
0000
0000
0000
,  // measure 4
0000
0000
0000
0000
,  // measure 5
0001
0000
0000
0000
,  // measure 6
1000
0000
0000
0000
,  // measure 7
0010
0000
0000
0000
,  // measure 8
0002
0000
0000
0000
,  // measure 9
0003
0000
0000
0000
,  // measure 10
0000
0000
0000
0000
,  // measure 11
0010
0000
0000
0000
,  // measure 12
1000
0000
0000
0000
,  // measure 13
0001
0000
0000
0000
,  // measure 14
0000
0000
0000
0000
,  // measure 15
1000
0000
0000
0000
,  // measure 16
0100
0000
0000
0000
,  // measure 17
0010
0000
0010
0000
,  // measure 18
0010
0000
0000
0000
,  // measure 19
0001
0000
0001
0000
,  // measure 20
0001
0000
0000
0000
,  // measure 21
1000
0000
0000
0000
,  // measure 22
0100
0000
0000
0000
,  // measure 23
1000
0000
0010
0000
,  // measure 24
2002
0000
0000
0000
,  // measure 25
3000
0003
0000
0000
0000
0000
0000
0000
,  // measure 26
0010
0000
1000
0000
,  // measure 27
0010
0000
0000
0000
,  // measure 28
0100
0000
0000
0000
,  // measure 29
0100
0000
0000
0000
,  // measure 30
0001
0000
0100
0000
,  // measure 31
0001
0000
0000
0000
,  // measure 32
1000
0000
0000
0000
,  // measure 33
0002
0000
0003
0000
,  // measure 34
1000
0000
0000
0000
,  // measure 35
0100
0000
0000
0000
,  // measure 36
0010
0000
0000
0000
,  // measure 37
0001
0000
0000
0000
,  // measure 38
1000
0000
0000
0000
,  // measure 39
1000
0000
0000
0000
,  // measure 40
0020
0000
0030
0000
,  // measure 41
2002
0000
0000
3000
0000
0000
0003
0000
0000
0000
0000
0000
0000
0000
0000
0000
,  // measure 42
0100
0000
0000
0000
,  // measure 43
0010
0000
0000
0000
,  // measure 44
1000
0000
0000
0000
,  // measure 45
0001
0000
0000
0000
,  // measure 46
0010
0000
0010
0000
,  // measure 47
0010
0000
0010
0000
,  // measure 48
0100
0000
0100
0000
,  // measure 49
0200
0000
0000
0000
,  // measure 50
0300
0000
0000
0000
,  // measure 51
1000
0000
0000
0000
,  // measure 52
0000
0000
0000
0000
,  // measure 53
0001
0000
0000
0000
,  // measure 54
0000
0000
0000
0000
,  // measure 55
0200
0000
0300
0000
,  // measure 56
0020
0000
0030
0000
,  // measure 57
1000
0000
0000
0000
,  // measure 58
0001
0000
1000
0000
,  // measure 59
0001
0000
0010
0000
,  // measure 60
0001
0000
0000
0000
,  // measure 61
1000
0000
0100
0000
,  // measure 62
1000
0000
0000
0000
,  // measure 63
0010
0000
0000
0000
,  // measure 64
0100
0000
0000
0000
,  // measure 65
0010
0000
1000
0000
,  // measure 66
2002
0000
3003
0000
,  // measure 67
0010
0000
0000
0000
,  // measure 68
0100
0000
0000
0000
,  // measure 69
0001
0000
0000
0000
,  // measure 70
0010
0000
0000
0000
,  // measure 71
0100
0000
0000
0000
,  // measure 72
0001
0000
0100
0000
,  // measure 73
1000
0000
0001
0000
,  // measure 74
2002
0000
0000
3003
,  // measure 75
0010
0000
0000
0000
;
