#VERSION:0.82;
#TITLE:KYAMISAMA ONEGAI!;
#SUBTITLE:;
#ARTIST:Dr.Honda feat. Moe;
#TITLETRANSLIT:;
#SUBTITLETRANSLIT:;
#ARTISTTRANSLIT:;
#GENRE:Trendy Pops;
#ORIGIN:;
#CREDIT:;
#BANNER:KYAMISAMA ONEGAI!-bn.png;
#BACKGROUND:KYAMISAMA ONEGAI!-bg.png;
#PREVIEWVID:;
#JACKET:KYAMISAMA ONEGAI!-jk.png;
#CDIMAGE:;
#DISCIMAGE:;
#LYRICSPATH:;
#CDTITLE:;
#MUSIC:KYAMISAMA ONEGAI!.mp3;
#OFFSET:-0.484000;
#SAMPLESTART:48.265713;
#SAMPLELENGTH:13.714283;
#SELECTABLE:YES;
#DISPLAYBPM:70.000000:140.000000;
#BPMS:0.000=140.000,
104.000=70.000,
108.000=140.000,
172.000=70.000,
180.000=140.000,
262.000=70.000,
262.250=35.000,
262.375=17.500;
#STOPS:;
#DELAYS:;
#WARPS:;
#TIMESIGNATURES:0.000=4=4;
#TICKCOUNTS:0.000=4;
#COMBOS:0.000=1;
#SPEEDS:0.000=1.000=0.000=0;
#SCROLLS:0.000=1.000,
72.500=1.100,
72.750=1.200,
73.000=1.400,
73.250=1.600,
73.500=1.900,
73.750=2.200,
74.000=2.600,
74.250=3.000,
74.500=3.600,
74.750=4.400,
75.000=5.200,
75.250=6.000,
75.500=7.000,
75.750=8.200,
76.000=9.000,
76.250=7.000,
76.500=5.000,
76.750=3.000,
77.000=1.000,
77.250=0.500,
77.500=0.300,
78.000=0.500,
78.250=0.600,
78.500=0.800,
78.750=1.000,
104.000=0.500,
106.000=0.600,
106.250=0.800,
106.500=1.000,
106.750=1.200,
107.000=1.400,
107.250=1.600,
107.500=1.800,
107.750=2.000,
108.000=1.000,
164.500=1.200,
165.000=1.400,
165.500=1.600,
166.000=2.000,
166.250=3.000,
166.500=4.000,
166.750=5.000,
167.000=6.000,
167.250=7.000,
167.500=8.000,
167.750=10.000,
168.000=8.000,
168.250=5.000,
168.500=3.000,
168.750=1.000,
169.000=0.700,
169.250=0.400,
169.500=0.300,
169.750=0.100,
170.500=0.200,
171.000=0.300,
171.500=0.400,
172.000=1.000;
#FAKES:;
#LABELS:0.000=Song Start;
#BGCHANGES:;
#KEYSOUNDS:;
#ATTACKS:
;

//---------------dance-single - S-HEAVY----------------
#NOTEDATA:;
#CHARTNAME:DJ OMiY-HSP;
#STEPSTYPE:dance-single;
#DESCRIPTION:S-HEAVY;
#CHARTSTYLE:;
#DIFFICULTY:Hard;
#METER:9;
#RADARVALUES:0.605970,0.612672,0.137878,0.170320,0.340641,485.000000,17.000000,21.000000,0.000000,0.000000,0.000000,0.000000,0.000000,0.605970,0.612672,0.137878,0.170320,0.340641,485.000000,17.000000,21.000000,0.000000,0.000000,0.000000,0.000000,0.000000;
#CREDIT:DJ OMiY;
#DISPLAYBPM:70.000000:140.000000;
#NOTES:
0000
0000
0000
0000
,
0000
0000
0000
0000
,
0000
0000
0000
0000
,
0000
0000
0000
0000
,
1001
0100
0001
0000
0010
0000
0100
0000
,
1001
0010
1000
0000
0100
0000
0010
0001
,
1001
0100
0010
0000
1000
0000
0001
0000
,
1001
0100
0001
0000
0010
0000
0100
1000
,
1001
0010
0100
0001
0010
0100
1000
0001
,
0100
0010
1000
0001
0100
0001
0010
0100
,
1001
0000
0000
0001
0010
0001
1000
0100
1000
0001
0010
0100
,
1000
0000
0100
0000
0010
0000
0001
0000
1000
0000
0100
0000
1000
0000
0001
0000
0010
0000
0001
0000
0000
0101
0000
0000
,
1000
0000
0010
1000
0000
1000
0100
0000
0010
0000
0001
0000
0010
0000
0001
0000
,
1000
0000
0001
0100
0000
0100
0010
0000
1000
0000
0001
0000
2000
0000
3002
0000
,
0103
0000
0001
0010
0000
0010
0100
0000
1000
0000
0100
0000
0010
0000
0100
0000
,
1000
0000
0010
1000
0000
1000
0001
0000
0100
0000
0010
0000
1000
0000
1001
0000
,
0010
0001
0101
0000
1000
0001
1000
0000
,
0010
1000
1100
0000
0010
0001
1000
0110
,
0002
0000
0000
0000
,
0000
0000
0000
1003
,
0110
0000
0000
0010
1000
0000
0001
0000
0100
0000
0001
0000
1000
0000
0100
0000
,
0010
0000
0000
0100
1000
0000
0001
0000
1000
0000
0100
0000
1000
0000
0010
0000
,
0100
0000
0000
0001
0010
0000
0001
0000
1000
0000
0010
0000
1000
0000
0100
0000
,
1000
0000
0000
0100
0010
0000
0001
0000
0100
0000
0100
0000
0001
0000
1001
0000
,
0100
0000
0000
0010
1000
0000
0001
0000
1000
0000
0100
0000
1000
0000
0001
0000
,
0010
0000
0000
0100
0010
0000
0001
0000
1000
0000
0001
0000
0100
0010
1000
0001
,
0020
0000
0000
0000
0000
0000
0000
0000
0000
0000
0000
0000
0000
0000
0000
0030
,
0001
0000
0100
0000
0010
0000
1000
0000
0100
0000
1000
0001
1000
0000
0100
0000
,
0010
0000
0100
0000
0100
0000
0100
0000
1000
0000
0001
0000
1000
0000
0010
0100
,
0001
0000
0100
0000
0010
0000
1000
0000
0001
0000
0010
0001
0100
0000
0010
0000
,
1000
0000
0000
0000
0000
0000
0001
0000
0000
0000
0000
0000
0001
0000
0000
0000
0000
0000
0001
0000
0000
0000
0000
0000
1000
0000
0100
0000
1000
0000
0100
0000
0000
0010
0000
0000
0001
0000
0000
1000
0000
0000
0001
0000
0000
0100
0000
0000
,
0001
0000
1000
0000
0100
0000
1000
0000
0001
0000
0010
0100
1000
0000
0001
0000
,
1000
0000
0010
0000
0010
0000
0010
0000
0100
0000
0001
0000
1000
0000
0001
0100
,
0010
1000
1000
0100
0010
0001
1000
0001
,
0100
0000
0001
0000
1000
0000
0100
0000
1001
0000
0010
0000
1001
0000
1000
0100
,
1000
0000
0001
0000
0100
0000
0010
0000
1000
0000
0001
0010
0001
0000
0100
0000
,
0010
0000
1000
0000
1000
0000
1000
0000
0100
0000
0010
0000
0100
0000
1000
0010
,
0100
0001
1000
0010
0100
0001
1000
0100
,
0010
0000
0100
0000
0100
0000
1000
0000
0001
0100
0010
1000
0100
0010
0001
1000
,
0010
0100
0001
1000
0100
1000
0001
0100
,
0010
0100
0001
0000
1000
0010
0100
0000
0001
0010
0001
1000
0100
0010
0100
1000
,
0002
0000
0000
0000
,
0000
0000
0000
0000
,
2003
3200
0320
0032
0203
0320
2030
3200
,
0302
0203
2300
3020
0230
0302
0023
0130
,
1000
0000
0100
0000
0010
0000
0001
0100
,
0010
0000
1000
0000
0001
0000
0100
0001
,
1000
0000
0100
0000
1000
0000
0010
0100
,
0001
0000
0010
0000
0100
0000
1000
0001
,
0100
0000
0000
0000
0010
0000
0000
0000
1000
0000
0000
0000
0001
0000
0000
0000
0100
0000
0000
0000
0001
0000
0000
0000
1000
0000
0000
0100
0000
0000
0010
0000
0000
0100
0000
0000
1000
0000
0000
0000
0000
0000
0001
0000
0000
1000
0000
0000
,
0100
0000
1000
0000
0010
0000
1000
0000
0001
0000
0100
0001
1000
0000
0100
0000
,
0010
0000
0001
0000
0001
0000
0001
0000
0100
0000
0010
0000
1000
0000
0001
0100
,
0010
0000
1000
0000
0100
0000
1000
0000
0010
0000
1000
0100
0010
0000
0001
0000
,
0100
0000
0000
0000
0000
0000
0010
0000
0000
0000
0000
0000
0010
0000
0000
0000
0000
0000
0010
0000
0000
0000
0000
0000
1000
0000
0001
0000
1000
0000
0001
0000
0000
0010
0000
0000
0001
0000
0000
0010
0000
0000
0100
0000
0000
1000
0000
0000
,
0100
0000
1000
0000
0010
0000
0100
0000
0001
0000
1000
0001
0010
0000
0100
0000
,
0010
0000
0001
0000
0001
0000
0001
0000
0100
0000
0010
0000
1000
0000
0001
1000
,
0100
0010
0100
1000
0001
0100
0010
1000
,
0001
0000
1000
0000
0001
0000
0100
0000
0000
0010
0000
0000
1000
0000
0000
0000
0000
0000
0100
0000
0000
0000
0000
0000
1001
0000
0000
0000
0000
0000
0010
0000
0000
0000
0000
0000
1001
0000
0000
0000
0000
0000
1000
0000
0000
0001
0000
0000
,
0100
0000
0010
0000
1000
0000
0100
0000
0010
0000
0100
1000
0001
0000
0100
0000
,
0010
0000
1000
0000
1000
0000
1000
0000
0001
0000
0100
0000
0010
0000
1000
0100
,
0010
0001
0010
0100
0010
0100
1000
0001
,
0100
0000
0010
0000
0100
0000
0001
0000
1000
0010
0100
0001
1000
0100
0010
0001
,
0100
0000
0010
0000
0100
0001
1000
0000
0010
0000
0100
0010
1000
0000
0001
0000
,
1000
0000
0010
0000
0010
0000
0010
0000
1000
0100
1000
0001
0010
0100
1000
0001
,
0200
0000
0000
0000
,
0000
0000
0000
0000
0000
0000
0000
0000
0000
0000
0000
0300
0000
0000
0000
0000
;

//---------------dance-single - S-STANDARD----------------
#NOTEDATA:;
#CHARTNAME:DJ OMiY-SSP;
#STEPSTYPE:dance-single;
#DESCRIPTION:S-STANDARD;
#CHARTSTYLE:;
#DIFFICULTY:Medium;
#METER:6;
#RADARVALUES:0.378876,0.372931,0.113547,0.072994,0.000000,304.000000,14.000000,9.000000,0.000000,0.000000,0.000000,0.000000,0.000000,0.378876,0.372931,0.113547,0.072994,0.000000,304.000000,14.000000,9.000000,0.000000,0.000000,0.000000,0.000000,0.000000;
#CREDIT:DJ OMiY;
#DISPLAYBPM:70.000000:140.000000;
#NOTES:
0000
0000
0000
0000
,
0000
0000
0000
0000
,
0000
0000
0000
0000
,
0000
0000
0000
0000
,
1001
0100
0001
0000
0010
0000
0001
0000
,
0100
0001
1000
0000
0100
0000
1000
0001
,
0010
0000
0100
0000
1000
0001
0100
0000
,
0010
0000
1000
0000
0001
0100
0001
1000
,
0100
0010
0001
0100
,
0010
1000
0001
0010
,
0100
0000
1000
0001
1000
0001
0100
0010
,
0100
0010
1000
0001
1000
0100
0010
0000
,
1001
0000
0010
0000
1000
0001
0100
0000
,
0001
0000
1000
0000
0100
1000
0001
0000
,
0010
0000
0100
0000
0010
0001
1000
0000
,
0010
0000
0100
0000
0001
0010
0100
0000
,
1000
0000
1100
0000
0010
0001
0100
0000
,
0001
0000
0011
0000
0100
1000
0001
0000
,
0200
0000
0000
0000
,
0000
0000
0000
0301
,
1001
0010
1000
0001
,
0100
0000
0001
0000
0010
0000
0100
1000
,
0001
0100
0010
0100
,
0001
0010
0001
0000
1000
0000
0100
1000
,
0001
0100
0010
1000
,
0100
0010
0001
1000
0001
0010
0100
0000
,
2000
0000
0000
0000
0000
0000
0000
0000
0000
0000
0000
0000
0000
0000
0000
3000
,
0010
0000
0100
0000
0001
1000
0010
0000
,
1000
0100
1000
0100
0010
0000
0001
1000
,
0001
0000
0100
0000
0010
1000
0001
0000
,
0100
0010
0100
0010
2000
0000
3001
0000
,
0110
0000
0001
0000
0100
0001
1000
0000
,
0010
1000
0010
0100
0010
0000
1000
0000
,
0001
0010
0000
0010
0000
0100
0000
0100
,
1000
0000
1000
0010
0010
0010
0010
0000
,
0101
0000
1000
0000
0010
1000
0001
0000
,
0100
0001
0100
0001
0010
0000
0100
0000
,
1001
0000
0010
1000
0001
0000
0100
0000
,
0010
1000
0010
1000
0200
0000
0310
0000
,
0011
0000
1000
0000
0001
0010
0100
0000
,
0010
0001
0010
0001
1000
0001
0100
0000
,
0020
0000
0000
0000
,
0000
0000
0000
0000
,
1030
1000
0100
0100
0010
0010
0001
0001
,
0100
0100
0010
0010
1000
1000
0001
0001
,
0010
0001
1000
0010
,
0100
0000
0001
0000
1000
0000
0100
0100
,
1000
0001
0100
0010
,
1000
0100
0010
0001
,
2000
0000
0000
0000
0002
0000
3003
0001
,
0010
0000
0001
0000
1000
0100
0010
0000
,
0100
1000
0100
1000
0001
0000
0100
0000
,
0110
0000
0001
0000
1000
0001
0010
0000
,
0100
1000
0100
1000
0020
0000
0130
0000
,
0101
0000
0010
0000
1000
0100
0010
0000
,
0001
1000
0001
1000
0100
0000
1000
0000
,
0010
1000
0000
1000
0000
0001
0000
0001
,
0100
0000
0010
0100
0100
0100
0100
0000
,
1001
0000
0010
0000
0001
1000
0001
0000
,
0100
0010
1000
0010
1000
0000
0100
0000
,
1100
0000
0001
0000
0100
0001
1000
0000
,
0010
0100
0010
0100
0001
1000
0100
0000
,
0011
0000
1000
0000
0100
1000
0001
0000
,
0010
0100
1000
0001
0010
0100
1000
0001
,
2000
0000
0000
0000
,
0000
0000
0000
0000
0000
0000
0000
0000
0000
0000
0000
3000
0000
0000
0000
0000
;

//---------------dance-single - S-LIGHT----------------
#NOTEDATA:;
#CHARTNAME:DJ OMiY-LSP;
#STEPSTYPE:dance-single;
#DESCRIPTION:S-LIGHT;
#CHARTSTYLE:;
#DIFFICULTY:Easy;
#METER:4;
#RADARVALUES:0.293137,0.426207,0.251425,0.170320,0.000000,201.000000,31.000000,21.000000,0.000000,0.000000,0.000000,0.000000,0.000000,0.293137,0.426207,0.251425,0.170320,0.000000,201.000000,31.000000,21.000000,0.000000,0.000000,0.000000,0.000000,0.000000;
#CREDIT:DJ OMiY;
#DISPLAYBPM:70.000000:140.000000;
#NOTES:
0000
0000
0000
0000
,
0000
0000
0000
0000
,
0000
0000
0000
0000
,
0000
0000
0000
0000
,
1001
0100
0001
1000
,
0100
1000
0010
0100
,
1001
0010
0001
1000
,
0100
0010
0001
0100
,
1001
0001
0100
0100
,
0010
0010
1000
0101
,
1200
0320
0032
2003
,
3200
0320
0032
0103
,
1001
0010
1000
0001
,
0010
1000
0010
0001
,
1100
0010
0100
1000
,
0001
0100
0010
1000
,
0001
0101
1000
1100
,
0010
1001
0100
1001
,
0020
0000
0000
0000
,
0000
0000
0000
1030
,
1001
0000
0010
0000
,
1000
0100
0010
0001
,
0001
0000
0100
0000
,
0010
1000
0001
0010
,
0100
0000
0010
0000
,
0100
1000
0001
0100
,
2002
0000
0000
3003
,
0110
0100
0100
0001
,
0000
1000
0010
0000
,
1001
0001
0001
0010
,
0000
0100
2000
3010
,
0101
0100
0100
0010
,
0000
1000
0001
0000
,
0010
0000
0100
0000
,
1000
0001
0100
0100
,
1001
0100
0010
1001
,
0000
0010
0001
0000
,
0110
1000
0001
0110
,
1000
1000
0200
0320
,
0031
0100
0010
1000
,
0001
1000
0100
0010
,
0002
0000
0000
0000
,
0000
0000
0000
0000
,
0103
0010
1000
0100
,
0001
0100
1000
0010
,
0100
0100
0100
0100
,
0001
0001
0001
0001
,
0010
0010
0010
0010
,
0100
0100
0100
0200
,
2000
0000
0000
3300
,
1001
0010
1000
1001
,
0100
0100
0001
0000
,
0110
0001
1000
0110
,
0100
0001
2000
3100
,
1100
0100
0010
0011
,
0100
0010
1000
0000
,
0001
0000
1000
0000
,
0010
0100
0001
0001
,
0110
1000
1000
0101
,
0000
0010
1000
0000
,
0011
0001
0100
1001
,
0010
0010
0200
0302
,
1003
0100
0010
0001
,
0100
1000
0100
0010
,
2002
0000
0000
0000
,
0000
0000
0000
0000
0000
0000
0000
0000
0000
0000
0000
3003
0000
0000
0000
0000
;

//---------------dance-single - BEGINNER----------------
#NOTEDATA:;
#CHARTNAME:DJ OMiY-BEG;
#STEPSTYPE:dance-single;
#DESCRIPTION:BEGINNER;
#CHARTSTYLE:;
#DIFFICULTY:Beginner;
#METER:2;
#RADARVALUES:0.126292,0.159827,0.008110,0.048663,0.000000,102.000000,1.000000,6.000000,0.000000,0.000000,0.000000,0.000000,0.000000,0.126292,0.159827,0.008110,0.048663,0.000000,102.000000,1.000000,6.000000,0.000000,0.000000,0.000000,0.000000,0.000000;
#CREDIT:DJ OMiY;
#DISPLAYBPM:70.000000:140.000000;
#NOTES:
0000
0000
0000
0000
,
0000
0000
0000
0000
,
0000
0000
0000
0000
,
0000
0000
0000
0000
,
0001
0000
0100
0000
,
1000
0000
0000
0000
,
1000
0000
0100
0000
,
0001
0000
0000
0000
,
2000
0000
3000
0000
,
0200
0000
0300
0000
,
0010
0010
0010
0000
,
0001
0001
0001
0000
,
1000
0000
0010
0000
,
0001
0000
0000
0000
,
0001
0000
0010
0000
,
1000
0000
0000
0000
,
0001
0000
0100
0000
,
1000
0000
0100
0000
,
0001
0000
0000
0000
,
0000
0000
0000
0000
,
1000
0000
1000
0000
,
0100
0000
0000
0000
,
0010
0000
0010
0000
,
0001
0000
0000
0000
,
0100
0000
0010
0000
,
0100
0000
0010
0000
,
2000
0000
3000
0000
,
0001
0000
0000
0100
,
0000
0000
0010
0000
,
0010
0000
0000
1000
,
0000
0000
0100
0100
,
0100
0000
0000
0010
,
0000
0000
0001
0000
,
0001
0000
1000
0000
,
0010
0000
1000
1000
,
1000
0000
0000
0100
,
0000
0000
0010
0000
,
0001
0000
1000
0000
,
0001
0000
0010
0010
,
0010
0000
0100
0000
,
0010
0010
0010
0010
,
0020
0000
0000
0000
,
0000
0000
0000
0030
,
0010
0000
0001
0000
,
1000
0000
0100
0000
,
1000
0000
0000
0000
,
0010
0000
0000
0000
,
0100
0000
0000
0000
,
0001
0000
0000
0000
,
0200
0000
0300
0000
,
1001
0000
0000
0100
,
0000
0000
0010
0000
,
1000
0000
0000
0001
,
0000
0000
0010
0000
,
0001
0000
0000
0100
,
0000
0000
0010
0000
,
1000
0000
0100
0000
,
0010
0000
0001
0001
,
0001
0000
0000
0010
,
0000
0000
0100
0000
,
1000
0000
0010
0000
,
0100
0000
0001
0001
,
0001
0000
0000
1000
,
0000
0000
0010
0010
,
0020
0000
0000
0000
,
0000
0000
0000
0000
0000
0000
0000
0000
0000
0000
0000
0030
0000
0000
0000
0000
;

//---------------dance-double - D-HEAVY----------------
#NOTEDATA:;
#CHARTNAME:DJ OMiY-HDP;
#STEPSTYPE:dance-double;
#DESCRIPTION:D-HEAVY;
#CHARTSTYLE:;
#DIFFICULTY:Hard;
#METER:9;
#RADARVALUES:0.589749,0.586034,0.129768,0.170320,0.336586,472.000000,16.000000,21.000000,0.000000,0.000000,0.000000,0.000000,0.000000,0.589749,0.586034,0.129768,0.170320,0.336586,472.000000,16.000000,21.000000,0.000000,0.000000,0.000000,0.000000,0.000000;
#CREDIT:DJ OMiY;
#DISPLAYBPM:70.000000:140.000000;
#NOTES:
00000000
00000000
00000000
00000000
,
00000000
00000000
00000000
00000000
,
00000000
00000000
00000000
00000000
,
00000000
00000000
00000000
00000000
,
00000011
00000100
00001000
00000000
00000100
00000000
00010000
00000000
,
00011000
00100000
00010000
00000000
10000000
00000000
00010000
01000000
,
10010000
00100000
10000000
00000000
01000000
00000000
00100000
00000000
,
00011000
00010000
00000100
00000000
00000010
00000000
00000001
00000100
,
00001001
00000100
00000001
00000010
00000100
00001000
00000100
00010000
,
00001000
00100000
00010000
01000000
00100000
10000000
01000000
00100000
,
10010000
00000000
00000000
00100000
10000000
00010000
00100000
00001000
00010000
00000100
00000010
00000100
,
00001000
00000000
00000001
00000000
00000100
00000000
00000010
00000000
00000100
00000000
00000001
00000000
00000010
00000000
00000100
00000000
00001000
00000000
00000001
00000000
00000000
00000100
00000000
00000000
,
00001001
00000000
00000001
00000100
00000000
00000100
00000001
00000000
00001000
00000000
00000100
00000000
00001000
00000000
00000100
00000000
,
00010000
00000000
00001000
01000000
00000000
01000000
00010000
00000000
10000000
00000000
01000000
00000000
10000000
00000000
01000000
00000000
,
00100000
00000000
01000000
10000000
00000000
10000000
01000000
00000000
00100000
00000000
00001000
00000000
00100000
00000000
00001000
00000000
,
00010000
00000000
00000100
00001000
00000000
00001000
00000100
00000000
00010000
00000000
00001000
00000000
00010000
00000000
00001000
00000000
,
00100000
00000000
00110000
00000000
10000000
00010000
01010000
00000000
,
00100000
00000000
11000000
00000000
00010000
00100000
00001000
00010100
,
00000020
00000000
00000000
00000000
,
00000000
00000000
00000030
00000001
,
00000101
00000000
00000000
00000100
00000010
00000000
00001000
00000000
00000001
00000000
00000010
00000000
00000100
00000000
00001000
00000000
,
00000100
00000000
00000000
00010000
00001000
00000000
00010000
00000000
01000000
00000000
00100000
00000000
00010000
00000000
10000000
00000000
,
00100000
00000000
00000000
01000000
00010000
00000000
00100000
00000000
00001000
00000000
00010000
00000000
00001000
00000000
00000100
00000000
,
00000010
00000000
00000000
00000100
00000001
00000000
00000010
00000000
00000100
00000000
00001000
00000000
00000001
00000000
00000001
00000000
,
00000100
00000000
00000000
00000010
00001000
00000000
00000100
00000000
00010000
00000000
00001000
00000000
00100000
00000000
00001000
00000000
,
00010000
00000000
00000000
01000000
00100000
00000000
01000000
00000000
10000000
00000000
01000000
00000000
00100000
00000000
00010000
00000000
,
02000000
00000000
00000000
00000000
00000000
00000000
00000000
00000000
00000000
00000000
00000000
00000000
00000000
00000000
00000000
03000000
,
00010000
00000000
01000000
00000000
00100000
00000000
10000000
00000000
01000000
00000000
00100000
00010000
00100000
00000000
00000000
00000000
,
00001000
00000000
00010000
00000000
00010000
00000000
00010000
00000000
00000100
00000000
00001000
00000000
00000010
00000000
00000100
00000001
,
00001000
00000000
00000100
00000000
00001000
00000000
00000001
00000000
00001000
00000000
00000100
00000010
00000001
00000000
00000000
00000000
,
00000100
00000000
00000000
00000000
00000000
00000000
00000010
00000000
00000000
00000000
00000000
00000000
00000010
00000000
00000000
00000000
00000000
00000000
00000010
00000000
00000000
00000000
00000000
00000000
00001000
00000000
00000001
00000000
00001000
00000000
00000001
00000000
00000000
00000010
00000000
00000000
00000001
00000000
00000000
00001000
00000000
00000000
00000001
00000000
00000000
00001000
00000000
00000000
,
00000100
00000000
00010000
00000000
00001000
00000000
00100000
00000000
00001000
00000000
00010000
00001000
01000000
00000000
00000000
00000000
,
00100000
00000000
10000000
00000000
10000000
00000000
10000000
00000000
00010000
00000000
00100000
00000000
01000000
00000000
00100000
00010000
,
10000000
00010000
00010000
00100000
00001000
00010000
00000100
00001000
,
00000100
00000000
00001000
00000000
00000001
00000000
00000100
00000000
00001001
00000000
00000010
00000000
00001001
00000000
00001000
00000001
,
00000100
00000000
00000010
00000000
00001000
00000000
00000100
00000000
00010000
00000000
00001000
01000000
00100000
00000000
00000000
00000000
,
01000000
00000000
00010000
00000000
00010000
00000000
00010000
00000000
10000000
00000000
00100000
00000000
01000000
00000000
00010000
00100000
,
01000000
10000000
00010000
01000000
00100000
01000000
00001000
00010000
,
00000100
00000000
00000010
00000000
00000100
00000000
00001000
00000000
00000001
00000010
00000100
00001000
00000001
00001000
00000100
00000010
,
00000001
00000100
00000010
00001000
00000001
00000100
00000001
00000010
,
00000100
00001000
00000100
00000000
00010000
00001000
00010000
00000000
00001000
00100000
00001000
00100000
00010000
01000000
00010000
01000000
,
00200000
00000000
00000000
00000000
,
00000000
00000000
00000000
00000000
,
20300000
32000000
03020000
00032000
00003020
00000032
00000203
00002300
,
00023000
00230000
20300000
32000000
03020000
00032000
00003020
00000032
,
00001003
00000010
00010000
00001000
,
00100000
00000000
00010000
00000000
10000000
00000000
01000000
00100000
,
00010000
00100000
00010000
00001000
,
00000100
00000000
00001000
00000000
00000001
00001000
00000200
00000000
,
00001300
00000000
00000000
00000000
00000001
00000000
00000000
00000000
00000010
00000000
00000000
00000000
00000100
00000000
00000000
00000000
00001000
00000000
00000000
00000000
00000100
00000000
00000000
00000000
00010000
00000000
00000000
00001000
00000000
00000000
00100000
00000000
00000000
00001000
00000000
00000000
00010000
00000000
00000000
00000000
00000000
00000000
00001000
00000000
00000000
01000000
00000000
00000000
,
00100000
00000000
10000000
00000000
01000000
00000000
00100000
00000000
00010000
00000000
10000000
00100000
01000000
00000000
00000000
00000000
,
00010000
00000000
00100000
00000000
00100000
00000000
00100000
00000000
00001000
00000000
00010000
00000000
00000100
00000000
00001000
00000001
,
00001000
00000000
00000010
00000000
00000100
00000000
00000001
00000000
00001000
00000000
00000001
00000010
00000001
00000000
00000000
00000000
,
00000100
00000000
00000000
00000000
00000000
00000000
00000010
00000000
00000000
00000000
00000000
00000000
00000010
00000000
00000000
00000000
00000000
00000000
00000010
00000000
00000000
00000000
00000000
00000000
00001000
00000000
00000001
00000000
00001000
00000000
00000001
00000000
00000000
00000100
00000000
00000000
00000001
00000000
00000000
00001000
00000000
00000000
00000001
00000000
00000000
00001000
00000000
00000000
,
00000100
00000000
00010000
00000000
00001000
00000000
00100000
00000000
00010000
00000000
10000000
00100000
10000000
00000000
00000000
00000000
,
01000000
00000000
00100000
00000000
00100000
00000000
00100000
00000000
01000000
00000000
10000000
00000000
00010000
00000000
00100000
00001000
,
00010000
00001000
00000100
00000010
00000100
00000001
00000100
00000010
,
00001000
00000000
00000001
00000000
00001000
00000000
00000001
00000000
00000000
00000100
00000000
00000000
00000001
00000000
00000000
00000000
00000000
00000000
00000100
00000000
00000000
00000000
00000000
00000000
00001001
00000000
00000000
00000000
00000000
00000000
00000010
00000000
00000000
00000000
00000000
00000000
00001001
00000000
00000000
00000000
00000000
00000000
00001000
00000000
00000000
00000001
00000000
00000000
,
00001000
00000000
00000100
00000000
00010000
00001000
00100000
00000000
00010000
00000000
10000000
01000000
00100000
00000000
00000000
00000000
,
00010000
00000000
01000000
00000000
01000000
00000000
01000000
00000000
00100000
00000000
10000000
00000000
00010000
00000000
00100000
00001000
,
00010000
00000100
00000010
00000100
00001000
00000001
00000100
00000010
,
00000100
00000000
00000001
00000000
00001000
00000000
00000100
00000000
00010000
00001000
00010000
00001000
00100000
00010000
00100000
00010000
,
01000000
00100000
10000000
01000000
00100000
00010000
00100000
00001000
,
00010000
00001000
00010000
00000000
00000100
00001000
00000100
00000000
00000010
00000001
00000010
00000001
00001000
00000010
00001000
00000010
,
00002000
00000000
00000000
00000000
,
00000000
00000000
00000000
00000000
00000000
00000000
00000000
00000000
00000000
00000000
00000000
00003000
00000000
00000000
00000000
00000000
;

//---------------dance-double - D-STANDARD----------------
#NOTEDATA:;
#CHARTNAME:DJ OMiY-SDP;
#STEPSTYPE:dance-double;
#DESCRIPTION:D-STANDARD;
#CHARTSTYLE:;
#DIFFICULTY:Medium;
#METER:7;
#RADARVALUES:0.397414,0.399569,0.154099,0.072994,0.028387,315.000000,19.000000,9.000000,0.000000,0.000000,0.000000,0.000000,0.000000,0.397414,0.399569,0.154099,0.072994,0.028387,315.000000,19.000000,9.000000,0.000000,0.000000,0.000000,0.000000,0.000000;
#CREDIT:DJ OMiY;
#DISPLAYBPM:70.000000:140.000000;
#NOTES:
// measure 0
00000000
00000000
00000000
00000000
,  // measure 1
00000000
00000000
00000000
00000000
,  // measure 2
00000000
00000000
00000000
00000000
,  // measure 3
00000000
00000000
00000000
00000000
,  // measure 4
00011000
00000000
00001000
00000000
00000100
00000001
00000100
00000000
,  // measure 5
00001000
00000000
00001000
00000000
00010000
00000000
00001000
00010000
,  // measure 6
00011000
00000000
00010000
00000000
01000000
10000000
01000000
00000000
,  // measure 7
00010000
00000000
00010000
00000000
00001000
00000000
00010000
00001000
,  // measure 8
00011000
00000100
00000010
00000001
,  // measure 9
00000100
00001000
00010000
01000000
,  // measure 10
10000000
00000000
00000000
00100000
00000000
10000000
01000000
00000000
01000000
00100000
00000000
00100000
,  // measure 11
00001000
00000000
00001000
00010000
00000000
00010000
00000100
00000000
00000100
00000010
00000000
00000010
,  // measure 12
00000001
00000000
00000100
00000000
00000010
00001000
00000100
00001000
,  // measure 13
00000010
00000000
00010000
00000000
00001000
00000000
00010000
00001000
,  // measure 14
00011000
00000000
00100000
00000000
00010000
10000000
01000000
10000000
,  // measure 15
00010000
00000000
00100000
00000000
00001000
00000000
00010000
00001000
,  // measure 16
00011000
00000000
00000100
00000000
00010000
00001000
00010000
00000000
,  // measure 17
00001000
00000000
01000000
00000000
00001000
00010000
00001000
00000000
,  // measure 18
00000200
00000000
00000000
00000000
,  // measure 19
00000000
00000000
00000300
00000001
,  // measure 20
00000101
00000000
00000010
00000010
00001000
00000000
00000100
00000100
,  // measure 21
00010000
00001000
00010000
00001000
00100000
00000000
01000000
00000000
,  // measure 22
11000000
00000000
10000000
01000000
00100000
00010000
01000000
00000000
,  // measure 23
00010000
00100000
00001000
00010000
00000010
00000000
00001001
00000000
,  // measure 24
00000110
00000000
00000001
00001000
00000100
00000000
00000010
00000100
,  // measure 25
00000000
00000100
00010000
00001000
00010000
00100000
00100000
10000000
,  // measure 26
00020000
00000000
00000000
00000000
00000000
00000000
00000000
00030000
,  // measure 27
10010000
00000000
01000000
01000000
00100000
10000000
01000000
00000000
,  // measure 28
00100000
00001000
00010000
00002000
00000000
00003000
00000000
00010000
,  // measure 29
00000100
00000000
00000010
00000100
00000000
00001000
00000001
00000000
,  // measure 30
00000100
00000010
00000100
00000001
00001000
00000000
00000001
00000001
,  // measure 31
00000100
00000000
00000010
00001000
00000100
00000010
00000001
00000000
,  // measure 32
00001000
00000100
00000010
00000200
00000000
00000300
00010000
00001000
,  // measure 33
00100000
00000000
00010000
10000000
00000000
01010000
00000000
11000000
,  // measure 34
00000000
00000000
00000000
01000000
00100000
01000000
00100000
00000000
,  // measure 35
11000000
00000000
00100000
00001000
00000000
00001000
00010000
00000000
,  // measure 36
00000100
00000010
00000100
00000010
00000001
00000000
00001000
00000000
,  // measure 37
00000101
00000000
00000010
00001000
00000000
00000100
00000000
00000010
,  // measure 38
00000001
00000100
00000010
00000000
00001000
00000100
00010000
00001000
,  // measure 39
00100000
00000000
00010000
01000000
00000000
00100000
10000000
00000000
,  // measure 40
01000000
10000000
00100000
01000000
00010000
10000000
10010000
01000000
,  // measure 41
00200000
00000000
00000000
00000000
,  // measure 42
00000000
00000000
00000000
00300000
,  // measure 43
00010000
00010000
01000000
01000000
00100000
10000000
01000000
00100000
,  // measure 44
00001000
00010000
00100000
01000000
00001000
00010000
00100000
01000000
,  // measure 45
00010000
00010000
10000000
10000000
,  // measure 46
00010000
00000000
00010000
00000000
10000000
00000000
01000000
10000000
,  // measure 47
00010000
00010000
10000000
10000000
,  // measure 48
01000000
01000000
00100000
00100000
,  // measure 49
00002000
00000000
00020000
00000000
00000000
00000000
00033000
00010000
,  // measure 50
00010100
00000000
00000100
00000010
00000100
00001000
00000001
00000000
,  // measure 51
00000010
00000001
00000100
00001000
00000000
00000000
00000100
00000100
,  // measure 52
00000001
00000000
00001000
00000010
00000000
00010000
00001000
00000000
,  // measure 53
00100000
00010000
10000000
01000000
00200000
00000000
00301000
01000000
,  // measure 54
10010000
00000000
10000000
01000000
00000000
00100000
00010000
00000000
,  // measure 55
01000000
00010000
00100000
01000000
10000000
00000000
01000000
00100000
,  // measure 56
00001000
00010000
00000000
00000100
00000000
00001010
00000000
00000011
,  // measure 57
00000000
00000000
00000000
00001000
00000100
00000010
00000001
00000100
,  // measure 58
00001000
00000000
00000100
00000001
00000000
00000010
00000100
00000000
,  // measure 59
00010000
00001000
00100000
00010000
00000000
01000000
00010000
10000000
,  // measure 60
00100000
00000000
01000000
00001000
00000000
00010000
00000000
00000100
,  // measure 61
00000000
00010000
00001000
00000000
00100000
00100000
00010000
10000000
,  // measure 62
00100000
00000000
01000000
00001000
00000000
00010000
00000100
00000000
,  // measure 63
00010000
00001000
00010000
00001000
00100000
00010000
01000000
10000000
,  // measure 64
02000000
00000000
00000000
00000000
,  // measure 65
00000000
00000000
00000000
00000000
00000000
00000000
00000000
00000000
00000000
00000000
00000000
03000000
00000000
00000000
00000000
00000000
;

//---------------dance-double - D-LIGHT----------------
#NOTEDATA:;
#CHARTNAME:DJ OMiY-LDP;
#STEPSTYPE:dance-double;
#DESCRIPTION:D-LIGHT;
#CHARTSTYLE:;
#DIFFICULTY:Easy;
#METER:4;
#RADARVALUES:0.259536,0.293017,0.235204,0.113547,0.000000,181.000000,29.000000,14.000000,0.000000,0.000000,0.000000,0.000000,0.000000,0.259536,0.293017,0.235204,0.113547,0.000000,181.000000,29.000000,14.000000,0.000000,0.000000,0.000000,0.000000,0.000000;
#CREDIT:DJ OMiY;
#DISPLAYBPM:70.000000:140.000000;
#NOTES:
// measure 0
00000000
00000000
00000000
00000000
,  // measure 1
00000000
00000000
00000000
00000000
,  // measure 2
00000000
00000000
00000000
00000000
,  // measure 3
00000000
00000000
00000000
00000000
,  // measure 4
00011000
00000000
00100000
00100000
,  // measure 5
00011000
00000000
00000100
00000100
,  // measure 6
00011000
00000000
01000000
01000000
,  // measure 7
00011000
00000000
00000010
00000010
,  // measure 8
00011000
00010000
00001000
00010000
,  // measure 9
00000100
00010000
00001000
00100000
,  // measure 10
00011000
00000100
00000010
00000001
,  // measure 11
00000100
00001000
00010000
00100000
,  // measure 12
00011000
00000000
00100000
00010000
,  // measure 13
00000000
00000000
00100000
01000000
,  // measure 14
10010000
00000000
01000000
00001000
,  // measure 15
00000000
00000000
00010000
00000100
,  // measure 16
00001001
00000000
00000010
00000100
,  // measure 17
00001001
00000000
00000100
00000010
,  // measure 18
00002002
00000000
00000000
00000000
,  // measure 19
00000000
00000000
00003003
00000010
,  // measure 20
00001001
00000100
00001000
00000000
,  // measure 21
00000100
00010000
00001000
00100000
,  // measure 22
00100000
00000000
01000000
00000000
,  // measure 23
10000000
00100000
00010000
00001000
,  // measure 24
00010000
00000000
00001000
00000000
,  // measure 25
00000100
00000001
00000100
00001000
,  // measure 26
00022000
00000000
00000000
00033000
,  // measure 27
00001000
00100000
00100000
00101000
,  // measure 28
00000000
01000000
00100000
00000000
,  // measure 29
10010000
00010000
00100000
01100000
,  // measure 30
00000000
01000000
00001000
00010000
,  // measure 31
00011000
00000000
00000100
00000110
,  // measure 32
00000000
00000010
00000100
00000010
,  // measure 33
00000001
00000000
00000100
00000000
,  // measure 34
00000010
00010000
00001000
00011000
,  // measure 35
00011000
00100000
00100000
00101000
,  // measure 36
00000000
00010000
10000000
00000000
,  // measure 37
00100000
00000000
10000000
01000000
,  // measure 38
00200000
00000000
00002000
00303000
,  // measure 39
00010000
00000100
00000010
00000001
,  // measure 40
00000000
00001000
00000001
00000100
,  // measure 41
00002002
00000000
00000000
00000000
,  // measure 42
00000000
00000000
00000000
00003003
,  // measure 43
00000010
00000100
00000001
00000010
,  // measure 44
00000100
00001000
00010000
00100000
,  // measure 45
01000000
01000000
01000000
01000000
,  // measure 46
01000000
01000000
01000000
10000000
,  // measure 47
00010000
00010000
00010000
00010000
,  // measure 48
00100000
00100000
00100000
00100000
,  // measure 49
00002000
00000000
00000000
00003000
,  // measure 50
00011000
00010000
00000100
00001100
,  // measure 51
00000000
00000010
00000001
00000000
,  // measure 52
00000110
00000001
00000010
00001010
,  // measure 53
00000000
00000100
00010000
00001000
,  // measure 54
00011000
00000000
00100000
00110000
,  // measure 55
00000000
10000000
00010000
00000000
,  // measure 56
01000000
00100000
00100000
10000000
,  // measure 57
00020000
00000000
01000000
01030000
,  // measure 58
00100000
10000000
01000000
00010000
,  // measure 59
00000000
00001000
00000100
00000000
,  // measure 60
00000001
00000100
00000010
00010000
,  // measure 61
00001000
00100000
00020000
00000000
,  // measure 62
01030000
00100000
01000000
00002000
,  // measure 63
00000000
00013000
00000100
00010000
,  // measure 64
00022000
00000000
00000000
00000000
,  // measure 65
00000000
00000000
00000000
00000000
00000000
00000000
00000000
00000000
00000000
00000000
00000000
00033000
00000000
00000000
00000000
00000000
;
