#VERSION:0.82;
#TITLE:威風堂々 ~チュ;
#SUBTITLE:ートリアルより~;
#ARTIST:Rb. Conductor;
#TITLETRANSLIT:Iffudoudou;
#SUBTITLETRANSLIT:~Tutorial Yori;
#ARTISTTRANSLIT:;
#GENRE:;
#ORIGIN:;
#CREDIT:;
#BANNER:Ifuudoudou ~Tutorial yori~-bn.png;
#BACKGROUND:Ifuudoudou ~Tutorial yori~-bg.png;
#PREVIEWVID:;
#JACKET:Ifuudoudou ~Tutorial yori~-jk.png;
#CDIMAGE:;
#DISCIMAGE:;
#LYRICSPATH:;
#CDTITLE:;
#MUSIC:Ifuudoudou ~Tutorial yori~.ogg;
#OFFSET:0.000000;
#SAMPLESTART:64.603195;
#SAMPLELENGTH:11.538460;
#SELECTABLE:YES;
#BPMS:0.000=104.000;
#STOPS:;
#DELAYS:;
#WARPS:;
#TIMESIGNATURES:0.000=4=4;
#TICKCOUNTS:0.000=4;
#COMBOS:0.000=1;
#SPEEDS:0.000=1.000=0.000=0;
#SCROLLS:0.000=1.000;
#FAKES:;
#LABELS:0.000=Song Start;
#BGCHANGES:;
#KEYSOUNDS:;
#ATTACKS:
;

//---------------dance-single - BEGINNER----------------
#NOTEDATA:;
#CHARTNAME:xRGTMx-BEG;
#STEPSTYPE:dance-single;
#DESCRIPTION:BEGINNER;
#CHARTSTYLE:;
#DIFFICULTY:Beginner;
#METER:1;
#RADARVALUES:0.053559,0.083266,0.000000,0.000000,0.000000,43.000000,0.000000,0.000000,0.000000,0.000000,0.000000,0.000000,0.000000,0.053559,0.083266,0.000000,0.000000,0.000000,43.000000,0.000000,0.000000,0.000000,0.000000,0.000000,0.000000,0.000000;
#CREDIT:xRGTMx;
#NOTES:
0000
0000
0000
0000
,
0000
0000
0000
0000
,
0000
0000
0000
0000
,
0000
0000
0000
0000
,
1000
0000
0000
0000
,
0000
0000
0000
0000
,
1000
0000
0000
0000
,
0000
0000
0000
0000
,
0010
0000
0000
0000
,
0010
0000
0000
0000
,
0100
0000
0000
0000
,
0100
0000
0000
0000
,
0010
0000
0000
0000
,
0010
0000
0000
0000
,
0100
0000
0000
0000
,
0001
0000
0000
0000
,
0000
0000
0000
0000
,
1000
0000
0000
0000
,
0100
0000
0000
0000
,
0010
0000
0000
0000
,
0001
0000
0000
0000
,
1000
0000
1000
0000
,
0000
0000
0000
0000
,
0000
0000
0001
0000
,
0000
0000
0100
0000
,
0000
0000
0010
0000
,
0000
0000
1000
0000
,
0000
0000
1000
0000
,
1000
0000
0000
0000
,
1000
0000
0000
0000
,
0100
0000
0000
0000
,
0100
0000
0000
0000
,
0010
0000
0000
0000
,
0010
0000
0000
0000
,
0001
0000
0000
0000
,
1000
0000
0000
0000
,
0001
0000
0000
0000
,
0001
0000
0000
0000
,
0100
0000
0000
0000
,
0100
0000
0000
0000
,
0010
0000
0000
0000
,
0010
0000
0000
0000
,
1000
0000
0000
0000
,
0001
0000
0000
0000
,
1000
0000
0000
0000
,
0100
0000
0000
0000
,
0010
0000
0000
0000
,
0001
0000
0001
0001
;

//---------------dance-single - S-LIGHT----------------
#NOTEDATA:;
#CHARTNAME:xRGTMx-LSP;
#STEPSTYPE:dance-single;
#DESCRIPTION:S-LIGHT;
#CHARTSTYLE:;
#DIFFICULTY:Easy;
#METER:1;
#RADARVALUES:0.073488,0.124899,0.000000,0.000000,0.000000,59.000000,0.000000,0.000000,0.000000,0.000000,0.000000,0.000000,0.000000,0.073488,0.124899,0.000000,0.000000,0.000000,59.000000,0.000000,0.000000,0.000000,0.000000,0.000000,0.000000,0.000000;
#CREDIT:xRGTMx;
#NOTES:
0000
0000
0000
0000
,
0000
0000
0000
0000
,
0000
0000
0000
0000
,
0000
0000
0000
0000
,
1000
0000
0000
0000
,
1000
0000
0000
0000
,
1000
0000
0000
0000
,
1000
0000
0000
0000
,
0010
0000
0010
0000
,
0010
0000
0000
0000
,
0100
0000
0100
0000
,
0100
0000
0000
0000
,
0010
0000
0010
0000
,
0010
0000
0000
0000
,
0100
0000
0000
0000
,
0001
0000
0000
0000
,
0001
0000
0000
0000
,
1000
0000
0000
0000
,
0100
0000
0000
0000
,
0010
0000
0000
0000
,
0001
0000
0000
0000
,
1000
0000
1000
1000
,
0000
0000
0000
0000
,
0000
0000
0000
0001
,
0000
0001
0000
0100
,
0000
0100
0000
0010
,
0000
0010
0000
1000
,
0000
0000
1000
1000
,
1000
0000
0000
0000
,
0100
0000
0000
0000
,
1000
0000
0000
0000
,
0100
0000
0000
0000
,
0010
0000
0000
0000
,
0001
0000
0000
0000
,
0010
0000
0001
0000
,
1000
0000
0000
0000
,
0001
0000
0000
0000
,
0100
0000
0000
0000
,
0001
0000
0000
0000
,
0100
0000
0000
0000
,
0010
0000
0000
0000
,
1000
0000
0000
0000
,
0010
0000
1000
0000
,
0001
0000
0000
0000
,
1000
0000
0100
0000
,
0100
0000
0000
0000
,
0010
0000
0010
0000
,
0001
0001
0001
0001
;

//---------------dance-single - S-STANDARD----------------
#NOTEDATA:;
#CHARTNAME:xRGTMx-SSP;
#STEPSTYPE:dance-single;
#DESCRIPTION:S-STANDARD;
#CHARTSTYLE:;
#DIFFICULTY:Medium;
#METER:3;
#RADARVALUES:0.155695,0.166532,0.087189,0.026157,0.000000,112.000000,10.000000,3.000000,0.000000,0.000000,0.000000,0.000000,0.000000,0.155695,0.166532,0.087189,0.026157,0.000000,112.000000,10.000000,3.000000,0.000000,0.000000,0.000000,0.000000,0.000000;
#CREDIT:xRGTMx;
#NOTES:
0000
0000
0000
0000
,
0000
0000
0000
0000
,
0000
0000
0000
0000
,
0000
0000
0000
0000
,
1000
0000
1000
0000
,
0001
0000
0001
0000
,
1000
0000
1000
0000
,
0001
0000
0001
0000
,
0100
0100
0100
0000
,
0100
0100
0100
0000
,
0010
0010
0010
0000
,
0010
0010
0010
0000
,
1000
1000
0001
0000
,
0001
0001
1000
0000
,
2000
3000
0000
0000
0000
0000
0000
0000
,
0001
0000
0001
0000
,
0100
0000
0100
0000
,
0010
0010
0010
0010
,
0010
0010
0010
0000
,
0100
0100
0100
0100
,
0100
0100
0100
0000
,
0001
0000
1000
2000
,
0000
3000
0000
0100
,
0000
0100
0000
0010
,
0000
0100
0000
1000
,
0000
0001
0000
0100
,
0100
0010
0010
1000
,
0001
1000
0200
0300
,
1001
0000
1000
1000
,
0001
0000
0100
0000
,
1001
0000
0001
0001
,
1000
0000
0000
0000
,
0110
0000
1000
0100
,
0010
0000
0100
0000
,
0110
0000
0001
0100
,
0010
0000
1000
0000
,
1001
0000
0001
0001
,
1000
0000
0100
0000
,
1001
0000
1000
1000
,
0001
0000
0000
0000
,
0110
0000
0001
0100
,
0010
0000
0100
0000
,
0110
0000
1000
0100
,
0010
0000
0001
0000
,
1001
0000
1000
1000
,
0100
0000
0010
0000
,
1001
0000
0001
0001
,
0100
0100
0010
0010
;

//---------------dance-single - S-HEAVY----------------
#NOTEDATA:;
#CHARTNAME:xRGTMx-HSP;
#STEPSTYPE:dance-single;
#DESCRIPTION:S-HEAVY;
#CHARTSTYLE:;
#DIFFICULTY:Hard;
#METER:6;
#RADARVALUES:0.298935,0.333063,0.296444,0.130784,0.000000,191.000000,34.000000,15.000000,0.000000,0.000000,0.000000,0.000000,0.000000,0.298935,0.333063,0.296444,0.130784,0.000000,191.000000,34.000000,15.000000,0.000000,0.000000,0.000000,0.000000,0.000000;
#CREDIT:xRGTMx;
#NOTES:
0000
0000
0000
0000
,
0000
0000
0000
0000
,
0000
0000
0000
0000
,
0000
0000
0000
0000
,
1000
0001
0101
0000
,
0001
1000
1100
0000
,
1000
0001
0011
0000
,
0001
1010
0100
0000
,
0001
0000
0100
0000
0001
0010
0001
0000
,
1000
0000
0100
0000
1000
0010
1000
0000
,
0011
0010
0110
0100
,
1100
1000
1001
0000
,
0001
0010
0001
0000
0100
0000
0001
0000
,
1000
0010
1000
0000
0100
0000
1000
0000
,
0001
0001
0000
0000
0000
0000
0000
0000
,
1000
0001
1100
0011
,
0001
1000
0101
1010
,
1001
0001
0010
0100
,
1000
0010
0001
0100
,
1000
0010
0100
0001
,
1000
0100
0001
0010
,
1000
0001
1000
0000
0101
0000
1100
0000
,
0000
0001
0001
0100
0001
0000
1000
0010
,
0010
0100
0100
0010
0000
1000
0100
0010
,
0000
0100
0010
0001
0000
0001
0100
0010
,
0000
0100
0010
1000
0000
1000
0001
0100
,
0110
0000
1001
0000
0001
0010
0100
1000
,
0001
0100
0010
1000
1100
0000
0101
0000
,
2001
0000
0100
0000
3001
0100
1000
0000
,
0200
0001
0310
0000
,
1002
0000
0100
0000
1003
0100
0001
0000
,
0200
1000
0310
0000
,
2001
0000
0010
0000
3001
0100
0000
0100
,
0020
1000
0130
0000
,
1001
0000
0010
0000
1000
0100
0000
0100
,
0020
0001
0130
0110
,
2001
0000
0010
0000
3001
0010
1000
0000
,
0020
0001
0130
0000
,
1002
0000
0010
0000
1003
0010
0001
0000
,
0020
1000
0130
0000
,
2001
0000
0100
0000
3001
0010
0000
0010
,
0200
1000
0310
0000
,
1001
0000
0100
0000
1000
0010
0000
0010
,
0200
0001
0310
0110
,
1100
0000
1000
0000
0010
0100
0000
0100
,
0002
0010
1003
0001
,
0101
0000
0100
0000
0010
1000
0000
1000
,
0100
0011
1010
1001
;

//---------------dance-double - D-LIGHT----------------
#NOTEDATA:;
#CHARTNAME:xRGTMx-LDP;
#STEPSTYPE:dance-double;
#DESCRIPTION:D-LIGHT;
#CHARTSTYLE:;
#DIFFICULTY:Easy;
#METER:1;
#RADARVALUES:0.054805,0.062449,0.000000,0.000000,0.000000,44.000000,0.000000,0.000000,0.000000,0.000000,0.000000,0.000000,0.000000,0.054805,0.062449,0.000000,0.000000,0.000000,44.000000,0.000000,0.000000,0.000000,0.000000,0.000000,0.000000,0.000000;
#CREDIT:xRGTMx;
#NOTES:
00000000
00000000
00000000
00000000
,
00000000
00000000
00000000
00000000
,
00000000
00000000
00000000
00000000
,
00000000
00000000
00000000
00000000
,
10000000
00000000
00000000
00000000
,
00000000
00000000
00000000
00000000
,
10000000
00000000
00000000
00000000
,
00000000
00000000
00000000
00000000
,
01000000
00000000
00000000
00000000
,
01000000
00000000
00000000
00000000
,
00100000
00000000
00000000
00000000
,
00100000
00000000
00000000
00000000
,
00001000
00000000
00000000
00000000
,
00010000
00000000
00000000
00000000
,
00000100
00000000
00000000
00000000
,
00001000
00000000
00000000
00000000
,
00000000
00000000
00000000
00000000
,
00000001
00000000
00000000
00000000
,
00000100
00000000
00000000
00000000
,
00000001
00000000
00000000
00000000
,
00001000
00000000
00000000
00000000
,
00000100
00000000
00000000
00000100
,
00000000
00000000
00000000
00000000
,
00000000
00000000
00010000
00000000
,
00000000
00000000
00010000
00000000
,
00000000
00000000
00001000
00000000
,
00000000
00000000
00001000
00000000
,
01000000
00000000
01000000
00000000
,
00010000
00000000
00000000
00000000
,
10000000
00000000
00000000
00000000
,
01000000
00000000
00000000
00000000
,
00100000
00000000
00000000
00000000
,
00001000
00000000
00000000
00000000
,
00010000
00000000
00000000
00000000
,
00000100
00000000
00000000
00000000
,
00000010
00000000
00000001
00000000
,
00001000
00000000
00000000
00000000
,
00000001
00000000
00000000
00000000
,
00000100
00000000
00000000
00000000
,
00000010
00000000
00000000
00000000
,
00010000
00000000
00000000
00000000
,
00001000
00000000
00000000
00000000
,
01000000
00000000
00000000
00000000
,
00100000
00000000
00000000
00000000
,
10000000
00000000
00000000
00000000
,
00100000
00000000
00000000
00000000
,
01000000
00000000
00000000
00000000
,
00010000
00000000
00000000
00010000
;

//---------------dance-double - D-STANDARD----------------
#NOTEDATA:;
#CHARTNAME:xRGTMx-SDP;
#STEPSTYPE:dance-double;
#DESCRIPTION:D-STANDARD;
#CHARTSTYLE:;
#DIFFICULTY:Medium;
#METER:4;
#RADARVALUES:0.210500,0.208164,0.095908,0.095908,0.000000,147.000000,11.000000,11.000000,0.000000,0.000000,0.000000,0.000000,0.000000,0.210500,0.208164,0.095908,0.095908,0.000000,147.000000,11.000000,11.000000,0.000000,0.000000,0.000000,0.000000,0.000000;
#CREDIT:xRGTMx;
#NOTES:
00000000
00000000
00000000
00000000
,
00000000
00000000
00000000
00000000
,
00000000
00000000
00000000
00000000
,
00000000
00000000
00000000
00000000
,
10000000
01000000
10000000
00000000
,
00010000
01000000
00010000
00000000
,
00100000
00001000
00100000
00000000
,
00000100
00010000
00000100
00000000
,
00001000
00001000
00000010
00000010
,
00000100
00000100
00000001
00000001
,
00001000
00000100
00000010
00000001
,
00002000
00003100
00000200
00010300
,
00010000
00010000
00001000
00001000
,
01000000
00100000
01000000
00100000
,
20000000
30000000
00000000
00000000
00000000
00000000
00000000
00000000
,
00010000
00100000
01000000
01000000
,
00100000
00001000
00001000
00010000
,
00000020
00000130
00000200
00000301
,
00000002
00001003
00002000
00003001
,
00000001
00000010
00001000
00000100
,
00000001
00001000
00000100
00010000
,
00011000
00000000
00100000
10010000
,
00000000
10000000
00000000
10000000
,
00000000
10000000
00000000
00010000
,
00100000
00010000
00100000
00001000
,
00010000
00001000
00010000
00000100
,
00001000
00000100
00001001
00000001
,
00000100
00000100
00000010
00000000
,
00001001
00000000
00000001
00001000
,
00000100
00000000
00010000
00000000
,
00011000
00000000
00001000
01000000
,
00020000
00000000
00030000
00000000
,
10010000
00000000
10000000
00010000
,
01000000
00000000
00001000
00000000
,
00011000
00000000
00010000
00000100
,
00002000
00000000
00003000
00000000
,
00001001
00000100
00000001
00001000
,
00000010
00000010
00010000
00001000
,
00011000
00010000
00001000
00100000
,
00020000
10000000
10030000
00000000
,
10010000
00010000
10000000
00010000
,
00100000
00100000
00001000
00010000
,
00011000
00001000
00010000
00000010
,
00002000
00000001
00003001
00000000
,
00000001
00000010
00000100
00001000
,
00010000
00100000
01000000
10000000
,
10000000
01000000
00100000
00010000
,
00001000
00000100
00000010
00000001
;

//---------------dance-double - D-HEAVY----------------
#NOTEDATA:;
#CHARTNAME:xRGTMx-HDP;
#STEPSTYPE:dance-double;
#DESCRIPTION:D-HEAVY;
#CHARTSTYLE:;
#DIFFICULTY:Hard;
#METER:7;
#RADARVALUES:0.357476,0.353879,0.462103,0.148222,0.034876,217.000000,53.000000,17.000000,0.000000,0.000000,0.000000,0.000000,0.000000,0.357476,0.353879,0.462103,0.148222,0.034876,217.000000,53.000000,17.000000,0.000000,0.000000,0.000000,0.000000,0.000000;
#CREDIT:xRGTMx;
#NOTES:
00000000
00000000
00000000
00000000
,
00000000
00000000
00000000
00000000
,
00000000
00000000
00000000
00000000
,
00000000
00000000
00000000
00000000
,
10100000
00000000
01010000
00000000
00010000
00100000
00001000
00000000
,
00010100
00000000
00001010
00000000
00000100
00000001
00001000
00000000
,
00000011
00000000
00001100
00000000
00001000
00000010
00010000
00000000
,
00101000
00000000
01010000
00000000
00100000
10000000
00010000
00000000
,
10000000
00000000
00000000
10000000
01000000
00000000
00000000
01000000
00100000
00000000
00000000
00000000
00010000
00000000
00000000
00000000
,
00100000
00000000
00000000
00100000
00001000
00000000
00000000
00001000
00010000
00000000
00000000
00000000
00000100
00000000
00000000
00000000
,
00000012
00000103
00000201
00000310
,
00001020
00000000
00010030
00000000
00020100
00000000
00031000
00010000
,
00001000
00011000
01010000
01100000
,
00100000
10000000
00010000
00000000
00100000
00001000
00010000
00000000
,
00000100
00001001
00000000
00000000
00000000
00000000
00000000
00000000
,
00000011
00001100
00011000
01010000
,
10100000
01010000
00011000
00001100
,
00000201
00000010
00000320
00001000
,
00002030
00000100
00003200
00010000
,
00020300
00001000
00032000
00100000
,
00203000
00010000
00320000
10000000
,
10030000
01000000
10000000
01000000
00100000
00000000
00101000
00000000
,
00000000
00001000
00010000
00001000
00010000
00000000
00000100
00000000
,
00000010
00000000
00000000
00000000
00000001
00000000
00001000
00000000
00000000
00000000
00000001
00000010
00000001
00000000
00000100
00000000
,
00000000
00000000
00000010
00010000
00000010
00000000
00010000
00000000
00000000
00000000
00001000
00100000
00001000
00000000
01000000
00000000
,
00000000
00000000
00100000
10000000
00100000
00000000
10000000
00000000
00000000
00000000
10000000
00000000
01000000
00000000
01000000
00000000
,
00100000
00000000
00011000
00000000
00100000
00001000
00010000
00000100
,
00000010
00000001
00000010
00000100
00001000
00000000
00000110
00000000
,
00002001
00000000
00000100
00000000
00003001
00000100
00001000
00000000
,
00010100
00001000
00110000
01000000
,
10020000
00000000
01000000
00000000
10030000
01000000
00010000
00000000
,
01001000
00010000
00001010
00000100
,
00000011
00000000
00001000
00000000
00000001
00000010
00000000
00000010
,
00001000
00000100
00010000
00101000
,
10100000
00000000
00010000
00000000
10000000
00100000
00000000
00100000
,
00010000
01000000
00001000
00010010
,
00002001
00000000
00000010
00000000
00003001
00000010
00001000
00000000
,
00010010
00001000
01010000
00100000
,
10020000
00000000
00100000
00000000
10030000
00100000
00010000
00000000
,
00101000
00010000
00001100
00000010
,
00000101
00000000
00001000
00000000
00000001
00000100
00000000
00000100
,
00001000
00000010
00010000
01001000
,
11000000
00000000
00010000
00000000
10000000
01000000
00000000
01000000
,
00010000
00100000
00001000
00010100
,
00001010
00000000
00000100
00000000
00000001
00000010
00000000
00001000
,
00000100
00011000
00210000
01300000
,
10000000
00100000
10000000
00100000
01000000
01010000
00000000
00010000
,
00100000
00001000
00010000
00000010
00010000
00001000
00101000
00000000
;
