#TITLE:GOLDEN CROSS;
#SUBTITLE:;
#ARTIST:dj REMO-CON vs dj TAKA;
#TITLETRANSLIT:;
#SUBTITLETRANSLIT:;
#ARTISTTRANSLIT:;
#GENRE:Techno;
#CREDIT:;
#BANNER:GOLDEN CROSS-bn.png;
#BACKGROUND:GOLDEN CROSS-bg.png;
#LYRICSPATH:;
#CDTITLE:;
#MUSIC:GOLDEN CROSS.mp3;
#OFFSET:-0.119000;
#SAMPLESTART:16.101000;
#SAMPLELENGTH:12.799999;
#LASTBEATHINT:285.005005;
#SELECTABLE:YES;
#BPMS:0.000000=150.000000
;
#STOPS:200.000000=2.800000
;
#BGCHANGES:;
#KEYSOUNDS:;
#ATTACKS:;

//---------------dance-single - ----------------
#NOTES:
     dance-single:
     :
     Hard:
     9:
     0.642765,0.722303,0.016451,0.279667,0.263216,511.000000,2.000000,34.000000,0.000000,0.000000,0.000000,0.642765,0.722303,0.016451,0.279667,0.263216,511.000000,2.000000,34.000000,0.000000,0.000000,0.000000:
0000
0000
0000
0000
,
0000
0000
0000
0000
,
0000
0000
0000
0000
,
0000
0000
0000
0000
,
0000
0000
0000
0000
,
0000
0000
0000
0000
,
1001
0000
1000
0000
1000
0000
1000
0001
,
0001
0000
0001
1000
0001
0000
0001
0000
,
0010
1000
0001
0100
,
2000
0000
0000
0000
0000
0000
0000
0000
3010
1000
0010
1000
0000
0001
0100
0001
,
0100
0010
1000
0001
0100
0010
1000
0001
,
0100
0010
1000
0001
0100
0010
1000
0001
,
1000
0100
0010
0001
1000
0100
0010
0001
,
1000
0100
0010
0001
1000
0100
0010
0001
,
1000
0100
0001
0100
1000
0100
0001
0100
,
1000
0010
0001
0010
1000
0010
0001
0010
,
1000
0001
0100
0010
1000
0100
0010
0001
,
0100
0010
1000
0010
1000
0000
0000
0000
0001
0100
0001
0100
0000
0001
1000
0001
,
1000
0100
0100
1000
0001
0001
0100
0010
,
1000
0010
0010
0100
0001
0001
1000
0100
,
0010
0100
0100
1000
0010
0010
0100
0001
,
1000
0000
0010
0000
0010
0000
0100
0000
0001
0000
1000
0001
1000
0000
0010
0000
,
0100
0010
1000
0100
0010
0001
1000
0010
,
0100
0001
0100
0010
1000
0100
0010
0001
,
1000
0001
0100
0001
1000
0100
0010
0100
,
1000
0100
0010
0001
1000
0000
0000
0000
0001
0010
0100
1000
0001
0000
0000
0000
,
0100
0000
0010
0000
1000
0000
0001
0000
0100
0010
0100
0000
0001
0000
1000
0000
,
0100
0000
1000
0000
0010
0000
0100
0000
0001
0010
0001
0000
1000
0000
0010
0000
,
0100
0000
0001
0000
0010
0000
0100
0000
1000
0001
1000
0000
0010
0000
0100
0000
,
0001
0000
1000
0000
0001
0000
0010
0000
0100
1000
0100
0000
0010
0000
0100
0000
,
2000
0000
0100
0000
0000
0000
0001
0000
0000
0000
3100
0000
1000
0001
1000
0001
,
1000
0000
0020
0000
0130
0000
0002
0000
1003
0000
0001
0000
0010
0100
0010
0100
,
0010
0000
0001
0100
0000
0000
0100
0010
0000
0000
0010
1000
0000
0000
1000
0001
,
0100
0000
0001
0000
1000
0000
0100
0000
1000
0010
1000
0010
0100
0001
1000
0001
,
2000
0000
0000
3200
0000
0310
0002
0000
,
0203
0000
0000
0320
0000
1030
0020
0000
,
0230
0000
0000
0302
0000
0013
0200
0000
,
1300
0000
0000
1000
0000
0000
1000
0000
0001
0000
0000
0001
0000
0000
0001
0000
,
0200
0000
0000
0320
0000
1030
0002
0000
,
2003
0000
0000
3200
0000
0301
0200
0000
,
0320
0000
0000
0032
0000
1003
0020
0000
,
0130
0000
0000
0100
0000
0000
0100
0000
0010
0000
0000
0010
0000
0000
0100
0000
,
0001
0100
0010
1000
0010
0100
0001
1000
,
0100
0010
0100
1000
0100
0010
0001
1000
,
0010
0100
0001
1000
0100
0010
0001
1000
,
0010
0000
1000
0100
1000
0000
0010
0000
0100
0000
0001
0010
0001
0000
1000
0000
,
0010
0100
0001
0010
0100
1000
0010
1000
,
0100
0010
0100
1000
0001
0100
0010
1000
,
0001
0000
0000
0010
0000
0000
1000
0000
0000
0010
0000
0000
0001
0000
0000
1000
0000
0000
0010
0000
1000
0000
0001
0000
,
0100
0000
0000
0100
0000
0000
0100
0000
0010
0000
0000
0010
0000
0000
0010
0000
,
0000
0000
1000
0100
0010
0100
1000
0100
,
0010
0100
1000
0001
0100
0001
1000
0001
,
0100
0001
1000
0100
0001
0100
1000
0100
,
0001
0100
1000
0010
0001
0010
1000
0010
,
0001
0020
1030
0010
0100
0001
1000
0010
,
0100
0010
0001
0010
1000
0100
0010
0001
,
0010
1000
0010
0001
1000
0100
0010
0100
,
1000
0000
0001
0000
0100
0000
0010
1000
0010
0000
0200
0000
0000
0000
0310
1000
,
0010
0000
0100
0000
0001
0000
1000
0100
1000
0000
0001
0000
0100
0000
0010
0100
,
0010
0000
2000
0000
0000
0000
3001
0100
0001
0000
1000
0000
0010
0000
1000
0100
,
1000
0000
0020
0000
0000
0000
1030
0001
1000
0000
0010
0000
1000
0000
0001
0100
,
0001
0000
2000
0000
0000
0000
3100
0010
0100
0000
1000
0000
0010
0000
0100
0001
,
0100
0000
0010
0000
1000
0000
0001
0100
0010
0000
1000
0000
0010
0000
0100
0001
,
1000
0000
0200
0000
0000
0000
0310
0001
1000
0000
0010
0000
1000
0000
0100
0010
,
0001
0000
2000
0000
0000
0000
3100
1000
0010
0000
0100
0000
0001
0000
1000
0001
,
0010
0001
0100
0010
1000
0100
0010
2001
,
0001
3001
1000
0001
0010
0100
0010
0001
,
1000
0010
0100
0001
0100
0010
1000
0100
,
0010
0100
1000
0002
0013
0200
0310
0002
,
1003
0000
0200
0000
1300
0000
0010
0100
0010
0100
0001
1000
0001
1000
0010
0100
,
0010
0100
0010
0100
0001
0000
0000
0000
0000
0000
0000
0000
0000
0000
0000
0000
;

//---------------dance-single - ----------------
#NOTES:
     dance-single:
     :
     Medium:
     6:
     0.434777,0.462274,0.000000,0.180961,0.008226,348.000000,0.000000,22.000000,0.000000,0.000000,0.000000,0.434777,0.462274,0.000000,0.180961,0.008226,348.000000,0.000000,22.000000,0.000000,0.000000,0.000000:
0000
0000
0000
0000
,
0000
0000
0000
0000
,
0000
0000
0000
0000
,
0000
0000
0000
0000
,
0000
0000
0000
0000
,
0000
0000
0000
0000
,
1000
0000
0001
0000
1000
0000
0001
1000
,
0001
0000
1000
1000
1000
0000
0001
0000
,
1000
0001
1000
0001
,
2000
0000
0000
0000
3001
0010
0100
1000
,
0001
0100
1000
0000
1000
0100
0001
0000
,
2000
3020
0230
0302
,
1003
0100
0001
0000
0001
0100
1000
0000
,
0020
0000
0230
0001
0302
0000
2003
3010
,
0100
0001
1000
0000
1000
0001
0100
0000
,
0020
2030
3200
0302
,
0103
1000
0001
0000
1000
0001
0100
0000
,
0010
0010
0010
0000
0100
0100
0000
0100
,
0001
0100
0010
0000
1000
0100
0010
0000
,
0001
1000
0010
0000
0100
0001
0010
0000
,
1000
0010
0001
0000
0100
0010
1000
0000
,
0001
0100
1000
0000
0001
0010
1000
0000
,
0010
0100
0010
0000
1000
0001
1000
0000
,
0010
0100
0001
0000
1000
0010
0100
0000
,
0001
0010
1000
0000
1000
0010
0001
0000
,
0200
0000
0010
0000
0010
0000
0310
0100
,
0001
0010
0100
1000
0001
0010
0100
0000
,
1000
0100
0010
0001
1000
0100
0010
0000
,
0100
1000
0100
0010
0100
1000
0100
0000
,
0010
0001
0010
0100
0010
0001
0010
0000
,
0001
0100
0001
0000
1000
0100
0020
0000
,
0031
0100
0010
1000
0100
0000
2000
0000
,
3200
0001
0000
0010
0000
1000
0000
0310
,
0100
0010
0100
0010
0001
1000
0100
0010
,
0001
0000
0000
0100
0000
0100
0001
0000
,
1000
0000
0000
0010
0000
0010
1000
0000
,
0100
0000
0000
0010
0000
0010
0100
0000
,
1000
0000
0000
1000
0001
0000
0000
0001
,
0100
0000
0000
0010
0000
0010
0200
0000
,
0301
0000
0000
1000
0000
1000
0020
0000
,
0130
0000
0000
0001
0000
0001
2000
0000
,
3010
0000
0000
0010
0100
0000
0000
0100
,
0001
1000
0010
0100
,
0001
0010
1000
0001
,
0100
1000
0010
0100
,
0001
0000
0000
0001
0010
0000
0000
0010
,
1000
0010
0001
1000
,
0100
0001
0100
1000
,
0010
0000
0000
0100
0000
0000
0001
0000
0000
1000
0100
0010
,
0002
0000
0000
0000
0000
0000
0000
0003
,
0000
0000
1000
0100
0001
0000
1000
0100
,
0001
0000
1000
0100
0001
0000
1000
0100
,
0001
0100
1000
0010
0001
0000
1000
0010
,
0001
0000
1000
0010
0001
0000
1000
0010
,
0001
0010
1000
0001
1000
0000
1000
0001
,
1000
0000
1000
0001
1000
0000
1000
0001
,
1000
0010
0100
0001
0100
0000
0100
1000
,
0100
0000
0100
0001
0001
0001
0000
1000
,
1000
0010
1000
0100
0010
0000
0001
0010
,
0100
0000
1000
0010
0100
0000
0001
1000
,
0010
0000
0100
0001
0010
0000
0100
1000
,
0001
0000
0100
0010
1000
0000
0100
1000
,
0001
0000
0010
0100
1000
0000
0100
0010
,
0001
0000
0100
0010
1000
0000
0001
1000
,
0010
0000
1000
0010
0001
0000
1000
0100
,
0001
0000
1000
0000
0010
0000
0010
0200
,
0000
0310
1000
0100
,
0010
0001
1000
0000
0010
0000
0100
0000
,
0001
0010
0100
0000
1000
0000
0010
0000
,
0100
0001
1000
0100
0010
0100
0010
0100
,
0010
0100
1000
0000
0000
0000
0000
0000
;

//---------------dance-single - ----------------
#NOTES:
     dance-single:
     :
     Easy:
     4:
     0.319620,0.346705,0.164510,0.246765,0.000000,222.000000,20.000000,30.000000,0.000000,0.000000,0.000000,0.319620,0.346705,0.164510,0.246765,0.000000,222.000000,20.000000,30.000000,0.000000,0.000000,0.000000:
0000
0000
0000
0000
,
0000
0000
0000
0000
,
0000
0000
0000
0000
,
0000
0000
0000
0000
,
0000
0000
0000
0000
,
0000
0000
0000
0000
,
0001
1000
0001
1000
,
0001
1000
0001
1000
,
0001
1000
0001
1000
,
0002
0000
1003
1001
,
0010
0100
0001
1000
,
0010
0100
0001
1000
,
0100
0010
0001
1000
,
0100
0010
0001
1000
,
0001
0100
0010
1000
,
0001
0100
0010
1000
,
0010
0100
1000
0100
,
0002
0000
2000
3003
,
1001
0001
0101
0000
,
1100
1000
1001
0000
,
0011
0010
1100
0000
,
1010
0010
1001
0000
,
0101
0100
1010
0000
,
1100
0100
0011
0000
,
0101
0010
0110
1000
,
2002
0000
3003
0010
,
1001
0100
0001
0100
,
0010
1000
0100
0010
,
0110
0100
0010
0100
,
1000
0001
0100
0010
,
1010
1000
0001
0200
,
0301
1000
0100
0020
,
0130
1000
0100
1000
,
0002
0203
0320
2030
,
3002
0000
0000
0203
,
0320
0000
0000
2030
,
3200
0000
0000
0320
,
0032
0000
2003
0000
,
3010
0000
0000
2000
,
3100
0000
0000
0020
,
0130
0000
0000
0020
,
0032
0000
2003
0000
,
3010
0100
0010
0100
,
0010
0100
0010
0100
,
0001
1000
0001
1000
,
0020
0000
0230
0000
,
0301
1000
0001
1000
,
0001
1000
0001
1000
,
0010
0100
0010
0100
,
0002
0000
2003
0000
,
0000
3000
0000
0000
0000
0000
0010
0000
0000
0000
0000
0000
0100
0000
0000
0000
0000
0000
0001
0000
0000
0000
0000
0000
,
1000
0010
0100
0001
,
1000
0001
0010
0100
,
1000
0001
0010
0100
,
1000
0010
1000
0001
,
0100
0010
1000
0001
,
0100
0001
1000
0100
,
0010
0001
0000
0001
,
0000
1000
0010
0100
,
0010
1000
0010
0100
,
0010
1000
0100
0010
,
0100
1000
0100
0010
,
0110
0001
0100
0010
,
0100
0001
0100
0010
,
0100
0001
0010
1000
,
0010
0002
0000
2003
,
0000
3100
1000
0100
,
1000
0001
0100
0001
,
0100
0010
1000
0001
,
1000
0100
0010
0001
,
0010
0100
0000
0000
;

//---------------dance-single - ----------------
#NOTES:
     dance-single:
     :
     Beginner:
     2:
     0.152759,0.144461,0.008226,0.082255,0.000000,119.000000,1.000000,10.000000,0.000000,0.000000,0.000000,0.152759,0.144461,0.008226,0.082255,0.000000,119.000000,1.000000,10.000000,0.000000,0.000000,0.000000:
0000
0000
0000
0000
,
0000
0000
0000
0000
,
0000
0000
0000
0000
,
0000
0000
0000
0000
,
0000
0000
0000
0000
,
0000
0000
0000
0000
,
1000
0000
0001
0000
,
1000
0000
0001
0000
,
1000
0000
0001
0000
,
2000
0000
3000
0000
,
0001
0000
0001
0000
,
0001
0000
0001
0000
,
0100
0000
0100
0000
,
0100
0000
0100
0000
,
0010
0000
0010
0000
,
0010
0000
0010
0000
,
1000
0000
1000
0000
,
1000
0000
0001
0000
,
0100
0000
0010
0000
,
0100
0000
0010
0000
,
1000
0000
0001
0000
,
1000
0000
0001
0000
,
0010
0000
0100
0000
,
0010
0000
0100
0000
,
1000
0000
0001
0000
,
0020
0000
0030
0000
,
0100
0000
1000
0000
,
0100
0000
1000
0000
,
0001
0000
0010
0000
,
0001
0000
0010
0000
,
0100
0000
1000
0000
,
0010
0000
0100
0000
,
0001
0000
0010
0000
,
0100
0000
1000
0000
,
1001
0000
0000
0010
,
0010
0000
0000
0100
,
0100
0000
0000
0001
,
0002
0000
0003
0000
,
1000
0000
0000
0100
,
0100
0000
0000
1000
,
1000
0000
0000
0010
,
0020
0000
0030
0000
,
0100
0000
0001
0000
,
0200
0000
0300
0000
,
0010
0000
1000
0000
,
0020
0000
0030
0000
,
0100
0000
0001
0000
,
2000
0000
3000
0000
,
0010
0000
1000
0000
,
0002
0000
0003
0000
,
0000
0010
0000
0010
,
0000
0100
0000
0100
,
0000
0001
0000
0001
,
0000
1000
0000
1000
,
0000
0010
0000
1000
,
0000
0010
0000
1000
,
0000
0001
0000
0100
,
0000
0002
0000
0003
,
0000
1000
0000
0100
,
0000
1000
0000
0100
,
0000
0010
0000
0001
,
0000
0010
0000
0001
,
0000
1000
0000
0010
,
0000
0100
0000
0001
,
0000
1000
0000
0001
,
0000
0020
0000
0030
,
0000
0100
0000
1000
,
0000
0001
0000
0100
,
0000
0010
0000
0100
,
0000
0001
0000
1000
,
0000
0010
0000
0000
;

//---------------dance-single - ----------------
#NOTES:
     dance-single:
     :
     Challenge:
     12:
     0.934183,0.924547,0.008226,0.411276,1.000000,744.000000,1.000000,50.000000,0.000000,0.000000,0.000000,0.934183,0.924547,0.008226,0.411276,1.000000,744.000000,1.000000,50.000000,0.000000,0.000000,0.000000:
// measure 0
0000
0000
0000
0000
,  // measure 1
0000
0000
0000
0000
,  // measure 2
0000
0000
0000
0000
,  // measure 3
0000
0000
0000
0000
,  // measure 4
0000
0000
0000
0000
,  // measure 5
0000
0000
0000
0000
,  // measure 6
0001
0000
0001
0000
0001
0000
1000
1000
,  // measure 7
0001
0000
0000
0000
0000
0000
0001
0000
0000
0100
0001
0100
0001
0000
0000
0000
0000
0000
1000
0000
0000
0100
0000
0000
,  // measure 8
1000
0000
0000
0000
0010
0000
0000
0000
0100
0000
0000
0000
0010
0000
1000
0001
,  // measure 9
1000
0100
1000
0100
0010
0001
0010
0001
1000
0001
0010
0100
0000
0100
0010
0001
,  // measure 10
1000
0000
0010
1000
0001
0000
0100
0010
1000
0000
0100
0010
0001
0000
1000
0010
,  // measure 11
0100
0000
0001
1000
0010
0000
0100
0001
1000
0000
0100
1000
0001
0000
0010
0100
,  // measure 12
1000
0000
0010
0100
0001
0000
0010
0100
1000
0000
0010
1000
0100
0000
0010
0001
,  // measure 13
1000
0000
0001
0010
0100
0000
0010
0100
1000
0000
0010
0100
0001
0000
1000
0100
,  // measure 14
1000
0000
0010
1000
0001
0000
0100
0010
1000
0000
0001
0010
0100
0000
0010
0001
,  // measure 15
1000
0000
0010
1000
0001
0000
0100
0010
1000
0000
0100
0010
0001
0000
1000
0100
,  // measure 16
0010
0000
0100
1000
0001
0000
0010
0001
0100
0000
0010
1000
0001
0000
0100
0001
,  // measure 17
1000
0010
1000
0010
0100
0001
0100
0001
1000
0010
0100
0001
0000
0001
0010
0100
,  // measure 18
1000
0100
1000
0100
1000
0010
0100
0001
1000
0001
0010
0100
1000
0000
0010
0000
,  // measure 19
0100
0001
0100
0010
0100
0001
1000
0100
1000
0001
0100
0010
1000
0000
0010
0000
,  // measure 20
1000
0100
1000
0001
0100
0001
0100
0010
1000
0001
0010
0100
1000
0000
0010
0000
,  // measure 21
0100
0010
1000
0010
0100
0001
0100
0010
1000
0100
0010
0100
0010
0000
0001
0000
,  // measure 22
0010
0100
1000
0100
1000
0100
0010
0001
1000
0001
0100
0001
0010
0000
0100
0000
,  // measure 23
1000
0001
0100
0001
0100
0010
0100
0001
1000
0100
1000
0001
0100
0000
0001
0000
,  // measure 24
0010
0100
0010
0100
0010
0001
1000
0001
0010
0100
1000
0100
0010
0000
0001
0000
,  // measure 25
0100
0010
0100
0010
0100
0000
0001
0000
1000
0100
1000
0100
1000
0000
0001
0000
,  // measure 26
0010
0001
1000
0001
0100
0000
0001
0000
1000
0010
0100
0001
1000
0000
0010
0000
,  // measure 27
1000
0100
1000
0010
0100
0000
0001
0000
0100
0010
0100
0001
1000
0000
0010
0000
,  // measure 28
1000
0100
0010
0001
1000
0000
0010
0000
0100
0001
0010
0001
1000
0000
0001
0000
,  // measure 29
1000
0010
1000
0100
0010
0000
0100
0000
0010
0001
1000
0001
0010
0000
0001
0000
,  // measure 30
0100
0000
0010
0000
0100
0000
0010
0000
1000
0000
0001
0000
1000
0100
0010
0001
,  // measure 31
1000
0000
0000
0000
0000
0000
0010
0000
0000
0100
0000
0000
0010
0000
0000
0000
0000
0000
0100
0000
0000
0001
0000
0000
0100
0000
0000
0000
0000
0000
0001
0000
0000
0000
0000
0000
1000
0000
0100
0000
1000
0000
0100
0000
1000
0000
0100
0000
,  // measure 32
1000
0000
0001
0100
0010
0000
0100
0010
1000
0000
0010
1000
0001
0000
0100
0000
,  // measure 33
0001
0000
0010
0000
0001
0000
0010
0000
0000
0100
0000
0000
1000
0000
0000
0100
0000
0000
0010
0000
0000
0001
0000
0000
1000
0000
0000
0100
0000
0000
1000
0000
0000
0100
0000
0000
0010
0000
0000
0100
0000
0000
1000
0000
0000
0100
0000
0000
,  // measure 34
2000
0000
0000
3020
0000
0230
0302
0000
,  // measure 35
0023
0000
0000
0230
0000
2300
3200
0000
,  // measure 36
2300
0000
0000
3002
0000
0203
0320
0000
,  // measure 37
2030
0000
3000
0200
0000
0300
2000
0000
3002
0000
0003
0200
0000
0300
0002
0000
,  // measure 38
0023
0000
0000
0230
0000
0320
0032
0000
,  // measure 39
0203
0000
0000
2300
0000
3200
0320
0000
,  // measure 40
0230
0000
0000
0302
0000
0203
0320
0000
,  // measure 41
2030
0000
3000
0020
0000
0030
2000
0000
3002
0000
0003
0020
0000
0030
0002
0000
,  // measure 42
1003
0100
1000
0001
1000
0100
1000
0001
1000
0100
0010
0001
1000
0100
1000
0100
,  // measure 43
0010
0100
0010
0100
1000
0001
0010
0100
0010
0001
1000
0100
1000
0001
0100
0001
,  // measure 44
1000
0010
1000
0010
0100
0001
0100
0010
0100
0001
1000
0001
0100
0010
0100
0000
,  // measure 45
0002
0000
0003
0020
0000
0030
0200
0000
2300
0000
3000
0200
0000
0300
0020
0000
,  // measure 46
0031
0100
0001
1000
0001
0010
0001
0010
0100
1000
0100
0010
0001
1000
0010
1000
,  // measure 47
0001
0100
0010
0100
0010
1000
0010
0100
0001
0100
0001
0010
0001
1000
0001
1000
,  // measure 48
0100
0000
0000
0010
0000
0000
0100
0000
0000
0010
0000
0000
0001
0000
0000
0010
0000
0000
0001
0000
0000
1000
0000
0000
0100
0000
0000
1000
0000
0000
0100
0000
0000
0010
0000
0000
0001
0000
0000
0000
0010
0000
0000
0000
0100
0000
0000
0000
,  // measure 49
2000
0000
0000
0001
0000
0000
0001
0000
0001
0000
0000
0001
0000
0000
0002
0000
,  // measure 50
0000
0000
3003
0000
0000
0000
0000
0000
0000
0000
0000
0000
0010
0000
0000
0100
0000
0000
0010
0000
0000
1000
0000
0000
0001
0000
0000
0010
0000
0000
0100
0000
0000
0010
0000
0000
0001
0000
0000
0010
0000
0000
0001
0000
0000
1000
0000
0000
,  // measure 51
0100
0000
1000
0000
0010
1000
0100
0010
0001
1000
0010
1000
0010
0100
0001
1000
,  // measure 52
0100
0000
0010
0000
0100
1000
0001
0010
0100
0010
0100
0010
0001
1000
0001
0100
,  // measure 53
0010
0000
1000
0000
0010
0100
0010
0100
0001
1000
0100
1000
0001
0010
0001
0100
,  // measure 54
0010
0000
0000
0000
0000
0000
1000
0000
0100
0000
1000
0000
0100
0000
0000
0010
0000
0000
0001
0000
0000
0010
0000
0000
0001
0000
0000
1000
0000
0000
0010
0000
0000
0100
0000
0000
0001
0000
0000
0010
0000
0000
0001
0000
0000
1000
0000
0000
,  // measure 55
0100
0000
1000
0000
0010
0100
0001
1000
0001
0010
0001
0010
0100
1000
0100
1000
,  // measure 56
0001
0000
0000
0000
0000
0000
0010
0000
0000
0000
0000
0000
0100
0000
0000
0010
0000
0000
0001
0000
0000
0100
0000
0000
0001
0000
0000
1000
0000
0000
0100
0000
0000
1000
0000
0000
0010
0000
0100
0000
0010
0000
0100
0000
0000
0000
0000
0000
,  // measure 57
0001
0000
1000
0000
0010
0000
1000
0100
0001
0000
0100
0000
0000
0000
1000
0100
,  // measure 58
0001
0000
0100
0000
1000
0000
0010
0100
0001
0000
1000
0000
0010
0000
0100
0001
,  // measure 59
1000
0000
0200
0000
0310
0000
0001
0010
0100
0000
1000
0000
0010
0000
0100
0001
,  // measure 60
1000
0000
0002
0000
0103
0000
0010
1000
0100
0000
0010
0000
0100
0000
1000
0001
,  // measure 61
0010
0000
0200
0000
1300
0000
0100
0010
0001
0000
0010
0000
0100
0000
0010
0100
,  // measure 62
1000
0000
0001
0000
1001
0000
1000
0010
0100
0000
0001
0000
1000
0000
0010
1000
,  // measure 63
0001
0000
0020
0000
0130
0000
0010
0001
1000
0000
0100
0000
1000
0000
0010
1000
,  // measure 64
0100
0000
2000
0000
3010
0000
0100
0001
0100
0000
0010
0000
1000
0000
0100
0010
,  // measure 65
0001
0000
0020
0000
0130
1000
0100
1000
0001
0010
0001
0010
0100
1000
0100
0010
,  // measure 66
0001
1000
0100
0010
0001
1000
0001
1000
0001
0100
0001
0100
0000
0010
0100
0010
,  // measure 67
0100
0001
0100
0010
0000
1000
0010
1000
0001
1000
0100
1000
0000
0100
0010
0001
,  // measure 68
1000
0001
0100
0001
1000
0001
1000
0100
0010
0100
0010
0001
0000
0010
0100
0010
,  // measure 69
0001
0000
0000
1000
0000
0000
0001
0000
0000
0100
0000
0000
0010
0000
1000
0000
0010
0000
1000
0000
0000
0001
0000
0000
0010
0000
0000
0001
0000
0000
1000
0000
0000
0100
0000
0000
0010
0000
0000
0100
0000
0000
1000
0000
0000
0001
0000
0000
,  // measure 70
1000
0001
1000
0001
1000
0001
1000
0000
0000
0000
0000
0000
0000
0000
0000
0000
0000
0000
0000
0000
0000
0000
0000
0000
;

//---------------dance-double - ----------------
#NOTES:
     dance-double:
     :
     Challenge:
     11:
     0.929483,0.895655,0.008226,0.345471,1.000000,748.000000,1.000000,42.000000,0.000000,0.000000,0.000000,0.929483,0.895655,0.008226,0.345471,1.000000,748.000000,1.000000,42.000000,0.000000,0.000000,0.000000:
00000000
00000000
00000000
00000000
,
00000000
00000000
00000000
00000000
,
00000000
00000000
00000000
00000000
,
00000000
00000000
00000000
00000000
,
00000000
00000000
00000000
00000000
,
00000000
00000000
00000000
00000000
,
00001000
00000000
00001000
00000000
00001000
00000000
00001000
00100000
,
00100000
00000000
00000000
00000000
00000000
00000000
00100000
00000000
00000000
01000000
00100000
01000000
00100000
00000000
00000000
00000000
00000000
00000000
00100000
00000000
00000000
01000000
00000000
00000000
,
10000000
00000000
00000000
00000000
10000000
00000000
00000000
00000000
10000000
00000000
00000000
00000000
10000000
00000000
00010000
10000000
,
00010000
01000000
00010000
01000000
00001000
00010000
00001000
00010000
00000100
00001000
00000001
00001000
00000000
00001000
00000001
00000010
,
00000100
00000000
00000010
00000001
00001000
00000000
00000100
00001000
00000100
00000000
00010000
00001000
00100000
00000000
00010000
10000000
,
00100000
00000000
01000000
00100000
10000000
00000000
01000000
00100000
00010000
00000000
00100000
00001000
00010000
00000000
00000100
00010000
,
00001000
00000000
00010000
00000100
00000010
00000000
00000001
00000100
00000010
00000000
00001000
00000100
00010000
00000000
00001000
00100000
,
01000000
00000000
00100000
00010000
10000000
00000000
01000000
00100000
00010000
00000000
00100000
01000000
10000000
00000000
00010000
00100000
,
00001000
00000000
00010000
00000010
00001000
00000000
00000100
00000010
00000100
00000000
00001000
00000001
00000010
00000000
00000001
00000100
,
00000010
00000000
00001000
00000100
00010000
00000000
00001000
01000000
00100000
00000000
01000000
00010000
10000000
00000000
01000000
00100000
,
00001000
00000000
00010000
01000000
00100000
00000000
00010000
10000000
00100000
00000000
01000000
00001000
00010000
00000000
00000100
00001000
,
00000010
00000100
00000010
00000100
00000001
00000100
00000001
00000100
00000010
00001000
00000010
00000100
00000000
00000001
00001000
00000100
,
00010000
00001000
00010000
00001000
00010000
00001000
00100000
00010000
10000000
01000000
10000000
01000000
10000000
00000000
00100000
00000000
,
01000000
00010000
01000000
00010000
01000000
00010000
00100000
00001000
00010000
00000010
00010000
00000010
00010000
00000000
00000100
00000000
,
00001000
00000001
00001000
00000001
00001000
00000001
00000010
00000100
00001000
00000100
00001000
00000100
00001000
00000000
00000010
00000000
,
00000100
00000010
00000100
00000010
00000100
00000010
00001000
00000100
00010000
00001000
00010000
00001000
00010000
00000000
00001000
00000000
,
00100000
00010000
00100000
00010000
00100000
00010000
10000000
00010000
01000000
00010000
01000000
00010000
01000000
00000000
00100000
00000000
,
10000000
01000000
10000000
01000000
10000000
01000000
00100000
00001000
00010000
00000100
00010000
00000100
00010000
00000000
00000010
00000000
,
00000100
00000001
00000100
00000001
00000100
00000001
00001000
00000001
00001000
00000010
00001000
00000010
00001000
00000000
00000001
00000000
,
00001000
00000000
00000000
00000100
00000000
00000000
00001000
00000000
00000000
00000001
00000000
00000000
00000100
00000000
00000000
00000000
00000000
00000000
00000010
00000000
00000000
00000000
00000000
00000000
00001000
00000000
00000000
00000100
00000000
00000000
00010000
00000000
00001000
00000000
00010000
00000000
00001000
00000000
00000000
00010000
00000000
00000000
00000100
00000000
00000000
00010000
00000000
00000000
,
00001000
00100000
00010000
10000000
01000000
00000000
10000000
00000000
00100000
01000000
00010000
10000000
01000000
00000000
00100000
00000000
,
00001000
00010000
00001000
00010000
00000100
00000000
00000010
00000000
00000100
00001000
00000100
00000010
00000001
00000000
00001000
00000000
,
00000001
00000010
00000001
00001000
00000010
00000000
00000100
00000000
00000010
00001000
00000010
00001000
00000100
00000000
00010000
00000000
,
00001000
00100000
00001000
00010000
00000100
00000000
00010000
00000000
00001000
00100000
01000000
00100000
00010000
00000000
10000000
00000000
,
00100000
00000000
01000000
00000000
00100000
00000000
01000000
00000000
00100000
00000000
01000000
00000000
00010000
10000000
01000000
00100000
,
00001000
00000000
00000000
00010000
00000000
00000000
00000100
00000000
00000000
00001000
00000000
00000000
00000010
00000000
00000000
00000100
00000000
00000000
00000001
00001000
00000001
00001000
00000001
00001000
,
00000010
00000000
00000100
00001000
00000000
00000000
00001000
00010000
00000000
00000000
00010000
00100000
00000000
00000000
00100000
10000000
,
00010000
00000000
10000000
00000000
00010000
00000000
10000000
00000000
00000000
00100000
00000000
00000000
01000000
00000000
00000000
00010000
00000000
00000000
01000000
00000000
00000000
00010000
00000000
00000000
01000000
00000000
00000000
00001000
00000000
00000000
01000000
00000000
00000000
00001000
00000000
00000000
00010000
00000000
00000000
00000100
00000000
00000000
00010000
00000000
00000000
00000100
00000000
00000000
,
00000020
00000000
00000000
00000032
00000000
00002003
00003200
00000000
,
00020300
00000000
00000000
00032000
00000000
00203000
02300000
00000000
,
23000000
00000000
00000000
32000000
00000000
03020000
00032000
00000000
,
00003200
00000000
00000300
00000200
00000000
00000300
00000200
00000000
00000302
00000000
00000003
00000002
00000000
00000003
00000002
00000000
,
00000013
00000000
00000100
00000010
00000100
00000000
00001000
00000000
00000100
00000000
00010000
00000000
00002000
00000000
00000000
00000000
,
00103000
00000000
00010000
10000000
00010000
00000000
01000000
00000000
00100000
00000000
10000000
00000000
02000000
00000000
00000000
00000000
,
03100000
00000000
01000000
10000000
01000000
00000000
00100000
00000000
00001000
00000000
00010000
00000000
00000200
00000000
00000000
00000000
,
00000320
00000000
00000030
00000020
00000000
00000030
00000020
00000000
00000230
00000000
00000300
00000200
00000000
00000300
00000200
00000000
,
00001300
00000100
00001000
00000100
00010000
00000100
00010000
00001000
00010000
00001000
00100000
00010000
00100000
00010000
10000000
00000000
,
00010000
01000000
00010000
01000000
00100000
10000000
00100000
10000000
01000000
10000000
01000000
10000000
00010000
00100000
00001000
00000000
,
00010000
00000100
00010000
00000100
00001000
00000001
00001000
00000001
00000100
00000010
00000100
00000010
00001000
00000001
00000100
00000000
,
00000020
00000000
00000030
00002000
00000000
00003000
00020000
00000000
02030000
00000000
03000000
00200000
00000000
00300000
20000000
00000000
,
31000000
10000000
01000000
10000000
00010000
01000000
00010000
01000000
00001000
00010000
00001000
00010000
00000100
00000010
00000001
00000000
,
00000100
00000010
00000100
00000010
00001000
00000010
00001000
00000010
00000100
00000001
00000100
00000001
00001000
00000100
00010000
00000000
,
00001000
00000000
00000000
00100000
00000000
00000000
00001000
00000000
00000000
00100000
00000000
00000000
00010000
00000000
00000000
10000000
00000000
00000000
00010000
00000000
00000000
10000000
00000000
00000000
01000000
00000000
00000000
00100000
00000000
00000000
01000000
00000000
00000000
00100000
00000000
00000000
00001000
00000000
00000000
00000000
00010000
00000000
00000000
00000000
00001000
00000000
00000000
00000000
,
00000200
00000000
00000000
00000001
00000000
00000000
00000001
00000000
00000001
00000000
00000000
00000001
00000000
00000000
00000002
00000000
,
00000000
00000000
00000303
00000000
00000000
00000000
00000000
00000000
00000000
00000000
00000000
00000000
00000010
00000000
00000000
00010000
00000000
00000000
00000010
00000000
00000000
00010000
00000000
00000000
00000010
00000000
00000000
00010000
00000000
00000000
00000010
00000000
00000000
00010000
00000000
00000000
00001000
00000000
00000000
00100000
00000000
00000000
00001000
00000000
00000000
00100000
00000000
00000000
,
00001000
00100000
00001000
00000000
01000000
00010000
01000000
00010000
01000000
00010000
01000000
00010000
10000000
01000000
10000000
01000000
,
10000000
01000000
10000000
00000000
00100000
01000000
00100000
01000000
00100000
01000000
00100000
01000000
00001000
01000000
00001000
01000000
,
00001000
01000000
00001000
00000000
00010000
00000100
00010000
00000100
00010000
00000100
00010000
00000100
00001000
00000000
00000001
00001000
,
00000001
00000000
00000000
00000000
00000000
00000000
00001000
00000000
00000010
00000000
00001000
00000000
00000010
00000000
00000000
00010000
00000000
00000000
00000010
00000000
00000000
00010000
00000000
00000000
00000010
00000000
00000000
00010000
00000000
00000000
00000010
00000000
00000000
00010000
00000000
00000000
00001000
00000000
00000000
01000000
00000000
00000000
00001000
00000000
00000000
01000000
00000000
00000000
,
00001000
01000000
00001000
00000000
00100000
00010000
00100000
00010000
00100000
00010000
00100000
00010000
10000000
01000000
10000000
01000000
,
10000000
00000000
00000000
01000000
00000000
00000000
10000000
00000000
00000000
00000000
00000000
00000000
00010000
00000000
00000000
01000000
00000000
00000000
00010000
00000000
00000000
01000000
00000000
00000000
00010000
00000000
00000000
00000000
00000000
00000000
00100000
00000000
00000000
00000000
00000000
00000000
00001000
00000000
00010000
00000000
00001000
00000000
00010000
00000000
00000000
00000000
00000000
00000000
,
00000100
00000000
00000010
00000001
00001000
00000000
00000001
00000100
00001000
00000000
00010000
00000000
00001000
00000000
00010000
00100000
,
10000000
00000000
00010000
00000000
10000000
00000000
01000000
00100000
00010000
00000000
00100000
00000000
00001000
00000000
00010000
00000100
,
00001000
00000000
00000020
00000000
00000130
00000000
00000001
00000010
00000100
00000000
00000010
00000000
00000001
00000000
00001000
00000100
,
00010000
00000000
00002000
00000000
00103000
00000000
00010000
01000000
00100000
00000000
10000000
00000000
00100000
00000000
01000000
00010000
,
10000000
00000000
00200000
00000000
01300000
00000000
00010000
00100000
01000000
00000000
00100000
00000000
00001000
00000000
00010000
00000100
,
00000010
00000000
00000110
00000000
00000100
00000000
00000010
00000001
00001000
00000000
00000010
00000000
00000100
00000000
00000010
00001000
,
00000100
00000000
00020000
00000000
00031000
00000000
00100000
00010000
01000000
00000000
00100000
00000000
10000000
00000000
01000000
00100000
,
00010000
00000000
20000000
00000000
31000000
00000000
00100000
01000000
10000000
00000000
01000000
00000000
00100000
00000000
00001000
00010000
,
00000100
00000000
00020000
00000000
00031000
00000000
00000100
00000010
00000100
00000000
00000001
00000100
00000001
00001000
00000010
00001000
,
00000001
00001000
00000100
00010000
00001000
00100000
00010000
00100000
00010000
00100000
00010000
01000000
00000000
00100000
01000000
00100000
,
01000000
00100000
10000000
01000000
00000000
00100000
00001000
00100000
00001000
00100000
00001000
00010000
00000000
00001000
00010000
00001000
,
00010000
00001000
00010000
00000100
00000000
00000010
00000001
00000010
00000001
00000010
00000001
00001000
00000000
00000010
00000100
00000010
,
00000100
00000010
00000100
00000001
00002000
00000000
00003001
00000100
00000010
00001000
00000100
00010000
00001000
00010000
00001000
00100000
,
00001000
00010000
00000100
00001000
00000100
00000000
00000000
00000000
00000000
00000000
00000000
00000000
00000000
00000000
00000000
00000000
;

//---------------dance-double - ----------------
#NOTES:
     dance-double:
     :
     Hard:
     9:
     0.606338,0.693411,0.032902,0.246765,0.193300,482.000000,4.000000,30.000000,0.000000,0.000000,0.000000,0.606338,0.693411,0.032902,0.246765,0.193300,482.000000,4.000000,30.000000,0.000000,0.000000,0.000000:
00000000
00000000
00000000
00000000
,
00000000
00000000
00000000
00000000
,
00000000
00000000
00000000
00000000
,
00000000
00000000
00000000
00000000
,
00000000
00000000
00000000
00000000
,
00000000
00000000
00000000
00000000
,
10000000
00000000
10000000
00000000
10000000
00000000
10000000
00010000
,
00010000
00000000
00010000
00001000
00010000
00000000
00001000
00010000
,
00001000
00000000
00001000
00000000
00001000
00000000
00001000
00000001
,
00002000
00000000
00000000
00000000
00000000
00000000
00000000
00000000
00003001
00000100
00000001
00000100
00000000
00000100
00001000
00000100
,
00001000
00010000
00100000
01000000
00001000
00010000
00100000
01000000
,
00010000
10000000
01000000
00100000
00010000
10000000
01000000
00100000
,
00010000
00100000
10000000
00100000
00010000
00100000
10000000
00100000
,
00010000
10000000
01000000
00100000
00010000
01000000
00100000
00010000
,
00001000
00010000
00100000
00010000
00001000
00010000
00100000
00010000
,
00001000
00100000
01000000
10000000
01000000
00100000
00001000
00010000
,
00000100
00000001
00000100
00001000
00000100
00000001
00000100
00001000
,
00000100
00000000
00000010
00000000
00000100
00000000
00000010
00000000
00000100
00001000
00000100
00001000
00000000
00000100
00000010
00000100
,
00000010
00000001
00000001
00000100
00001000
00001000
00010000
00100000
,
10000000
01000000
01000000
00100000
00001000
00001000
00010000
00100000
,
01000000
00010000
00010000
00100000
10000000
10000000
00100000
00001000
,
00010000
00000010
00000010
00000100
00001000
00001000
00000100
00000001
,
00000010
00000100
00000100
00001000
00000001
00000001
00000100
00001000
,
00010000
00001000
00001000
00100000
01000000
01000000
10000000
01000000
,
00100000
00010000
00010000
10000000
00100000
00100000
01000000
00010000
,
10000000
01000000
10000000
01000000
10000000
00000000
00000000
00000000
00010000
01000000
00010000
01000000
00010000
00000000
00000000
00000000
,
00100000
00000000
00010000
10000000
00010000
00000000
01000000
00000000
00100000
00000000
10000000
00000000
01000000
00000000
00000000
00000000
,
00100000
00000000
00001000
00010000
00001000
00000000
00000100
00000000
00000001
00000000
00001000
00000000
00000100
00000000
00000000
00000000
,
00000010
00000000
00000100
00001000
00000100
00000000
00000001
00000000
00001000
00000000
00000010
00000000
00000001
00000000
00000000
00000000
,
00000100
00000000
00000010
00010000
00000010
00000000
00001000
00000000
00000100
00000000
00010000
00000000
01000000
00000000
00000000
00000000
,
00100000
00000000
00010000
00000000
00001000
00000000
00000100
00000000
00010000
00000000
00001000
00000000
00000100
00000010
00000100
00000010
,
00000100
00000001
00000100
00001000
00000100
00000001
00002000
00003200
,
00010300
00011000
00000000
00101000
00000000
00110000
00000000
10010000
,
10000000
00000000
00100000
01000000
00100000
01000000
00010000
01000000
00010000
01000000
00001000
01000000
00001000
01000000
00010000
01000000
,
00200000
00000000
00000000
20300000
00000000
31000000
00020000
00000000
,
00032000
00000000
00000000
00003020
00000000
00000031
00000200
00000000
,
00002300
00000000
00000000
00023000
00000000
00130000
20000000
00000000
,
31000000
00000000
00000000
00010000
00000000
00000000
00001000
00000000
00000100
00000000
00000000
00001000
00000000
00000000
00010000
00000000
,
02000000
00000000
00000000
03020000
00000000
00031000
00000020
00000000
,
00000230
00000000
00000000
00002300
00000000
00013000
00200000
00000000
,
02300000
00000000
00000000
03020000
00000000
00031000
00000020
00000000
,
00000130
00000000
00000000
00001000
00000000
00000000
00010000
00000000
01000000
00000000
00000000
00010000
00000000
00000000
00001000
00000000
,
00000100
00000010
00000100
00000010
00000100
00000010
00000001
00000010
,
00000100
00001000
00000100
00001000
00000100
00010000
00001000
00100000
,
00010000
10000000
00010000
10000000
00010000
01000000
00100000
10000000
,
01000000
00000000
00000000
00100000
00000000
00000000
01000000
00000000
10000000
00000000
00000000
01000000
00000000
00000000
00010000
00000000
,
00001000
00100000
00001000
00100000
00001000
00100000
00001000
00010000
,
00000100
00000010
00000100
00000010
00000100
00001000
00000001
00000100
,
00000010
00000000
00000000
00001000
00000000
00000000
00000010
00000000
00000000
00001000
00000000
00000000
00000100
00000000
00000000
00001000
00000000
00000000
00000100
00000000
00010000
00000000
00001000
00000000
,
00200000
00000000
00000000
00000000
,
00000000
00300000
00000000
00000000
00000000
00000000
10000000
00000000
00000000
01000000
00000000
00000000
00100000
00000000
00000000
00010000
00000000
00000000
10000000
00000000
00000000
01000000
00000000
00000000
,
00100000
00010000
01000000
00100000
00010000
00001000
01000000
00100000
,
00010000
00001000
00100000
00010000
00001000
00000100
00010000
00001000
,
00000100
00000010
00001000
00000100
00000010
00000001
00001000
00000100
,
00000010
00000001
00000001
00000010
00000100
00001000
00000001
00000010
,
00000100
00001000
00000010
00000100
00001000
00010000
00000010
00000100
,
00001000
00010000
00000100
00001000
00010000
00100000
00001000
00010000
,
00100000
01000000
00020000
00000000
00000000
00000000
00000000
00000000
,
00000000
00000000
10030000
00000000
01000000
00000000
10000000
00000000
00100000
00000000
01000000
00000000
00010000
00000000
00100000
00001000
,
00100000
00000000
00020000
00000000
00000000
00000000
00130000
00000000
00001000
00000000
00010000
00000000
00000010
00000000
00000100
00000001
,
00000100
00000000
00000020
00000000
00000000
00000000
00001030
00000000
00000100
00000000
00000010
00000000
00000100
00000000
00010000
00001000
,
00010000
00000000
00000200
00000000
00000000
00000000
00010300
00000000
00001000
00000000
00100000
00000000
01000000
00000000
00100000
00010000
,
00100000
00000000
01000000
00000000
10000000
00000000
00100000
00000000
01000000
00000000
00010000
00000000
10000000
00000000
00100000
01000000
,
00100000
00000000
00020000
00000000
00000000
00000000
00031000
00000000
00010000
00000000
00000100
00000000
00001000
00000000
00000001
00000100
,
00000001
00000000
00002000
00000000
00000000
00000000
00003100
00000000
00000010
00000000
00000100
00000000
00010000
00000000
00001000
00100000
,
00001000
00020000
00000000
00031000
00010000
00001000
00010000
00002000
,
00010000
00013000
01000000
10000000
00100000
00010000
00100000
10000000
,
01000000
00010000
00001000
00000100
00000001
00000010
00000001
00000100
,
00001000
00010000
00001000
00100000
00001000
01000000
00001000
00100000
,
00001000
00000000
01000000
00000000
00010000
00000000
01000000
00100000
01000000
00100000
10000000
00010000
10000000
00010000
01000000
00100000
,
01000000
00100000
01000000
00100000
01000000
00000000
00000000
00000000
00000000
00000000
00000000
00000000
00000000
00000000
00000000
00000000
;

//---------------dance-double - ----------------
#NOTES:
     dance-double:
     :
     Medium:
     6:
     0.440652,0.462274,0.065804,0.263216,0.000000,335.000000,8.000000,32.000000,0.000000,0.000000,0.000000,0.440652,0.462274,0.065804,0.263216,0.000000,335.000000,8.000000,32.000000,0.000000,0.000000,0.000000:
00000000
00000000
00000000
00000000
,
00000000
00000000
00000000
00000000
,
00000000
00000000
00000000
00000000
,
00000000
00000000
00000000
00000000
,
00000000
00000000
00000000
00000000
,
00000000
00000000
00000000
00000000
,
00001000
00000000
00010000
00000000
00001000
00000000
00010000
00010000
,
00001000
00000000
00010000
00001000
00010000
00000000
00001000
00001000
,
00000100
00000001
00000010
00001000
,
00020000
00000000
00000000
00000000
00031000
00100000
00001000
00010000
,
00000100
00010000
00000100
00000000
00001000
00000001
00001000
00000000
,
00000001
00000010
00000001
00000000
00000100
00000001
00000100
00000000
,
00001000
00000100
00001000
00000000
00010000
00001000
00010000
00000000
,
00001000
00100000
00001000
00000000
00100000
00010000
00100000
00000000
,
01000000
10000000
01000000
00000000
00100000
01000000
00100000
00000000
,
00010000
10000000
00010000
00000000
10000000
01000000
10000000
00000000
,
00010000
01000000
00010000
00000000
00100000
00001000
00100000
00000000
,
00001000
00010000
00001000
00000000
00000100
00000010
00000000
00000010
,
00000100
00000001
00000100
00000010
00001000
00000010
00000100
00000000
,
00000002
00002003
00003200
00020300
,
00031000
00100000
00001000
00100000
00010000
00100000
00010000
00000000
,
20000000
32000000
03200000
00320000
,
10030000
01000000
00100000
00010000
10000000
01000000
00100000
00000000
,
02000000
23000000
30020000
00230000
,
00301000
00010000
00001000
00010000
00000100
00001000
00000100
00000000
,
00000020
00000230
00002300
00003002
,
00000103
00000010
00000100
00000010
00002000
00000000
00003000
00000000
,
00000100
00010000
00000100
00010000
00002000
00000000
00003000
00000000
,
00100000
00010000
00100000
00010000
20000000
00000000
30000000
00000000
,
00100000
01000000
00100000
01000000
00020000
00000000
00030000
00000000
,
10000000
00000000
01000000
00000000
00100000
00000000
00001000
00010000
,
00000100
00000000
00000010
00000000
00000001
00000000
00001000
00000001
,
00002000
00000100
00000000
00000001
00000000
00000100
00000000
00003001
,
00001000
00000100
00001000
00000100
00001000
00000100
00010000
00001000
,
00010000
00000000
00000000
00010000
00000000
00010000
00000100
00000000
,
00001000
00000000
00000000
00001000
00000000
00001000
00000001
00000000
,
00000100
00000000
00000000
00000100
00000000
00000100
00000010
00000000
,
00001000
00000000
00000000
00001000
00000100
00000000
00000000
00000100
,
00010000
00000000
00000000
00001000
00000000
00001000
01000000
00000000
,
00100000
00000000
00000000
10000000
00000000
10000000
01000000
00000000
,
00100000
00000000
00000000
00001000
00000000
00001000
00100000
00000000
,
00020000
00000000
00000000
00030000
,
10000000
00010000
10000000
00010000
10000000
00010000
10000000
00010000
,
10000000
00010000
10000000
00010000
10000000
00010000
10000000
00010000
,
10000000
00010000
10000000
00010000
10000000
00010000
10000000
00000000
,
01000000
00000000
00000000
01000000
00010000
00000000
00000000
00010000
,
00000100
00000010
00000100
00000010
00000100
00000010
00000100
00000010
,
00000100
00000010
00000100
00000010
00000100
00000010
00000100
00000010
,
00000100
00000010
00000100
00000010
00000100
00000010
00000200
00000000
,
00002300
00000000
00000000
00000000
00000000
00000000
00000000
00003000
,
00000000
00000000
00000001
00000010
00000100
00000000
00000010
00000100
,
00001000
00000000
00000100
00010000
00001000
00000000
00010000
00001000
,
00100000
00000000
00010000
00100000
01000000
00000000
00100000
01000000
,
10000000
00000000
00100000
01000000
00010000
00000000
01000000
00100000
,
10000000
00000000
10000000
01000000
00100000
00000000
01000000
00100000
,
00010000
00000000
00100000
00001000
00010000
00000000
00001000
00010000
,
00000100
00000000
00001000
00000100
00000010
00000000
00000100
00000010
,
00000001
00002000
00000000
00000002
,
00003003
00000101
00000010
00001000
,
00000100
00010000
00000100
00000000
00010000
00000000
00001000
00000000
,
00100000
01010000
10000000
01000000
,
00100000
00001000
00010000
00000000
00001000
00000000
00010000
00000000
,
00000100
00001100
00000010
00000001
,
00000100
00000010
00001000
00000000
00000100
00000000
00010000
00000000
,
00001000
00101000
00100000
01000000
,
10000000
01000000
00200000
00000000
00000000
00000000
00020000
00000000
,
00330000
00101000
00001000
00011000
,
00010000
00010100
00000100
00000110
,
00000010
00000000
00000001
00002000
00000000
00003200
00000000
00000320
,
00000000
00000031
00000100
00000010
00000100
00000010
00001000
00000001
,
00001000
00000001
00001000
00000000
00000000
00000000
00000000
00000000
;

//---------------dance-double - ----------------
#NOTES:
     dance-double:
     :
     Easy:
     4:
     0.303169,0.346705,0.205638,0.254991,0.000000,202.000000,25.000000,31.000000,0.000000,0.000000,0.000000,0.303169,0.346705,0.205638,0.254991,0.000000,202.000000,25.000000,31.000000,0.000000,0.000000,0.000000:
00000000
00000000
00000000
00000000
,
00000000
00000000
00000000
00000000
,
00000000
00000000
00000000
00000000
,
00000000
00000000
00000000
00000000
,
00000000
00000000
00000000
00000000
,
00000000
00000000
00000000
00000000
,
00001000
00001000
00001000
00001000
,
00010000
00010000
00010000
00010000
,
01000000
01000000
01000000
01000000
,
20000000
00000000
00020000
30030000
,
01010000
00100000
01000000
10000000
,
00010000
00100000
01000000
10000000
,
00010000
00100000
01000000
10000000
,
00010000
00100000
01000000
00100000
,
00001000
00010000
00000100
00010000
,
00001000
00010000
00000100
00010000
,
00001000
00010000
00000100
00010000
,
00002000
00000000
00000200
00003300
,
00000101
00000100
00000110
00000000
,
00001001
00001000
00001100
00000000
,
00001010
00010000
00011000
00000000
,
00101000
00100000
10010000
00000000
,
10100000
01000000
01010000
00000000
,
00101000
00001000
00011000
00000000
,
00011000
00001000
00001010
00000000
,
00000021
00000000
00000200
00000330
,
00001000
00000100
00000010
00000001
,
00001000
00000100
00000010
00000001
,
00001000
00000100
00010000
00000100
,
00001000
00000100
00010000
00001000
,
00100000
00000000
00100000
00020000
,
10030000
00000000
00100000
20000000
,
31000000
00100000
00001000
00010000
,
00010100
00001100
00001001
00000101
,
00002001
00000000
00000000
00003020
,
00000230
00000000
00000000
00002300
,
00023000
00000000
00000000
02030000
,
03200000
00000000
00320000
00000000
,
10030000
00000000
00000000
02000000
,
03010000
00000000
00000000
00002000
,
00003100
00000000
00000000
00000002
,
00002003
00000000
00000000
00000000
,
00003100
00010000
00000100
00010000
,
00000100
00010000
00000100
00010000
,
00000100
00010000
00000100
00010000
,
00002000
00000000
00203000
00000000
,
00301000
01000000
00001000
01000000
,
00001000
01000000
00001000
01000000
,
00001000
01000000
00001000
01000000
,
00020000
00000000
20000000
00000000
,
00000000
30030000
00000000
00000000
00000000
00000000
10000000
00000000
00000000
00000000
00000000
00000000
01000000
00000000
00000000
00000000
00000000
00000000
00100000
00000000
00000000
00000000
00000000
00000000
,
01000000
10000000
01000000
00100000
,
01000000
10000000
01000000
00100000
,
01000000
10000000
01000000
00010000
,
00011000
00001000
00000100
00000001
,
00000100
00000010
00000100
00000001
,
00000100
00000010
00000100
00000001
,
00000100
00000020
00000000
00002030
,
00000000
00003200
00010000
00000000
,
00001000
00000000
00100000
00000000
,
00020300
00000000
00000010
00000000
,
00001000
00000000
00000100
00000000
,
00032000
00000000
01000000
00000000
,
10000000
00000000
00100000
00000000
,
02003000
00000000
00100000
00000000
,
00020000
00000000
00000000
00000000
,
03030000
10010000
10000000
00010000
,
10000000
10010000
00010000
10000000
,
00010000
00100000
00001000
00010000
,
00000100
00010000
00001000
00010000
,
00001000
00011000
00000000
00000000
;
