#VERSION:0.82;
#TITLE:Flip Flap;
#SUBTITLE:;
#ARTIST:kors k;
#TITLETRANSLIT:;
#SUBTITLETRANSLIT:;
#ARTISTTRANSLIT:;
#GENRE:Happy Hardcore;
#ORIGIN:;
#CREDIT:;
#BANNER:Flip Flap-bn.png;
#BACKGROUND:Flip Flap-bg.png;
#PREVIEWVID:;
#JACKET:Flip Flap-jk.png;
#CDIMAGE:;
#DISCIMAGE:;
#LYRICSPATH:;
#CDTITLE:;
#MUSIC:Flip Flap.mp3;
#OFFSET:-0.420000;
#SAMPLESTART:22.343000;
#SAMPLELENGTH:10.991000;
#SELECTABLE:YES;
#BPMS:0.000=175.000;
#STOPS:;
#DELAYS:;
#WARPS:;
#TIMESIGNATURES:0.000=4=4;
#TICKCOUNTS:0.000=4;
#COMBOS:0.000=1;
#SPEEDS:0.000=1.000=0.000=0;
#SCROLLS:0.000=1.000;
#FAKES:;
#LABELS:0.000=Song Start;
#LASTSECONDHINT:110.819992;
#BGCHANGES:;
#KEYSOUNDS:;
#ATTACKS:
;

//---------------dance-single - S-HEAVY----------------
#NOTEDATA:;
#CHARTNAME:DJ OMiY-HSP;
#STEPSTYPE:dance-single;
#DESCRIPTION:S-HEAVY;
#CHARTSTYLE:;
#DIFFICULTY:Hard;
#METER:9;
#RADARVALUES:0.682506,0.698727,0.506577,0.288225,0.681258,456.000000,58.000000,33.000000,0.000000,0.000000,0.000000,0.000000,0.000000,0.682506,0.698727,0.506577,0.288225,0.681258,456.000000,58.000000,33.000000,0.000000,0.000000,0.000000,0.000000,0.000000;
#CREDIT:DJ OMiY;
#NOTES:
0000
0000
0000
0000
,
0000
0000
0000
0000
,
0000
0000
0000
0000
,
0000
0000
0000
0000
,
0010
0000
0000
0010
0000
0000
0100
0000
0010
0000
0000
0000
,
1000
0000
0000
0001
0000
0010
0100
0000
0000
1000
0000
0000
,
0001
0000
0000
0100
0000
0000
0001
0000
0010
0000
0000
0000
,
0001
0000
1000
0100
0000
0010
0001
0000
0000
1000
0000
0001
,
1000
0000
0000
1001
0000
0000
0001
0000
0010
0001
0000
0000
,
0100
0000
0000
0110
0000
0010
1000
0000
1000
0001
0000
0000
,
1000
0000
0000
1100
0000
0000
0100
0000
0010
0001
0000
0000
,
1000
0000
0001
0010
0000
0100
1000
0000
0000
0001
0000
0100
,
0010
1010
0001
0101
,
0010
0110
1000
1001
,
1000
0000
0001
0100
0000
0010
1000
0000
0001
0010
0000
0100
,
1000
0000
0000
0001
0000
0000
1000
0100
1000
0100
0000
0010
,
0001
0000
0000
1001
0000
0000
0001
0010
0100
1000
0000
0010
,
1000
0000
0000
1200
0000
0000
0310
0000
0000
0001
0000
0100
,
0010
0000
0000
2010
0000
3001
1000
0010
1000
0100
0000
1000
,
0001
0000
1000
0001
0000
0001
0100
0000
0000
0120
0000
0000
,
1030
0000
0000
1001
0000
0000
0010
0001
0010
0100
0000
1000
,
0100
0000
0000
1002
0000
0000
0013
0000
0000
0001
0000
0100
,
0010
0000
0000
1000
0000
0001
1000
0100
0010
0001
0000
0100
,
0010
0000
0000
1000
0000
0001
0100
0000
0000
1001
0000
0000
,
0001
0000
1000
0001
1000
0100
0010
0000
0000
1001
0000
0000
,
0001
0000
1000
0001
0010
0001
0100
0000
0000
0110
0000
0000
,
0010
0000
0000
1000
0000
0001
0100
0001
1000
0001
0000
0010
,
0100
0000
0000
1000
0000
0001
0100
0000
0000
1001
0000
0000
,
0020
0000
1030
0100
0010
0001
1000
0000
0000
0110
0000
0000
,
0200
0000
0301
0010
0100
1000
0001
0000
0000
0110
0000
0000
,
0001
0000
0000
1000
0000
0001
0010
0000
0010
0100
0000
0100
,
1000
0000
0000
0001
0000
0100
0001
0000
0000
1001
0000
0000
,
0010
0000
0100
0010
0000
0100
0001
0000
0100
0010
0000
0000
,
1000
0000
0000
0002
0000
0000
0013
0000
0100
1000
0000
0000
,
0001
0000
1000
0001
0000
0010
0001
0000
1000
0001
0000
0000
,
0100
0000
0000
0020
0000
0000
1030
0000
0100
0010
0000
0000
,
1001
0000
0001
0100
0000
0010
0100
0000
0001
0100
0000
0000
,
0010
0000
0000
2000
0000
0000
3001
0000
0010
0100
0000
0000
,
1000
0000
0100
1000
0000
0001
1000
0000
0010
1000
0000
0000
,
0001
0000
0000
0010
0000
0010
0001
1000
0001
0100
0000
0010
,
0100
0000
0000
1001
0000
1000
0010
0000
1000
0100
0000
1000
,
0001
0000
0000
0200
0000
0000
0310
0000
1000
0001
0000
0000
,
1000
0000
0010
1000
0000
0010
0100
0000
0010
1000
0000
0000
,
0010
0000
0000
2000
0000
0000
3001
0000
0010
0100
0000
0000
,
1000
0000
0001
0010
0000
0001
1000
0000
0001
0100
0000
0000
,
0001
0000
0000
0200
0000
0000
0310
0000
1000
0100
0000
0000
,
0010
0000
0100
1000
0000
0100
1000
0000
0100
0010
0000
0001
,
0200
0302
1003
0110
,
0001
0000
0000
0001
0000
0000
1000
0000
0010
0000
0000
0000
,
0100
0000
0000
0001
0000
0010
0100
0000
0000
1000
0000
0000
,
0010
0000
0000
0010
0000
0000
1000
0000
0001
0000
0000
0000
,
1000
0000
0100
0010
0000
0010
0001
0000
0000
1000
0000
0001
,
0100
0110
0001
1001
,
0010
0011
1000
1010
,
0100
1100
0001
1001
,
0210
0001
1000
0310
,
0101
0000
0000
0001
0000
0000
2000
0000
0000
3001
0000
1000
,
0001
0000
0000
2010
0000
0000
3100
0000
0000
0010
0000
0001
,
0100
0000
0000
0020
0000
0000
0230
0000
0000
0301
0000
1000
,
0010
0000
1000
0001
0000
0001
0100
0000
0000
1001
0000
0000
,
0110
0000
0000
2010
0000
0000
3001
0010
0100
1000
0000
1000
,
0001
0000
0000
1001
0000
0000
1000
0100
0010
0001
0000
0001
,
0010
0110
1100
1001
,
0012
0000
0000
2003
0000
0000
3010
0000
0000
0010
0000
1000
,
0001
0000
0000
2010
0000
0000
3100
0010
0001
1000
0000
0010
,
0100
0000
0000
2001
0000
0000
3100
0000
0000
0010
0000
0001
,
1000
0000
0000
0020
0000
0130
0001
0100
0010
1000
0000
0100
,
1000
0000
0100
0010
0000
0001
0010
0000
0000
1001
0000
0000
,
0210
0000
0000
0301
0000
0000
0010
0001
1000
0001
0000
0100
,
0001
0000
0000
0012
0000
0000
1003
0000
0000
1000
0000
0010
,
0100
0000
0000
0002
0000
1003
0100
0010
0100
1000
0000
0010
,
0100
0000
0000
1001
0000
1000
0100
0000
0000
0110
0000
0000
,
1002
0000
1003
0100
0010
0001
1000
0000
0000
0110
0000
0000
,
2001
0000
3001
0010
0100
1000
0001
0000
0000
0110
0000
0000
,
0001
0000
0000
0010
0000
0100
1000
0100
1000
0010
0000
0100
,
0001
0000
0100
0010
0000
0100
0001
0000
0000
0110
0000
0000
,
2001
0000
3001
0010
0100
1000
0001
0000
0000
0110
0000
0000
,
1002
0000
1003
0100
0010
0001
1000
0000
0000
0110
0000
0000
,
1001
0000
0000
0001
0000
1000
0100
0010
0100
1000
0000
0010
,
0100
0000
0001
1000
0000
1000
0200
0000
0000
0300
0000
0000
,
1001
0000
0000
0000
;

//---------------dance-single - S-STANDARD----------------
#NOTEDATA:;
#CHARTNAME:DJ OMiY-SSP;
#STEPSTYPE:dance-single;
#DESCRIPTION:S-STANDARD;
#CHARTSTYLE:;
#DIFFICULTY:Medium;
#METER:6;
#RADARVALUES:0.521549,0.558981,0.358097,0.366831,0.187783,335.000000,41.000000,42.000000,0.000000,0.000000,0.000000,0.000000,0.000000,0.521549,0.558981,0.358097,0.366831,0.187783,335.000000,41.000000,42.000000,0.000000,0.000000,0.000000,0.000000,0.000000;
#CREDIT:DJ OMiY;
#NOTES:
0000
0000
0000
0000
,
0000
0000
0000
0000
,
0000
0000
0000
0000
,
0000
0000
0000
0000
,
1000
0000
0000
1000
0000
0000
0001
0000
0100
0000
0000
0000
,
0010
1000
0001
0100
,
0001
0000
0000
0001
0000
0000
1000
0000
0001
0000
0000
0000
,
0010
0000
0010
0100
0000
0100
0010
0000
0000
0001
0000
0000
,
1000
0000
0000
1100
0000
0000
0000
0000
0001
0100
0000
0000
,
0001
0000
0000
0101
0000
0000
0000
0000
1000
0010
0000
0000
,
1000
0000
0000
1010
0000
0000
0000
0000
0001
0010
0000
0000
,
0001
0011
0100
1100
,
1000
0001
0010
0100
,
1000
0001
0100
0010
,
1010
0101
1010
0101
,
0200
0000
0000
0320
0000
0000
1030
0001
1000
0001
0000
0000
,
1001
0000
0000
1001
0000
0000
0002
0000
0000
0013
0000
0001
,
1000
0000
0000
0100
0000
0000
0100
0000
0000
1000
0000
0010
,
0100
0000
0000
0001
0000
0100
0010
0000
0000
1000
0000
0000
,
0002
0023
0230
1300
,
1001
0000
0000
1001
0000
0000
0200
0000
0000
0301
0000
0100
,
0010
0000
0000
1000
0000
0000
0001
0000
0000
0010
0000
0001
,
0100
0000
0000
0010
0000
1000
0100
0000
0000
1000
0000
0000
,
0020
2030
3002
0103
,
0010
1000
0001
0110
,
1000
0001
0100
1001
,
0010
1000
0001
0010
,
0001
0000
1000
0001
0000
0001
1000
0000
1000
0001
0000
0000
,
0100
0010
1000
0101
,
0010
0001
0100
1010
,
0100
0100
0001
0001
,
2000
3200
0320
0031
,
2000
0100
0001
3100
,
0002
0100
1003
1001
,
2000
0010
0001
3010
,
0002
0010
1003
1001
,
0002
0010
1000
0013
,
2000
0010
3001
1001
,
0002
0100
1000
0103
,
2000
0100
3001
0220
,
0330
0000
0000
1001
0000
0000
1000
0000
0001
1000
0000
0000
,
0001
0000
1000
0001
0000
0000
0100
0000
0000
0010
0000
0000
,
1000
0000
0000
0001
0000
0000
0010
0000
0100
0010
0000
0000
,
0100
0000
0010
0100
0000
0000
1000
0000
0000
0001
0000
0000
,
0100
0000
0000
0010
0000
0000
1000
0000
0100
1000
0000
0000
,
0001
0000
0100
0001
0000
0000
1000
0000
0000
0010
0000
0000
,
0100
0001
1000
0010
,
2000
3002
0203
0310
,
1000
0000
0000
1000
0000
0000
0001
0000
1000
0000
0000
0000
,
0001
0010
0001
1000
,
0010
0000
0000
0010
0000
0000
1000
0000
0001
0000
0000
0000
,
0010
0000
0100
0010
0000
0010
0100
0000
0000
0010
0000
0000
,
0001
0001
0001
0001
,
0100
0100
0100
0100
,
0010
0010
0010
0010
,
2000
0010
0001
3100
,
1001
0000
0000
1001
0000
0000
0020
0000
0000
1030
0000
0010
,
0100
0010
1000
0001
,
0010
0000
0000
0001
0000
1000
0001
0000
0000
0100
0000
0000
,
0020
2030
3002
0013
,
1001
1001
0200
0310
,
1001
1001
0020
0130
,
1100
1100
0101
0101
,
0000
0000
0000
0000
,
1001
0000
0000
1001
0000
0000
0002
0000
0000
0013
0000
0100
,
1000
0000
0000
0001
0000
0000
0100
0000
0000
0010
0000
1000
,
0001
0000
0000
0100
0000
0001
1000
0000
0000
0100
0000
0000
,
2000
3002
0023
0031
,
1001
0000
0000
1001
0000
0000
0200
0000
0000
0301
0000
1000
,
0010
0000
0000
1000
0000
0000
0100
0000
0000
1000
0000
0010
,
1000
0000
0000
0001
0000
0010
0001
0000
0000
0100
0000
0000
,
0020
2030
3200
0301
,
0100
1000
0001
0110
,
0001
1000
0010
1001
,
0100
0100
1000
0010
,
1000
0000
0001
1000
0000
1000
0001
0000
0001
1000
0000
0000
,
0010
1000
0100
0011
,
1000
0001
0010
1100
,
0001
0000
0000
0001
0000
1000
0001
0000
0000
0001
0000
1000
,
0001
0000
0001
1000
0000
1000
0200
0000
0000
0300
0000
0000
,
1001
0000
0000
0000
;

//---------------dance-single - S-LIGHT----------------
#NOTEDATA:;
#CHARTNAME:DJ OMiY-LSP;
#STEPSTYPE:dance-single;
#DESCRIPTION:S-LIGHT;
#CHARTSTYLE:;
#DIFFICULTY:Easy;
#METER:4;
#RADARVALUES:0.400520,0.419236,0.218352,0.401768,0.000000,250.000000,25.000000,46.000000,0.000000,0.000000,0.000000,0.000000,0.000000,0.400520,0.419236,0.218352,0.401768,0.000000,250.000000,25.000000,46.000000,0.000000,0.000000,0.000000,0.000000,0.000000;
#CREDIT:DJ OMiY;
#NOTES:
0000
0000
0000
0000
,
0000
0000
0000
0000
,
0000
0000
0000
0000
,
0000
0000
0000
0000
,
0001
1000
0010
0000
,
0100
0001
1000
0100
,
1000
0001
0010
0000
,
0001
0010
0100
1000
,
0001
0101
0000
1100
,
1000
1010
0000
0011
,
0001
0101
0000
1001
,
1000
0110
0000
0110
,
0001
1000
0100
1000
,
0001
0010
0100
1000
,
0002
0203
0320
2030
,
0002
0000
3003
0010
,
1001
1001
0010
1000
,
0100
0010
0010
0100
,
1000
0000
0001
0100
,
0001
0010
0200
0300
,
1001
1001
0001
1000
,
0001
0100
0100
0010
,
1000
0000
0100
0010
,
0001
1000
0100
1001
,
0020
2030
3002
0003
,
0200
0302
2003
3000
,
0010
1000
0001
0010
,
0100
0100
0100
0000
,
2000
3020
0032
0003
,
0002
0023
2030
3000
,
0001
0010
0100
1000
,
0001
0001
0002
0003
,
1000
1000
0001
0001
,
1000
0001
0200
0300
,
0001
0001
1000
1000
,
0001
1000
0020
0030
,
0100
0100
0010
0010
,
0100
0010
2000
3000
,
0010
0010
0100
0100
,
0010
0100
0002
0003
,
0000
1001
0010
0010
,
1000
0001
0100
0000
,
0001
0001
1000
1000
,
0010
1000
0001
0000
,
0100
0100
0010
0010
,
1000
0001
0100
0000
,
0010
0010
1000
1000
,
0001
0100
0001
0000
,
0020
0000
0230
0000
,
1300
0001
1000
0000
,
0020
0000
0230
0000
,
0301
1000
0001
0000
,
0010
0001
0010
0001
,
1000
0100
1000
0100
,
0010
0100
0010
0100
,
1000
0100
0010
0001
,
1000
1000
0001
0000
,
0010
0010
0100
0000
,
0010
0010
0001
0000
,
0100
0100
0010
0000
,
1001
1001
0000
0000
,
1001
1001
0000
0000
,
0020
2030
3002
0203
,
0300
0000
0000
0010
,
1001
1001
0010
1000
,
0100
1000
1000
0001
,
0100
0000
0001
0010
,
0100
0010
0002
0003
,
1001
1001
0100
0001
,
1000
0010
0010
1000
,
0100
0000
1000
0001
,
0010
0100
2000
3000
,
0020
0230
0302
0003
,
0020
0230
2300
3000
,
0001
0100
0001
1000
,
0100
0100
0100
0000
,
2000
3200
0302
0003
,
0002
0203
2300
3000
,
0101
0000
1100
0000
,
0001
1000
0020
0030
,
1001
0000
0000
0000
;

//---------------dance-single - BEGINNER----------------
#NOTEDATA:;
#CHARTNAME:DJ OMiY-BEG;
#STEPSTYPE:dance-single;
#DESCRIPTION:BEGINNER;
#CHARTSTYLE:;
#DIFFICULTY:Beginner;
#METER:2;
#RADARVALUES:0.189654,0.279491,0.061139,0.235820,0.000000,118.000000,7.000000,27.000000,0.000000,0.000000,0.000000,0.000000,0.000000,0.189654,0.279491,0.061139,0.235820,0.000000,118.000000,7.000000,27.000000,0.000000,0.000000,0.000000,0.000000,0.000000;
#CREDIT:DJ OMiY;
#NOTES:
0000
0000
0000
0000
,
0000
0000
0000
0000
,
0000
0000
0000
0000
,
0000
0000
0000
0000
,
2000
0000
3000
0000
,
0002
0000
0003
0000
,
2000
0000
3000
0000
,
0002
0000
0003
0000
,
0100
0100
0000
0000
,
0010
0010
0000
0000
,
1000
1000
0000
0000
,
0100
0100
0000
0000
,
0010
0000
0010
0000
,
0001
0000
0001
0000
,
1000
1000
1000
1000
,
2000
0000
3000
0000
,
0001
0001
0000
0000
,
0200
0000
0300
0000
,
0010
0000
1000
0000
,
0010
0000
0000
0000
,
0100
0100
0000
0000
,
0002
0000
0003
0000
,
1000
0000
0001
0000
,
1000
0000
0000
0000
,
0220
0000
0330
0000
,
2002
0000
3003
0000
,
0010
0000
1000
0000
,
0001
0000
0000
0000
,
2002
0000
3003
0000
,
0220
0000
0330
0000
,
1000
0000
0001
0000
,
2000
0000
3000
0000
,
0010
0000
0000
0000
,
0100
0000
0000
0000
,
0001
0000
0000
0000
,
0010
0000
0000
0000
,
0100
0000
0000
0000
,
1000
0000
0000
0000
,
0001
0000
0000
0000
,
0100
0000
0010
0000
,
0100
0000
0000
0000
,
0001
0000
0000
0000
,
1000
0000
0000
0000
,
0100
0000
0000
0000
,
0010
0000
0000
0000
,
0001
0000
0000
0000
,
1000
0000
0000
0000
,
0010
0010
0010
0000
,
0200
0000
0300
0000
,
0002
0000
0003
0000
,
2000
0000
3000
0000
,
0200
0000
0300
0000
,
0010
0000
0010
0000
,
0010
0000
0010
0000
,
0100
0000
0100
0000
,
0100
0000
0100
0000
,
1000
1000
0000
0000
,
0001
0001
0000
0000
,
0100
0100
0000
0000
,
0010
0010
0000
0000
,
2002
3003
0000
0000
,
2002
3003
0000
0000
,
0010
0000
0020
0000
,
0030
0000
0000
0000
,
0001
0001
0000
0000
,
0200
0000
0300
0000
,
0010
0000
1000
0000
,
0001
0000
0000
0000
,
1000
1000
0000
0000
,
0020
0000
0030
0000
,
0100
0000
0001
0000
,
0010
0000
0100
0000
,
1000
1000
1000
0000
,
0001
0001
0001
0000
,
0100
0000
0010
0000
,
0100
0000
0000
0000
,
0001
0001
0001
0000
,
1000
1000
1000
0000
,
0001
0000
1000
0000
,
0001
0000
0000
0000
,
1001
0000
0000
0000
;

//---------------dance-double - D-HEAVY----------------
#NOTEDATA:;
#CHARTNAME:DJ OMiY-HDP;
#STEPSTYPE:dance-double;
#DESCRIPTION:D-HEAVY;
#CHARTSTYLE:;
#DIFFICULTY:Hard;
#METER:9;
#RADARVALUES:0.709956,0.663790,0.436704,0.375566,0.772966,476.000000,50.000000,43.000000,0.000000,0.000000,0.000000,0.000000,0.000000,0.709956,0.663790,0.436704,0.375566,0.772966,476.000000,50.000000,43.000000,0.000000,0.000000,0.000000,0.000000,0.000000;
#CREDIT:DJ OMiY;
#NOTES:
// measure 0
00000000
00000000
00000000
00000000
,  // measure 1
00000000
00000000
00000000
00000000
,  // measure 2
00000000
00000000
00000000
00000000
,  // measure 3
00000000
00000000
00000000
00000000
,  // measure 4
00000100
00000000
00000000
00001000
00000000
00000000
00000001
00000000
00000010
00000000
00000000
00000000
,  // measure 5
00000001
00000000
00000000
00000100
00000000
00000001
00002000
00000000
00000000
00003200
00000000
00000000
,  // measure 6
00010300
00000000
00000000
00001000
00000000
00000000
00100000
00000000
00010000
00000000
00000000
00000000
,  // measure 7
10000000
00000000
10000000
01000000
00000000
01000000
00100000
00000000
00000000
00100000
00000000
00001000
,  // measure 8
00010000
00000000
00000000
00011000
00000000
00000000
00010000
00000000
00000100
00001000
00000000
00000000
,  // measure 9
00000010
00000000
00000000
00000110
00000000
00000100
00000001
00000000
00000001
00001000
00000000
00000000
,  // measure 10
00000100
00000000
00000000
00010100
00000000
00000000
00010000
00000000
00001000
00100000
00000000
00000000
,  // measure 11
00010000
00000000
00000000
10010000
00000000
10000000
01000000
00000000
01000000
00100000
00000000
00000000
,  // measure 12
00010000
00000000
01000000
00100000
00000000
00000000
10000000
00000000
00010000
00100000
00000000
00000000
,  // measure 13
00001000
00000000
00010000
00000100
00000000
00000000
00001000
00000000
00000010
00000100
00000000
00000000
,  // measure 14
00000001
00000000
00000010
00000100
00000000
00000100
00001000
00000000
00001000
00010000
00000000
00010000
,  // measure 15
00100000
00000000
00000000
00100000
00000000
00000000
00010000
10000000
00010000
01000000
00000000
00100000
,  // measure 16
10000000
00000000
00000000
10010000
00000000
00000000
00100000
10000000
00010000
01000000
00000000
01000000
,  // measure 17
00002000
00000000
00000000
00013000
00000000
00000000
00011000
00000000
00000000
00010000
00000000
00000100
,  // measure 18
00001000
00000000
00000000
00000001
00000000
00000010
00000001
00000100
00000001
00000100
00000000
00000010
,  // measure 19
00001000
00000000
00000100
00010000
00000000
00001000
00100000
00000000
00000000
10010000
00000000
00000000
,  // measure 20
01100000
00000000
00000000
10010000
00000000
00000000
00100000
10000000
01000000
00100000
00000000
00010000
,  // measure 21
00200000
00000000
00000000
00301000
00000000
00000000
00011000
00000000
00000000
00010000
00000000
00000100
,  // measure 22
00000010
00000000
00000000
00000001
00000000
00000100
00000010
00001000
00000001
00001000
00000000
00000100
,  // measure 23
00010000
00000000
00000000
00001000
00000000
00100000
00010000
00000000
00000000
10010000
00000000
00000000
,  // measure 24
00200000
00000000
10300000
01000000
00100000
00010000
01000000
00000000
00000000
01010000
00000000
00000000
,  // measure 25
00002000
00000000
00013000
00001000
00010000
00000100
00000010
00000000
00000000
00001001
00000000
00000000
,  // measure 26
00000010
00000000
00000001
00000100
00000000
00000100
00000010
00001000
00000001
00001000
00000000
00000100
,  // measure 27
00000010
00000000
00000001
00000100
00000000
00000010
00001000
00000000
00000000
00001100
00000000
00000000
,  // measure 28
00020100
00000000
00031000
00100000
00001000
01000000
00100000
00000000
00000000
10010000
00000000
00000000
,  // measure 29
00020000
00000000
10030000
00010000
00100000
00001000
00100000
00000000
00000000
00110000
00000000
00000000
,  // measure 30
00010000
00000000
10000000
01000000
00000000
00100000
01000000
00100000
00001000
00010000
00000000
00001000
,  // measure 31
00000100
00000000
00000100
00000001
00000000
00000001
00000020
00000000
00000000
00000030
00000000
00000000
,  // measure 32
00001001
00000000
00000010
00000001
00000000
00000010
00000100
00000000
00000010
00000001
00000000
00000010
,  // measure 33
00002000
00000000
00000000
00023000
00000000
00000000
00031000
01000000
00001000
00100000
00000000
00000000
,  // measure 34
00010000
00000000
01000000
00100000
00000000
01000000
10000000
00000000
01000000
00100000
00000000
01000000
,  // measure 35
00020000
00000000
00000000
00230000
00000000
00000000
00301000
00010000
00000010
00001000
00000000
00001000
,  // measure 36
00000100
00000000
00001000
00000001
00000000
00001000
00000010
00000000
00001000
00000001
00000000
00001000
,  // measure 37
00000200
00000000
00000000
00020300
00000000
00000000
00031000
00100000
00001000
00010000
00000000
01000000
,  // measure 38
10000000
00000000
01000000
00100000
00000000
01000000
10000000
00000000
01000000
00010000
00000000
01000000
,  // measure 39
00200000
00000000
00000000
00302000
00000000
00000000
00013000
00000000
00000100
00001000
00000000
00001000
,  // measure 40
00000001
00000000
00000000
00000110
00000000
00000000
00001000
00000000
00000001
00000100
00000000
00000000
,  // measure 41
00000001
00000000
00001000
00000010
00000000
00000000
00000100
00000010
00010000
00001000
00000000
00100000
,  // measure 42
00010000
00000000
10000000
00100000
00000000
00000000
01000000
00000000
00010000
10000000
00000000
00000000
,  // measure 43
00100000
00000000
10000000
01000000
00000000
00000000
00100000
01000000
00100000
00001000
00000000
00001000
,  // measure 44
00010000
00000000
00000100
00001000
00000000
00000000
00000010
00000000
00000100
00000001
00000000
00000000
,  // measure 45
00000010
00000000
00000100
00001000
00000000
00000000
00000100
00010000
00001000
00010000
00000000
00001000
,  // measure 46
00100000
00000000
00100000
00010000
00000000
00000000
10000000
00000000
10000000
01000000
00000000
00000000
,  // measure 47
00110000
00000000
00000000
11000000
00000000
00000000
10100000
00000000
00000000
01001000
00000000
00001000
,  // measure 48
00020000
00000000
00000000
00030200
00000000
00000000
00002300
00000000
00000002
00000000
00003000
00000000
,  // measure 49
00000023
00000000
00000000
00000230
00000000
00010300
00002000
00000000
00000000
02003000
00000000
00000000
,  // measure 50
03200000
00000000
00000000
20300000
00000000
00000000
30020000
00000000
00200000
00000000
00030000
00000000
,  // measure 51
00301000
00000000
00001000
00010000
00000000
00010000
00000200
00000000
00000000
00002300
00000000
00003010
,  // measure 52
00000100
00000101
00000010
00000011
,  // measure 53
00000100
00010100
00010000
00011000
,  // measure 54
00001000
00110000
01000000
10010000
,  // measure 55
00200000
10000000
01000000
00310000
,  // measure 56
01000000
00000000
00000000
01000000
00000000
00000000
00010000
00100000
00010000
00100000
00000000
01000000
,  // measure 57
10000000
00010000
00010000
00100000
,  // measure 58
00002000
00013000
00020000
00030100
,  // measure 59
00000010
00000000
00000001
00001000
00000000
00001000
00000002
00000000
00000000
00000013
00000000
00000000
,  // measure 60
00001001
00000000
00000000
00001001
00000000
00000000
00000010
00010000
00001000
00010000
00000000
00000000
,  // measure 61
10010000
00000000
00000000
10010000
00000000
00000000
00100000
00001000
00010000
00001000
00000000
00000000
,  // measure 62
00001001
00011000
10010000
00011000
,  // measure 63
00001001
00000000
00000000
00000110
00000000
00000000
00000001
00000010
00000100
00010000
00000000
00001000
,  // measure 64
00100000
00000000
00000000
00110000
00000000
00000000
10000000
01000000
00100000
00010000
00000000
00010000
,  // measure 65
02000000
00000000
00000000
03100000
00000000
00000000
10010000
00000000
00000000
00100000
00000000
10000000
,  // measure 66
01000000
00000000
00000000
00100000
00000000
00010000
01000000
00010000
00100000
00001000
00000000
00010000
,  // measure 67
00001000
00000000
00001000
00000100
00000000
00000100
00000001
00000000
00000000
00001001
00000000
00000000
,  // measure 68
00000100
00000000
00000000
00001001
00000000
00000000
00000010
00000001
00001000
00000100
00000000
00000100
,  // measure 69
00020000
00000000
00000000
00031000
00000000
00000000
00101000
00000000
00000000
00010000
00000000
10000000
,  // measure 70
01000000
00000000
00000000
10000000
00000000
00010000
01000000
00100000
10000000
01000000
00000000
00100000
,  // measure 71
00001000
00000000
00000000
00010000
00000000
00001000
00000020
00000000
00000000
00000031
00000000
00000000
,  // measure 72
00000200
00000000
00000310
00001000
00000100
00010000
00001000
00000000
00000000
00011000
00000000
00000000
,  // measure 73
02000000
00000000
03010000
00100000
01000000
10000000
01000000
00000000
00000000
10010000
00000000
00000000
,  // measure 74
00100000
00000000
00001000
01000000
00000000
01000000
00100000
10000000
01000000
00100000
00000000
00100000
,  // measure 75
00001000
00000000
00001000
00010000
00000000
00010000
00000010
00000000
00000000
00001001
00000000
00000000
,  // measure 76
00000002
00000000
00001003
00000100
00000010
00000001
00000100
00000000
00000000
00001010
00000000
00000000
,  // measure 77
00020000
00000000
00031000
00100000
00001000
00010000
00000100
00000000
00000000
00011000
00000000
00000000
,  // measure 78
00001000
00000000
00001000
00100000
00000000
00100000
00010000
10000000
00010000
10000000
00000000
01000000
,  // measure 79
10000000
00000000
10000000
01000000
00000000
01000000
00200000
00000000
00000000
00300000
00000000
00000000
,  // measure 80
00110000
00000000
00000000
00000000
;

//---------------dance-double - D-STANDARD----------------
#NOTEDATA:;
#CHARTNAME:DJ OMiY-SDP;
#STEPSTYPE:dance-double;
#DESCRIPTION:D-STANDARD;
#CHARTSTYLE:;
#DIFFICULTY:Medium;
#METER:6;
#RADARVALUES:0.504081,0.489109,0.349363,0.174682,0.248921,344.000000,40.000000,20.000000,0.000000,0.000000,0.000000,0.000000,0.000000,0.504081,0.489109,0.349363,0.174682,0.248921,344.000000,40.000000,20.000000,0.000000,0.000000,0.000000,0.000000,0.000000;
#CREDIT:DJ OMiY;
#NOTES:
// measure 0
00000000
00000000
00000000
00000000
,  // measure 1
00000000
00000000
00000000
00000000
,  // measure 2
00000000
00000000
00000000
00000000
,  // measure 3
00000000
00000000
00000000
00000000
,  // measure 4
00001000
00000000
00000000
00100000
00000000
00000000
00010000
00000000
10000000
00000000
00000000
00000000
,  // measure 5
01000000
10000000
00010000
00100000
,  // measure 6
00001000
00000000
00000000
00010000
00000000
00000000
00000100
00000000
00000010
00000000
00000000
00000000
,  // measure 7
00000001
00000000
00000001
00001000
00000000
00001000
00000001
00000000
00000000
00000100
00000000
00000000
,  // measure 8
00000010
00000000
00000000
00000110
00000000
00000000
00000000
00000000
00001000
00000100
00000000
00000000
,  // measure 9
00001000
00000000
00000000
00001100
00000000
00000000
00000000
00000000
00000100
00010000
00000000
00000000
,  // measure 10
00001000
00000000
00000000
00011000
00000000
00000000
00000000
00000000
00001000
00100000
00000000
00000000
,  // measure 11
00010000
00000000
00000000
10000000
00000000
00010000
00000000
00000000
00010000
01000000
00000000
00000000
,  // measure 12
00100000
10000000
01000000
00100000
,  // measure 13
00001000
00010000
00000100
00000010
,  // measure 14
00000001
00000101
00001100
00011000
,  // measure 15
00110000
00000000
00000000
00100000
00000000
00000000
10000000
00010000
10000000
00010000
00000000
00000000
,  // measure 16
01100000
00000000
00000000
01100000
00000000
00000000
00020000
00000000
00000000
00130000
00000000
01000000
,  // measure 17
10000000
00100000
00100000
01000000
,  // measure 18
00010000
00000000
00000000
00010000
00000000
00000000
00100000
00000000
00000000
00001000
00000000
00001000
,  // measure 19
00010000
00000000
00010000
00000100
00000000
00000100
00010000
00000000
00000000
00000010
00000000
00000000
,  // measure 20
00001001
00000000
00000000
00001001
00000000
00000000
00000020
00000000
00000000
00000130
00000000
00000100
,  // measure 21
00001000
00000100
00000100
00010000
,  // measure 22
00001000
00000000
00000000
00100000
00000000
00000000
00010000
00000000
00000000
10000000
00000000
01000000
,  // measure 23
00100000
00000000
00100000
01000000
00000000
01000000
00100000
00000000
00000000
10010000
00000000
00000000
,  // measure 24
00200000
10300000
00010000
01100000
,  // measure 25
20000000
31000000
00010000
00011000
,  // measure 26
00001000
00010000
00000100
00000010
,  // measure 27
00000001
00000000
00000001
00001000
00000000
00001000
00000001
00000000
00000000
00000110
00000000
00000000
,  // measure 28
00002000
00003001
00000100
00001001
,  // measure 29
00000200
00010300
00001000
00110000
,  // measure 30
00010000
01000000
00010000
00100000
,  // measure 31
11000000
01100000
00110000
00002000
,  // measure 32
00013000
00001000
00000100
00000001
,  // measure 33
00001000
00000000
00000000
00000001
00000000
00000000
00000010
00000000
00000100
00000010
00000000
00000000
,  // measure 34
00000001
00001000
00000100
00010000
,  // measure 35
00001000
00000000
00000000
00010000
00000000
00000000
01000000
00000000
10000000
00010000
00000000
00000000
,  // measure 36
01000000
00100000
10000000
01000000
,  // measure 37
00100000
00000000
00000000
00001000
00000000
00000000
00010000
00000000
00000100
00001000
00000000
00000000
,  // measure 38
00000010
00000100
00000001
00001000
,  // measure 39
00000020
00000000
00000000
00020030
00000000
00000000
00032000
00000000
00000000
00103000
00000000
00010000
,  // measure 40
01000000
00000000
00000000
10010000
00000000
00000000
00100000
00000000
01000000
00100000
00000000
00000000
,  // measure 41
10000000
00000000
00000000
00010000
00000000
00000000
01000000
00000000
00001000
00010000
00000000
00000000
,  // measure 42
00001000
00000000
00000000
00010000
00000000
00000000
00000100
00000000
00000000
00000010
00000000
00000100
,  // measure 43
00001000
00000000
00000000
00000001
00000000
00000000
00001000
00000001
00001000
00000001
00000000
00000000
,  // measure 44
00000010
00000000
00000000
00000100
00000000
00000000
00010000
00000000
00001000
00010000
00000000
00000000
,  // measure 45
00001000
00000000
00000000
00100000
00000000
00000000
00010000
00000000
10000000
01000000
00000000
00000000
,  // measure 46
00100000
01000000
10000000
00010000
,  // measure 47
01100000
10010000
00200000
01300000
,  // measure 48
00010000
00000000
00000000
00010000
00000000
00000000
00100000
00000000
00001000
00000000
00000000
00000000
,  // measure 49
00010000
00000100
00000010
00000001
,  // measure 50
00001000
00000000
00000000
00001000
00000000
00000000
00000001
00000000
00000010
00000000
00000000
00000000
,  // measure 51
00000001
00000000
00000001
00001000
00000000
00001000
00000100
00000000
00000000
00010000
00000000
00000000
,  // measure 52
00001000
00001000
00100000
00100000
,  // measure 53
00010000
00010000
10000000
10000000
,  // measure 54
01000000
01000000
00100000
00100000
,  // measure 55
00002000
00010000
00100000
00013000
,  // measure 56
00011000
00000000
00000000
00011000
00000000
00000000
00020000
00000000
00000000
00030100
00000000
00010000
,  // measure 57
00001000
00010000
00010000
00000100
,  // measure 58
00000010
00000010
00000001
00000001
,  // measure 59
00000100
00001000
00010000
00100000
,  // measure 60
10010000
10010000
00000000
00000000
,  // measure 61
00011000
00011000
00000000
00000000
,  // measure 62
00001001
00001001
00011000
00011000
,  // measure 63
00100000
00010000
10000000
00100000
,  // measure 64
10010000
00000000
00000000
10010000
00000000
00000000
00200000
00000000
00000000
00310000
00000000
10000000
,  // measure 65
00100000
01000000
01000000
00001000
,  // measure 66
00010000
00000000
00000000
00000100
00000000
00000000
00000010
00000000
00000000
00000100
00000000
00001000
,  // measure 67
00000001
00000000
00000001
00001000
00000000
00001000
00000001
00000000
00000000
00000110
00000000
00000000
,  // measure 68
00001001
00000000
00000000
00001001
00000000
00000000
00000020
00000000
00000000
00000031
00000000
00000001
,  // measure 69
00000100
00000000
00000000
00000010
00000000
00000000
00001000
00000000
00000000
00000100
00000000
00010000
,  // measure 70
00001000
00000000
00000000
00100000
00000000
00001000
00010000
00000000
00000000
00001000
00000000
00100000
,  // measure 71
00010000
00000000
00010000
10000000
00000000
10000000
01000000
00000000
00000000
10010000
00000000
00000000
,  // measure 72
00200000
00000000
00000000
10300000
00000000
00010000
01000000
00000000
00000000
00000000
00000000
00000000
,  // measure 73
00020000
00000000
00000000
00130000
00000000
00001000
00010000
00000000
00000000
00000000
00000000
00000000
,  // measure 74
00000100
00000100
00001000
00001000
,  // measure 75
00000001
00000000
00000001
00001000
00000000
00001000
00000001
00000000
00000000
00000110
00000000
00000000
,  // measure 76
00002000
00000000
00000000
00003001
00000000
00001000
00000100
00000000
00000000
00000000
00000000
00000000
,  // measure 77
00020000
00000000
00000000
00031000
00000000
00100000
01000000
00000000
00000000
00100000
00000000
00000000
,  // measure 78
00001000
00000000
00000000
00000000
00000000
00010000
00001000
00000000
00000000
00000000
00000000
00001000
,  // measure 79
00010000
00000000
00010000
00001000
00000000
00001000
00020000
00000000
00000000
00030000
00000000
00000000
,  // measure 80
01000000
00000000
00000000
00000000
;

//---------------dance-double - D-LIGHT----------------
#NOTEDATA:;
#CHARTNAME:DJ OMiY-LDP;
#STEPSTYPE:dance-double;
#DESCRIPTION:D-LIGHT;
#CHARTSTYLE:;
#DIFFICULTY:Easy;
#METER:4;
#RADARVALUES:0.334391,0.349363,0.227086,0.131011,0.000000,227.000000,26.000000,15.000000,0.000000,0.000000,0.000000,0.000000,0.000000,0.334391,0.349363,0.227086,0.131011,0.000000,227.000000,26.000000,15.000000,0.000000,0.000000,0.000000,0.000000,0.000000;
#CREDIT:DJ OMiY;
#NOTES:
// measure 0
00000000
00000000
00000000
00000000
,  // measure 1
00000000
00000000
00000000
00000000
,  // measure 2
00000000
00000000
00000000
00000000
,  // measure 3
00000000
00000000
00000000
00000000
,  // measure 4
00001000
00000000
00010000
00000000
,  // measure 5
00001000
00100000
01000000
00000000
,  // measure 6
10000000
00000000
00010000
00000000
,  // measure 7
00100000
00001000
00010000
00000100
,  // measure 8
00000010
00000110
00000000
00001001
,  // measure 9
00000001
00000101
00000000
00001010
,  // measure 10
00001000
00001100
00000000
00001100
,  // measure 11
00000100
00010000
00001000
00100000
,  // measure 12
00010000
10000000
00010000
10000000
,  // measure 13
00100000
01000000
00100000
01000000
,  // measure 14
00020000
20030000
32000000
03200000
,  // measure 15
00300000
00000000
00000000
00000000
,  // measure 16
00011000
00011000
00010000
00000100
,  // measure 17
00000010
00000001
00000001
00000000
,  // measure 18
00000100
00000000
00000001
00000000
,  // measure 19
00000010
00000100
00001000
00000000
,  // measure 20
00001100
00001100
00000100
00010000
,  // measure 21
00001000
01000000
01000000
00000000
,  // measure 22
00100000
00000000
10000000
00000000
,  // measure 23
00010000
10000000
01000000
00100000
,  // measure 24
00020000
01000000
10030000
00010000
,  // measure 25
00200000
00001000
00310000
00001000
,  // measure 26
00010000
00000000
00000100
00000000
,  // measure 27
00000010
00000001
00001000
00000000
,  // measure 28
00000020
00000100
00001030
00000001
,  // measure 29
00000200
00000010
00000301
00001000
,  // measure 30
00000100
00000000
00010000
00000000
,  // measure 31
00001000
00001000
00002000
00003000
,  // measure 32
00100000
00000000
00010000
00000000
,  // measure 33
10000000
01000000
00100000
00000000
,  // measure 34
00010000
00000000
01000000
00000000
,  // measure 35
00100000
10000000
00010000
00000000
,  // measure 36
00100000
00000000
00001000
00000000
,  // measure 37
00010000
00000100
00000010
00000000
,  // measure 38
00000001
00000000
00001000
00000000
,  // measure 39
00000010
00000100
00000010
00001001
,  // measure 40
00000100
00001001
00000000
00000001
,  // measure 41
00000010
00000001
00001000
00000000
,  // measure 42
00000100
00000000
00010000
00001000
,  // measure 43
00100000
00010000
10000000
00000000
,  // measure 44
00100000
00000000
01000000
00010000
,  // measure 45
01000000
00001000
00010000
00000000
,  // measure 46
00000100
00000000
00000010
00000100
,  // measure 47
00010000
00010000
00002000
00003000
,  // measure 48
00010000
00000000
00010000
00000000
,  // measure 49
00001000
00000000
00001000
00000000
,  // measure 50
00100000
00000000
00100000
00000000
,  // measure 51
00010000
00000000
00010000
00000000
,  // measure 52
10000000
10000000
10000000
10000000
,  // measure 53
00010000
00010000
00010000
00010000
,  // measure 54
00001000
00001000
00001000
00001000
,  // measure 55
00000002
00000010
00000100
00001003
,  // measure 56
00001001
00001001
00000010
00000100
,  // measure 57
00000001
00001000
00001000
00000000
,  // measure 58
00000100
00000000
00010000
00001000
,  // measure 59
00100000
00010000
10000000
00000000
,  // measure 60
01100000
01100000
00000000
00000000
,  // measure 61
00011000
00011000
00000000
00000000
,  // measure 62
00000110
00000110
00000110
00000110
,  // measure 63
00000000
00000000
00000000
00000000
,  // measure 64
00001001
00001001
00000010
00000001
,  // measure 65
00001000
00000100
00000100
00000000
,  // measure 66
00010000
00000000
00001000
00000000
,  // measure 67
00010000
01000000
10000000
00000000
,  // measure 68
10010000
10010000
01000000
10000000
,  // measure 69
01000000
00100000
00100000
00000000
,  // measure 70
00001000
00000000
00010000
00000100
,  // measure 71
00000010
00000100
00001000
00000000
,  // measure 72
00000001
00000100
00002000
00003000
,  // measure 73
00001000
00000100
00000002
00000003
,  // measure 74
00000010
00000000
00000100
00000000
,  // measure 75
00010000
00001000
00100000
00010000
,  // measure 76
10000000
01000000
00020000
00030000
,  // measure 77
00010000
01000000
20000000
30000000
,  // measure 78
00010000
00000000
00100000
00000000
,  // measure 79
00001000
00010000
00000010
00000100
,  // measure 80
00000001
00000000
00000000
00000000
;
