#TITLE:El Loco Bass;
#SUBTITLE:;
#ARTIST:xRGTMx;
#TITLETRANSLIT:;
#SUBTITLETRANSLIT:;
#ARTISTTRANSLIT:;
#GENRE:;
#CREDIT:;
#BANNER:El Loco Bass.png;
#BACKGROUND:El Loco Bass-bg.png;
#LYRICSPATH:;
#CDTITLE:cdtitle.png;
#MUSIC:El Loco Bass.ogg;
#OFFSET:0.000000;
#SAMPLESTART:67.467804;
#SAMPLELENGTH:15.000000;
#SELECTABLE:YES;
#BPMS:0.000000=128.000000
,32.000000=64.000000
,48.000000=128.000000
,92.000000=64.000000
,94.000000=128.000000
,122.000000=64.000000
,124.000000=128.000000
,172.000000=64.000000
,188.000000=128.000000
;
#STOPS:
;
#BGCHANGES:;
#KEYSOUNDS:;
#ATTACKS:;

//---------------dance-single - S-STANDARD----------------
#NOTES:
     dance-single:
     xRGTMx-SSP:
     Medium:
     5:
     0.277057,0.277908,0.308541,0.114601,0.000000,172.000000,35.000000,13.000000,0.000000,0.000000,0.000000,0.277057,0.277908,0.308541,0.114601,0.000000,172.000000,35.000000,13.000000,0.000000,0.000000,0.000000:
0000
0000
0000
0000
,
0000
0000
0000
0000
,
0000
0000
0000
0000
,
0000
0000
0000
0000
,
1000
0010
1000
0100
,
0001
0010
0001
0100
,
1000
0010
0100
0001
,
0010
1000
0100
0001
,
2000
3000
0020
0030
,
0002
0003
0200
0300
,
2000
3100
0200
0301
,
0002
0013
0020
1030
,
1000
1000
1000
1000
,
0001
0001
0001
0001
,
0110
0100
0110
0010
,
0110
1001
0110
0100
,
1001
1000
1000
1000
,
0001
0001
0100
0100
,
0001
0110
1000
0110
,
0001
0001
1000
1000
,
1001
1001
0001
0001
,
0010
0100
0110
0110
,
1000
1001
0001
1001
,
0200
0300
1001
0001
,
0001
0001
1000
1000
,
0010
0010
1000
0110
,
0001
0110
1000
1000
,
0001
0001
1001
1001
,
1000
1000
0100
0010
,
0110
0110
0001
1001
,
1000
1001
0020
0030
,
1001
0001
0010
0100
,
1000
0010
0001
0100
,
1000
0010
0100
0001
,
1000
0100
0001
0010
,
1001
0000
0010
0000
1000
0001
1000
0000
,
0100
0100
0010
0010
,
1001
0000
0001
0000
0100
0010
0100
0000
,
0001
0010
0010
0100
,
1000
1000
1000
1000
,
0001
0001
0001
0001
,
0110
0010
0110
0100
,
0110
1001
0110
0010
,
1001
1000
0100
0100
,
0010
0010
0100
0100
0010
0000
0110
0000
,
1001
0001
0100
0100
,
0010
0010
0100
0100
0020
0000
0030
0000
,
2002
0000
0000
0000
,
0000
0000
3003
0000
;

//---------------dance-single - S-LIGHT----------------
#NOTES:
     dance-single:
     xRGTMx-LSP:
     Easy:
     3:
     0.154900,0.148100,0.079339,0.070524,0.000000,106.000000,9.000000,8.000000,0.000000,0.000000,0.000000,0.154900,0.148100,0.079339,0.070524,0.000000,106.000000,9.000000,8.000000,0.000000,0.000000,0.000000:
0000
0000
0000
0000
,
0000
0000
0000
0000
,
0000
0000
0000
0000
,
0000
0000
0000
0000
,
0000
0001
0000
0001
,
0000
0001
0000
0001
,
0000
1000
0000
1000
,
0000
1000
0000
1000
,
0200
0300
0000
0000
,
0020
0030
0000
0000
,
0200
0300
0000
0000
,
0020
0030
0000
0000
,
0001
0001
0001
0001
,
0001
0001
0001
0000
,
1000
1000
1000
1000
,
1000
1000
1000
0000
,
1001
0000
0100
0000
,
0001
0001
0001
0000
,
0000
1000
0000
1000
,
0000
0010
0010
0000
,
1001
0000
0100
0000
,
1000
1000
1000
0000
,
0001
0001
0001
0000
,
0200
0300
1001
0000
,
1000
0000
0010
0010
,
0010
0000
0000
0100
,
0000
0100
0000
0001
,
0001
0000
1001
0000
,
1000
0000
0100
0100
,
0100
0000
0010
0000
,
0010
0000
0002
0003
,
1001
0000
1000
0000
,
0010
0000
0010
0000
,
0001
0000
1000
0000
,
0100
0100
0100
0000
,
1001
0000
0001
0000
,
0010
0000
0010
0000
,
1000
0000
0001
0000
,
0100
0100
0100
0000
,
0001
0001
0001
0001
,
0001
0001
0001
0000
,
1000
1000
1000
1000
,
1000
1000
1000
0000
,
1001
0001
0100
0000
,
1000
0001
0100
0000
,
1001
1000
0100
0000
,
0001
1000
0100
0000
,
2002
0000
0000
0000
,
3003
0000
0000
0000
;

//---------------dance-single - S-CHALLENGE----------------
#NOTES:
     dance-single:
     xRGTMx-CSP:
     Challenge:
     10:
     0.642270,1.000000,0.484851,0.317357,0.687606,419.000000,55.000000,36.000000,0.000000,0.000000,0.000000,0.642270,1.000000,0.484851,0.317357,0.687606,419.000000,55.000000,36.000000,0.000000,0.000000,0.000000:
// measure 0
0000
0000
0000
0000
,  // measure 1
0000
0000
0000
0000
,  // measure 2
0000
0000
0000
0000
,  // measure 3
0000
0000
0000
0000
,  // measure 4
0001
0000
0000
0000
0010
0000
0100
1000
0002
0000
0000
0000
0103
0000
0010
0000
,  // measure 5
1000
0000
0000
0000
0100
0000
0010
0001
2000
0000
0010
0000
3010
0000
0100
0000
,  // measure 6
0001
0000
0000
0000
0010
0000
0100
1000
0020
0000
0000
0000
0130
0000
0001
0100
,  // measure 7
0001
0000
1000
0000
0100
0000
0010
0001
0010
0000
0100
1000
0100
0000
1000
0000
,  // measure 8
0020
0001
0000
0100
0000
1000
0000
0001
,  // measure 9
0000
0100
0000
0001
0000
1000
0000
0100
,  // measure 10
0000
0001
0000
0100
0000
1000
0000
0001
,  // measure 11
0000
1000
0000
0100
0000
0001
0000
1030
,  // measure 12
1010
1100
1010
1100
,  // measure 13
0011
0101
0011
0101
,  // measure 14
1100
1001
0101
1001
1010
1001
0011
1001
,  // measure 15
1000
0100
0010
0100
1000
0001
0100
0010
0100
0001
0010
0100
1000
0010
0100
0000
,  // measure 16
1002
0000
0000
0000
0103
0001
0100
0001
1000
0001
1000
0001
0100
0001
0100
0001
,  // measure 17
1000
0000
0100
0000
0100
0000
0001
0000
0100
0000
0100
0000
1000
0000
0000
2010
0000
0000
3001
0000
0000
0012
0000
0000
,  // measure 18
1003
0001
0010
0000
0110
0000
1001
0000
0001
1000
0010
0000
0110
0000
1001
0000
,  // measure 19
1000
0010
0100
0000
0000
0001
0100
0000
0000
0001
0010
0000
0000
0100
1000
0000
,  // measure 20
0202
0000
0000
0303
2200
0000
0000
3300
1000
0100
1000
0100
0010
0100
0010
0100
,  // measure 21
1000
0010
0010
0001
0010
0010
1000
0100
0100
0001
0100
0100
,  // measure 22
1000
0000
0001
0100
0010
0000
0010
0100
0001
0000
1000
0100
0010
0100
1000
0000
,  // measure 23
0012
0100
0000
1000
0000
0010
0000
0103
2001
0000
0000
0000
3010
0100
0001
0100
,  // measure 24
0001
0000
0000
0100
0000
0000
1000
0000
0000
0100
0000
0000
1000
0000
0000
0100
0000
0000
0001
0000
0000
0100
0000
0000
0001
0000
0000
0000
0010
0000
0000
0000
0010
0000
0000
0000
1000
0000
0000
0000
0010
0000
0000
0000
0010
0000
0000
0000
,  // measure 25
0001
0000
0000
0000
0000
0000
2100
0000
0000
0000
0000
0000
3001
0000
0000
0000
0000
0000
0102
0000
0000
0000
0000
0000
1003
0000
0000
0100
0000
0000
0010
0000
0000
0000
0000
0000
0001
0000
0000
0000
0100
0000
0000
0000
0100
0000
0000
0000
,  // measure 26
1000
0000
0000
0010
0000
0000
0100
0000
0000
0000
0000
0000
0001
0000
0000
0000
0100
0000
0000
0000
0100
0000
0000
0000
1000
0000
0000
0001
0000
0000
0010
0000
0000
0000
0000
0000
0000
0000
0000
1000
0000
0000
0010
0000
0000
0000
0000
0000
,  // measure 27
0000
0001
0100
0000
0000
1000
0100
0000
2001
0000
0000
0000
3200
0000
0000
0000
,  // measure 28
1300
0000
0000
0100
0000
0000
1000
0000
0000
0100
0000
0000
0001
0000
0000
0100
0000
0000
0001
0000
0000
0100
0000
0000
1000
0000
0000
0000
0010
0000
0000
0000
0010
0000
0000
0000
0001
0000
0000
0000
0100
0000
0000
0000
0100
0000
0000
0000
,  // measure 29
1000
0000
0000
0000
0100
0000
0000
0000
0100
0000
0000
0000
0001
0000
0000
0000
0010
0000
0000
0000
0010
0000
0000
0000
2000
0000
0000
0000
0000
0000
3001
0000
0000
0010
0000
0000
0200
0000
0000
0000
0000
0000
0310
0000
0000
0100
0000
0000
,  // measure 30
2000
0000
3010
0100
0001
0000
0001
1000
0200
0010
0000
0001
0000
0010
0300
1000
,  // measure 31
2010
0000
0000
0000
3100
0000
0010
0100
1000
0000
0001
0000
0100
0000
0010
0000
,  // measure 32
0002
0000
0013
0100
0001
1000
0100
0010
,  // measure 33
0012
0000
0000
0000
1003
0000
0100
1000
0001
0000
1000
0000
0100
0000
0010
0000
,  // measure 34
2000
0000
3010
0100
1000
0001
1000
0010
,  // measure 35
0102
0000
0000
0000
0013
0000
0100
0010
0001
0000
1000
0000
0010
0000
0100
0000
,  // measure 36
2000
0000
3100
0010
1000
0001
0010
0100
,  // measure 37
2100
0000
0000
0000
3001
0000
0010
0001
1000
0000
0001
0000
0010
0000
0100
0000
,  // measure 38
0002
0000
0103
0010
0001
1000
0001
0100
,  // measure 39
0101
1100
0101
1100
,  // measure 40
0011
1010
0011
1010
,  // measure 41
0101
1001
1100
1001
0011
1001
1010
1001
,  // measure 42
0001
0010
0100
0010
0001
1000
0010
0100
0010
1000
0001
0010
0100
1000
0010
0000
,  // measure 43
1002
0000
0000
0000
0013
0001
0000
0001
0100
0001
0000
0001
1000
0001
0000
0001
0100
0000
0020
0000
0130
0000
0001
0000
1000
0000
0200
0000
0310
0000
0100
1000
,  // measure 44
0001
0000
0101
0000
0100
0010
0100
0010
1000
0001
1000
0000
0100
1000
0010
0000
1000
0001
0100
0001
0000
0000
1000
0100
1000
0000
0010
0100
0000
0000
0101
0000
,  // measure 45
2100
0000
0000
0000
0000
0000
0000
0000
0000
0000
0000
0000
0000
0000
0000
0000
0000
0000
0000
0000
0000
0000
0000
0000
3001
0000
0000
0000
0000
0000
0010
0000
0000
0000
0000
0000
0001
0000
0000
0000
0000
0000
0010
0000
0000
0000
0000
0000
0100
0000
0000
0000
0000
0000
1000
0000
0000
0000
0000
0000
0100
0000
0000
0000
0000
0000
1000
0000
0000
0000
0000
0000
0001
0000
0000
0000
0000
0000
0100
0000
0000
0000
0000
0000
0001
0000
0000
0000
0000
0000
0100
0000
0000
0000
0000
0000
0001
0000
0000
0000
0000
0000
0000
0000
0010
0000
0000
0000
0000
0000
0000
0000
0010
0000
0000
0000
0000
0000
0000
0000
1000
0000
0000
0000
0000
0000
0000
0000
0010
0000
0000
0000
0000
0000
0000
0000
0010
0000
0000
0000
0000
0000
0000
0000
0001
0000
0000
0000
0000
0000
0000
0000
0100
0000
0000
0000
0000
0000
0000
0000
0100
0000
0000
0000
0000
0000
0000
0000
1000
0000
0000
0000
0000
0000
0000
0000
0100
0000
0000
0000
0000
0000
0000
0000
0100
0000
0000
0000
0000
0000
0000
0000
,  // measure 46
0001
0000
0000
0000
0000
0000
0000
0000
0000
0000
0000
0000
0001
0000
0000
0000
0000
0000
1000
0000
0000
0000
0000
0000
0000
0000
0000
0000
0000
0000
1000
0000
0000
0000
0000
0000
0100
0000
0000
0000
0000
0000
0000
0000
0000
0000
0000
0000
0100
0000
0000
0000
0000
0000
0010
0000
0000
0000
0000
0000
0000
0000
0000
0000
0000
0000
0010
0000
0000
0000
0000
0000
0001
0000
0000
0000
0000
0000
0000
0000
0100
0000
0000
0000
0000
0000
0000
0000
0100
0000
0000
0000
0000
0000
0000
0000
2000
0000
0000
0000
0000
0000
0000
0000
0000
0000
0000
0000
0010
0000
0000
0000
0000
0000
0000
0000
0000
0000
0000
0000
0000
0000
0000
0000
0000
0000
0000
0000
0000
0000
0000
0000
0001
0000
0000
0000
0000
0000
0000
0000
0000
0000
0000
0000
0000
0000
0000
0000
0000
0000
0000
0000
0000
0000
0000
0000
0100
0000
0000
0000
0000
0000
0000
0000
0000
0000
0000
0000
0000
0000
0000
0000
0000
0000
0000
0000
0000
0000
0000
0000
3001
0000
0000
0000
0000
0000
0000
0000
0000
0000
0000
0000
,  // measure 47
0202
0000
0000
0000
,  // measure 48
0000
0000
0303
0000
;

//---------------dance-single - BEGINNER----------------
#NOTES:
     dance-single:
     xRGTMx-BEG:
     Beginner:
     1:
     0.083117,0.103582,0.070524,0.017631,0.000000,56.000000,8.000000,2.000000,0.000000,0.000000,0.000000,0.083117,0.103582,0.070524,0.017631,0.000000,56.000000,8.000000,2.000000,0.000000,0.000000,0.000000:
0000
0000
0000
0000
,
0000
0000
0000
0000
,
0000
0000
0000
0000
,
0000
0000
0000
0000
,
1000
0000
0000
0000
,
1000
0000
0000
0000
,
0001
0000
0000
0000
,
0001
0000
0000
0000
,
0200
0300
0000
0000
,
0000
0000
0000
0000
,
0020
0030
0000
0000
,
0000
0000
0000
0000
,
1000
0000
0000
0000
,
0001
0000
0000
0000
,
1000
0000
1000
0000
,
0001
0000
0001
0000
,
1001
0000
0000
0000
,
0100
0100
0100
0000
,
0000
0010
0000
0010
,
0000
0000
0000
0000
,
1001
0000
0000
0000
,
0100
0100
0100
0000
,
0000
0010
0000
0010
,
0000
0000
1001
0000
,
0000
0000
0010
0010
,
0010
0000
0000
0100
,
0000
0100
0000
0000
,
0000
0000
1001
0000
,
0000
0000
0010
0010
,
0010
0000
0000
0100
,
0000
0100
0000
0000
,
1001
0000
0000
0000
,
1000
0000
0000
0000
,
0100
0000
0000
0000
,
0010
0000
0000
0000
,
1001
0000
0000
0000
,
0001
0000
0000
0000
,
0100
0000
0000
0000
,
0010
0000
0000
0000
,
1000
0000
0000
0000
,
0001
0000
0000
0000
,
1000
0000
1000
0000
,
0001
0000
0001
0000
,
1001
0000
0000
0000
,
1000
0000
0000
0000
,
0001
0000
0000
0000
,
0100
0000
0010
0000
,
1001
0000
0000
0000
;

//---------------dance-single - S-HEAVY----------------
#NOTES:
     dance-single:
     xRGTMx-HSP:
     Hard:
     7:
     0.361434,0.406173,0.238018,0.229202,0.061708,234.000000,27.000000,26.000000,0.000000,0.000000,0.000000,0.361434,0.406173,0.238018,0.229202,0.061708,234.000000,27.000000,26.000000,0.000000,0.000000,0.000000:
0000
0000
0000
0000
,
0000
0000
0000
0000
,
0000
0000
0000
0000
,
0000
0000
0000
0000
,
1000
0010
0000
0010
0000
0100
0000
0001
,
0000
0011
0000
1010
0000
0101
0000
1000
,
0001
0010
0000
0010
0000
0100
0000
1000
,
0000
1010
0000
0011
0000
1100
0000
1000
,
0002
0013
0020
1030
,
2000
3100
0200
0301
,
0002
0103
0200
1300
,
2000
3010
0020
0031
,
0001
0001
1000
1000
,
0010
0010
0100
0100
,
1001
0110
1001
0110
,
1000
0001
1000
0001
0100
0100
0100
0000
,
1001
0000
1000
0100
0001
0100
1000
0000
,
0002
0000
2003
0000
3010
0100
0000
0100
,
0001
0000
0010
0010
0001
0000
1000
1000
,
0001
0100
0000
1000
0000
0010
0000
0001
,
0110
0000
1001
0000
0001
0100
1000
0100
,
0002
0023
0230
2300
,
3010
1000
0001
0000
0010
0001
1000
0000
,
0220
0000
0330
0000
1001
0000
1000
0010
,
0001
0010
1000
0000
0002
0000
2003
0000
,
3100
0010
0000
0010
0001
0000
0100
0100
,
0001
0000
1000
1000
0001
0010
0000
1000
,
0000
0100
0000
0001
0110
0000
1001
0000
,
0001
0010
1000
0010
0002
0000
0203
0000
,
0320
0000
2030
0000
3100
1000
0001
0000
,
0100
0001
1000
0000
0220
0000
0330
0000
,
1001
0000
1000
0100
0010
0100
1000
0000
,
0010
0000
0010
0100
0001
0100
0010
0000
,
1000
0000
0001
0010
0100
0010
0001
0000
,
0100
0000
0100
0010
1000
0010
0100
0000
,
1001
0000
0001
1000
0010
0001
0010
0000
,
1000
0000
0100
0001
0100
1000
0001
0000
,
1000
0000
0001
0100
1000
0100
0001
0000
,
1000
0000
0001
0010
1000
0010
0001
0000
,
1000
1000
0001
0001
,
0100
0100
0010
0010
,
1001
0110
1001
0110
,
0001
1000
0001
1000
0010
0010
0010
0000
,
1001
1000
0100
0100
1000
0010
0100
0010
,
1000
0100
1000
0000
0001
0100
0000
0100
0000
0001
0000
0010
0000
1000
0000
0100
,
1001
0001
0100
0100
0001
0010
0100
0010
,
0001
0000
0000
0100
0000
0000
0001
0000
0000
1000
0000
0000
0001
0000
0000
0000
0000
0000
1000
0000
0000
0000
0010
0000
0000
0000
0001
0000
0000
0000
0100
0000
,
2002
0000
0000
0000
,
0000
0000
3003
0000
;

//---------------dance-double - D-LIGHT----------------
#NOTES:
     dance-double:
     xRGTMx-LDP:
     Easy:
     3:
     0.149863,0.145014,0.079339,0.052893,0.000000,104.000000,9.000000,6.000000,0.000000,0.000000,0.000000,0.149863,0.145014,0.079339,0.052893,0.000000,104.000000,9.000000,6.000000,0.000000,0.000000,0.000000:
00000000
00000000
00000000
00000000
,
00000000
00000000
00000000
00000000
,
00000000
00000000
00000000
00000000
,
00000000
00000000
00000000
00000000
,
00010000
00100000
00100000
00000000
,
10000000
00100000
00100000
00000000
,
00001000
00010000
00001000
00000000
,
00010000
00001000
00010000
00000000
,
00000200
00000000
00000000
00000000
,
00000300
00000000
00000000
00000000
,
00000020
00000000
00000000
00000000
,
00000030
00000000
00000000
00000000
,
00000001
00000000
00000001
00000000
,
00000100
00000000
00000100
00000000
,
00000010
00000010
00000010
00000010
,
00001000
00001000
00001000
00000000
,
00011000
00000000
00100000
00000000
,
01000000
01000000
10000000
00000000
,
00000000
00010000
00000000
00010000
,
00000000
00100000
00100000
00000000
,
00011000
00000000
00000010
00000000
,
00000100
00000100
00000001
00000000
,
00000000
00001000
00000000
00001000
,
00000020
00000030
00011000
00000000
,
01000000
00000000
00100000
00100000
,
10000000
00000000
00000000
00010000
,
00000000
00010000
00000000
01000000
,
01000000
00000000
00011000
00000000
,
00000100
00000000
00000010
00000010
,
00000001
00000000
00000000
00001000
,
00000000
00001000
00000200
00000300
,
00011000
00000000
00100000
00000000
,
10000000
00010000
00100000
00000000
,
00011000
00000000
00000010
00000000
,
00000001
00001000
00000010
00000000
,
00010000
00010000
00001000
00000000
,
00001000
00001000
00010000
00000000
,
00000010
00001000
00001000
00000000
,
00100000
00010000
00010000
00000000
,
10000000
00000000
10000000
00000000
,
01000000
00000000
01000000
00000000
,
00100000
00100000
00100000
00100000
,
00010000
00010000
00020000
00030000
,
00011000
00000000
00000100
00000000
,
00000010
00000010
00000001
00000001
,
00000100
00000000
00011000
00000000
,
00100000
10000000
02000000
03000000
,
00011000
00000000
00000000
00000000
;

//---------------dance-double - D-STANDARD----------------
#NOTES:
     dance-double:
     xRGTMx-SDP:
     Medium:
     5:
     0.258167,0.317357,0.158678,0.158678,0.000000,169.000000,18.000000,18.000000,0.000000,0.000000,0.000000,0.258167,0.317357,0.158678,0.158678,0.000000,169.000000,18.000000,18.000000,0.000000,0.000000,0.000000:
00000000
00000000
00000000
00000000
,
00000000
00000000
00000000
00000000
,
00000000
00000000
00000000
00000000
,
00000000
00000000
00000000
00000000
,
10000000
00100000
10000000
00100000
,
01000000
00010000
01000000
00010000
,
00100000
00001000
00100000
00001000
,
00010000
00000010
00010000
00000010
,
00000200
00000300
00000002
00000003
,
00002000
00003000
00000200
00000300
,
00020000
00030000
00002000
00003000
,
00200000
00300000
00020000
00030000
,
10000000
10000000
00010000
00010000
,
10000000
10000000
00010000
00010000
,
00100000
00101000
00001000
00011000
,
00010000
00010000
00001000
00001000
00010000
00020000
00002000
00033000
,
00011000
00010000
00000100
00000100
,
00001000
00001000
00000010
00000010
,
00000001
00000000
00000001
00001000
00000001
00000000
00000001
00001000
,
00000001
00000010
00001000
00010000
,
00011000
00001000
00100000
00100000
,
00010000
00010000
01000000
01000000
,
10000000
00000000
10000000
00010000
10000000
00000000
10010000
00000000
,
02200000
03300000
00011000
00010000
,
00000100
00000100
00000010
00000001
,
00001000
00000000
00000010
00000000
00010000
00000000
00001000
00010000
,
00001000
00000000
00010000
00001000
00100000
00000000
01000000
00000000
,
10000000
00010000
00011000
00001000
,
00100000
00100000
00001000
00010000
,
00000100
00000000
00000010
00000000
00000001
00000000
00000100
00000010
,
00000100
00000000
00000001
00001000
00000002
00000000
00000003
00000000
,
00001001
00000001
00001000
00000000
,
00001000
00000100
00001000
00000000
,
00000100
00010000
00000100
00010000
,
00001000
00010000
00011000
00000000
,
00110000
00100000
01000000
00000000
,
01100000
10000000
00010000
00000000
,
01000000
00001000
01000000
00001000
,
00010000
00000100
00001000
00000000
,
00000001
00000001
00000010
00000010
,
00000100
00000100
00001000
00001000
,
00000010
00010010
00010000
00011000
,
00001000
00010000
00001000
00010000
00002000
00000000
00103000
00000000
,
10010000
10000000
01000000
00100000
,
00010000
00000000
00001000
00000000
00000100
00000010
00000100
00000000
,
00001001
00000001
00000010
00000100
,
00001000
00010000
02200000
03300000
,
20020000
00000000
00000000
00000000
,
30030000
00000000
00000000
00000000
;

//---------------dance-double - D-HEAVY----------------
#NOTES:
     dance-double:
     xRGTMx-HDP:
     Hard:
     7:
     0.392918,0.423142,0.352619,0.511297,0.039670,214.000000,40.000000,58.000000,0.000000,0.000000,0.000000,0.392918,0.423142,0.352619,0.511297,0.039670,214.000000,40.000000,58.000000,0.000000,0.000000,0.000000:
00000000
00000000
00000000
00000000
,
00000000
00000000
00000000
00000000
,
00000000
00000000
00000000
00000000
,
00000000
00000000
00000000
00000000
,
00000001
00000010
00000000
00000010
00000000
00000100
00000000
00001000
,
00000000
00010100
00000000
00101000
00000000
01010000
00000000
10100000
,
00000000
10000000
00000000
01000000
00000000
00100000
00000000
00010000
,
00000000
00010100
00000000
00001010
00000000
00000101
00000000
00000001
,
00002000
00003000
00020200
00030300
,
00200000
00300000
02020000
03030000
,
20000000
30000000
00220000
00330000
,
00002000
00003000
00000022
00000033
,
00001001
00001000
00001000
00001000
,
00010100
00000100
00000100
00000100
,
00011000
00011000
00110000
00110000
,
00100000
01000000
00100000
01000000
10000000
00010000
01000000
00000000
,
10010000
00000000
10000000
00000000
01000000
00100000
01000000
00000000
,
00100000
00010000
10000000
00010000
00200000
00000000
00302000
00000000
,
00023000
00000000
00030100
00000100
00000200
00000000
00000310
00000020
,
00000000
00000031
00000000
00000101
00000000
00001100
00000000
00010000
,
00001000
00000000
00010100
00000000
00001000
00000010
00000100
00000000
,
00000002
00000023
00002030
00023000
,
00031000
00100000
00001000
00010000
00000100
00010000
00001000
00100000
,
02000000
03000000
10010000
10000000
,
00100000
01000000
00100000
00000000
01000000
00010000
10000000
00010000
,
02000000
00000000
00000000
03002000
00000000
00000000
00023000
00000000
00000000
00030010
00000100
00000010
,
00000200
00000000
00000000
00000000
00000000
00000000
00000310
00000000
00000100
00000000
00000010
00000000
00000100
00000000
00000000
00000001
00000000
00000000
00000000
00000000
00000000
00000011
00000000
00000000
,
00000000
00001010
00000000
00010000
00001000
00000000
00010010
00000000
,
00001000
00000100
00000010
00000000
00000002
00000000
00000203
00000000
,
00002300
00000000
00023000
00000000
00031000
01000000
00001000
00010000
,
00000010
00010000
00001000
01000000
00200000
00000000
00300000
00000000
,
20010000
00000000
32000000
00000000
03100000
00010000
02000000
00000000
,
03002000
00000000
00003200
00000000
00000310
00001000
00000100
00000000
,
00000020
00000000
00000032
00000000
00001003
00000100
00000010
00000100
,
00002000
00000000
00003200
00000000
00010300
00001000
00100000
00010000
,
20010000
00000000
30200000
00000000
01300000
00010000
00200000
00000000
,
00302000
00000000
00003020
00000000
00000130
00001000
00000010
00000000
,
00000200
00000000
00000302
00000000
00001003
00000010
00000100
00000010
,
00002000
00000000
00003020
00000000
00010030
00001000
01000000
00010000
,
10000000
10100000
00100000
01100000
,
01000000
01010000
00010000
00110000
,
00101000
00011000
00010100
00001100
,
00001000
00000010
00000100
00000001
00000010
00000100
00001000
00000000
,
00001002
00000000
00000103
00000100
00000200
00000000
00000320
00000000
,
00001030
00000000
00001000
00000000
00000100
00000000
00000100
00000000
00010000
00001000
00000000
00011000
00000000
00110000
00000000
00100000
,
02000000
10000000
23000000
00000000
30100000
00100000
01000000
01000000
,
00010000
00000000
00000000
00100000
00000000
00000000
00001000
00000000
00020200
00000000
00000000
00000000
00030300
00000000
00000000
00000000
,
00000220
00000000
00000000
00000000
,
00000330
00000000
00000000
00000000
;

//---------------dance-double - D-CHALLENGE----------------
#NOTES:
     dance-double:
     xRGTMx-CDP:
     Challenge:
     10:
     0.624639,1.000000,0.652344,0.088155,0.652344,412.000000,74.000000,10.000000,0.000000,0.000000,0.000000,0.624639,1.000000,0.652344,0.088155,0.652344,412.000000,74.000000,10.000000,0.000000,0.000000,0.000000:
00000000
00000000
00000000
00000000
,
00000000
00000000
00000000
00000000
,
00000000
00000000
00000000
00000000
,
00000000
00000000
00000000
00000000
,
10000000
00000000
00100000
00000000
00010000
00000000
00001000
00000010
00000001
00000000
00000100
00000000
00001000
00000000
00010000
00000000
,
01000000
00000000
10000000
00000000
00100000
00000000
00010000
00001000
00000010
00000000
00000001
00000000
00000100
00000000
00001000
00000000
,
00010000
00000000
01000000
00000000
10000000
00000000
00100000
00010000
00001000
00000000
00000010
00000000
00000001
00000000
00000100
00000000
,
00001000
00000000
00010000
00000000
01000000
00000000
10000000
00100000
00010000
00000000
00001000
00000000
00000010
00000000
00000001
00000000
,
00000200
00000010
00000000
00001000
00000000
00000001
00000000
00000010
,
00000000
00001000
00000000
00000001
00000000
00000010
00000000
00001000
,
00000000
00000010
00000000
00000001
00000000
00001000
00000000
00000010
,
00000000
00000001
00000000
00000010
00000000
00001000
00000000
00000301
,
00000101
00001100
00011000
01010000
,
11000000
01010000
00011000
00001100
,
00000011
00001001
00001010
00011000
00101000
00110000
10010000
10100000
,
00100000
01000000
00100000
01000000
00001000
00010000
00001000
00010000
00000100
00000010
00000100
00000010
00000001
00001000
00000001
00000000
,
00000110
00000000
00000000
00000000
00001000
00000001
00001000
00000100
00010000
00000100
00010000
00001000
00100000
00001000
01000000
00010000
,
01000000
00000000
00010000
00000000
00010000
00000000
00001000
00000000
00010000
00000000
00010000
00000000
00100000
00000000
00000000
00101000
00000000
00000000
00000000
00000000
00000000
00010010
00000000
00000000
,
00001000
00000100
00000010
00000000
00000011
00000000
00001100
00000000
00000001
00000100
00000010
00000000
00001010
00000000
00001100
00000000
,
00000100
00010000
00001000
00000000
00000000
00100000
00010000
00000000
00000000
01000000
00100000
00000000
00000000
10000000
00010000
00000000
,
10100000
00000000
00000000
00000000
01010000
00000000
00000000
00000000
00100000
00001000
00010000
00001000
00010000
00000100
00001000
00000100
,
00001000
00000010
00000010
00000100
00000010
00000010
00000100
00000010
00000010
00000001
00000010
00000010
,
00001000
00000000
00000100
00010000
00000100
00000000
00010000
00001000
00010000
00000000
00001000
00100000
00010000
00100000
01000000
00000000
,
20000000
00100000
00000000
00010000
00000000
01000000
30000000
00100000
01100000
00000000
00000000
00000000
00010000
10000000
00010000
00100000
,
00001000
00000000
00000000
00100000
00000000
00000000
00001000
00000000
00000000
00010000
00000000
00000000
00000100
00000000
00000000
00010000
00000000
00000000
00000010
00000000
00000000
00001000
00000000
00000000
00000010
00000000
00000000
00000000
00001000
00000000
00000000
00000000
00001000
00000000
00000000
00000000
00010000
00000000
00000000
00000000
00001000
00000000
00000000
00000000
00001000
00000000
00000000
00000000
,
00000100
00000000
00000000
00000000
00000000
00000000
00010100
00000000
00000000
00000000
00000000
00000000
00000000
00000000
00000000
00000000
00000000
00000000
01001000
00000000
00000000
00000000
00000000
00000000
00010000
00000000
00000000
00100000
00000000
00000000
01000000
00000000
00000000
00000000
00000000
00000000
10000000
00000000
00000000
00000000
00100000
00000000
00000000
00000000
01000000
00000000
00000000
00000000
,
00010000
00000000
00000000
00100000
00000000
00000000
01000000
00000000
00000000
00000000
00000000
00000000
01000000
00000000
00000000
00000000
10000000
00000000
00000000
00000000
00010000
00000000
00000000
00000000
00100000
00000000
00000000
00001000
00000000
00000000
00010000
00000000
00000000
00000000
00000000
00000000
00000000
00000000
00000000
00000100
00000000
00000000
00001000
00000000
00000000
00000000
00000000
00000000
,
00000000
00000010
00000100
00000000
00000000
00000001
00001000
00000000
00000101
00000000
00000000
00000000
00001010
00000000
00000000
00000000
,
00000100
00000000
00000000
00010000
00000000
00000000
00001000
00000000
00000000
00010000
00000000
00000000
00001000
00000000
00000000
00100000
00000000
00000000
00010000
00000000
00000000
00100000
00000000
00000000
00010000
00000000
00000000
00000000
01000000
00000000
00000000
00000000
01000000
00000000
00000000
00000000
00100000
00000000
00000000
00000000
01000000
00000000
00000000
00000000
01000000
00000000
00000000
00000000
,
00100000
00000000
00000000
00000000
01000000
00000000
00000000
00000000
01000000
00000000
00000000
00000000
10000000
00000000
00000000
00000000
01000000
00000000
00000000
00000000
01000000
00000000
00000000
00000000
00010000
00000000
00000000
00000000
00000000
00000000
00100000
00000000
00000000
00001000
00000000
00000000
00100000
00000000
00000000
00000000
00000000
00000000
00001000
00000000
00000000
00010000
00000000
00000000
,
00001000
00000000
00010000
00000100
00001000
00000100
00000010
00000001
00000200
00001000
00000000
00000001
00000000
00001000
00000300
00000010
,
00002001
00000000
00003001
00000010
00001000
00010000
00100000
10000000
,
02000000
00000000
13000000
00100000
00010000
00001000
00000010
00000001
,
00000020
00000000
00000031
00000100
00001000
00010000
01000000
10000000
,
00200000
00000000
10300000
01000000
00010000
00001000
00000100
00000001
,
00001001
00000000
00010100
00001000
00101000
10000000
01010000
00100000
,
10010000
00000000
01001000
00010000
00010010
00000001
00001100
00000010
,
00001001
00000000
00010100
00001000
01001000
10000000
00110000
01000000
,
10010000
00000000
00101000
00010000
00010100
00000001
00001010
00000100
,
00000011
00001010
00011000
00110000
,
10100000
00110000
00011000
00001010
,
00000101
00001001
00001100
00011000
01001000
01010000
10010000
11000000
,
01000000
00100000
01000000
00100000
00001000
00010000
00001000
00010000
00000010
00000100
00000010
00000100
00000001
00001000
00000001
00000000
,
00000110
00000000
00000000
00000000
00000001
00001000
00000000
00001000
00000100
00010000
00000000
00001000
00100000
00010000
00000000
00010000
01000000
00000000
00100000
00000000
10000000
00000000
11000000
00000000
01010000
00000000
00010000
00000000
00100000
00000000
00001000
00010000
,
00000100
00000000
00000110
00000000
00000010
00000001
00000010
00000001
00001000
00000010
00000100
00000000
00000001
00001000
00000001
00000000
00001000
00000100
00001000
00000000
00000000
00000100
00010000
00000000
00000000
00001000
00100000
00000000
00000000
00010000
10000000
00000000
,
01100000
00000000
00000000
00000000
00000000
00000000
00000000
00000000
00000000
00000000
00000000
00000000
00000000
00000000
00000000
00000000
00000000
00000000
00000000
00000000
00000000
00000000
00000000
00000000
10000000
00000000
00000000
00000000
00000000
00000000
00010000
00000000
00000000
00000000
00000000
00000000
10000000
00000000
00000000
00000000
00000000
00000000
01000000
00000000
00000000
00000000
00000000
00000000
00100000
00000000
00000000
00000000
00000000
00000000
00010000
00000000
00000000
00000000
00000000
00000000
01000000
00000000
00000000
00000000
00000000
00000000
00010000
00000000
00000000
00000000
00000000
00000000
00100000
00000000
00000000
00000000
00000000
00000000
00001000
00000000
00000000
00000000
00000000
00000000
00010000
00000000
00000000
00000000
00000000
00000000
00000100
00000000
00000000
00000000
00000000
00000000
00001000
00000000
00000000
00000000
00000000
00000000
00000000
00000000
00000100
00000000
00000000
00000000
00000000
00000000
00000000
00000000
00000010
00000000
00000000
00000000
00000000
00000000
00000000
00000000
00000001
00000000
00000000
00000000
00000000
00000000
00000000
00000000
00000010
00000000
00000000
00000000
00000000
00000000
00000000
00000000
00000100
00000000
00000000
00000000
00000000
00000000
00000000
00000000
00001000
00000000
00000000
00000000
00000000
00000000
00000000
00000000
00000100
00000000
00000000
00000000
00000000
00000000
00000000
00000000
00010000
00000000
00000000
00000000
00000000
00000000
00000000
00000000
00001000
00000000
00000000
00000000
00000000
00000000
00000000
00000000
00100000
00000000
00000000
00000000
00000000
00000000
00000000
00000000
01000000
00000000
00000000
00000000
00000000
00000000
00000000
00000000
,
10000000
00000000
00000000
00000000
00000000
00000000
00000000
00000000
00000000
00000000
00000000
00000000
00000000
00000000
00000000
00000000
00000000
00000000
10100000
00000000
00000000
00000000
00000000
00000000
00000000
00000000
00000000
00000000
00000000
00000000
00000000
00000000
00000000
00000000
00000000
00000000
01010000
00000000
00000000
00000000
00000000
00000000
00000000
00000000
00000000
00000000
00000000
00000000
00000000
00000000
00000000
00000000
00000000
00000000
00101000
00000000
00000000
00000000
00000000
00000000
00000000
00000000
00000000
00000000
00000000
00000000
00000000
00000000
00000000
00000000
00000000
00000000
00010100
00000000
00000000
00000000
00000000
00000000
00000000
00000000
00000100
00000000
00000000
00000000
00000000
00000000
00000000
00000000
00001000
00000000
00000000
00000000
00000000
00000000
00000000
00000000
00002001
00000000
00000000
00000000
00000000
00000000
00000000
00000000
00000000
00000000
00000000
00000000
00000010
00000000
00000000
00000000
00000000
00000000
00000000
00000000
00000000
00000000
00000000
00000000
00000000
00000000
00000000
00000000
00000000
00000000
00000000
00000000
00000000
00000000
00000000
00000000
00000100
00000000
00000000
00000000
00000000
00000000
00000000
00000000
00000000
00000000
00000000
00000000
00000000
00000000
00000000
00000000
00000000
00000000
00000000
00000000
00000000
00000000
00000000
00000000
00000001
00000000
00000000
00000000
00000000
00000000
00000000
00000000
00000000
00000000
00000000
00000000
00003000
00000000
00000000
00000000
00000000
00000000
00000000
00000000
00000000
00000000
00000000
00000000
00000010
00000000
00000000
00000000
00000000
00000000
00000000
00000000
00000000
00000000
00000000
00000000
,
00000220
00000000
00000000
00000000
,
00000330
00000000
00000000
00000000
;
