#TITLE:DRIVE ME CRAZY;
#SUBTITLE:;
#ARTIST:kors k feat. 古川未鈴;
#TITLETRANSLIT:;
#SUBTITLETRANSLIT:;
#ARTISTTRANSLIT:kors k feat. Misuzu Furukawa;
#GENRE:Happy Hardcore;
#CREDIT:;
#BANNER:DRIVE ME CRAZY-bn.png;
#BACKGROUND:DRIVE ME CRAZY-bg.png;
#LYRICSPATH:;
#CDTITLE:;
#MUSIC:DRIVE ME CRAZY.mp3;
#OFFSET:-0.480000;
#SAMPLESTART:51.146999;
#SAMPLELENGTH:12.000000;
#SELECTABLE:YES;
#BPMS:0.000000=180.000000
;
#STOPS:
;
#BGCHANGES:;
#KEYSOUNDS:;
#ATTACKS:;

//---------------dance-single - S-HEAVY----------------
#NOTES:
     dance-single:
     DJ OMiY-HSP:
     Hard:
     9:
     0.699436,0.574972,0.468682,0.443574,0.004185,476.000000,56.000000,53.000000,0.000000,0.000000,0.000000,0.699436,0.574972,0.468682,0.443574,0.004185,476.000000,56.000000,53.000000,0.000000,0.000000,0.000000:
0000
0000
0000
0000
,
0000
0000
0000
0000
,
0000
0000
0000
0000
,
0000
0000
0000
0000
,
0000
0000
0000
0000
,
0001
0100
0000
0001
1000
0100
1000
0001
,
0010
0001
1000
0010
1000
0100
0010
0000
,
0002
0023
0230
1300
,
0110
0000
1001
0000
0110
1000
0001
0000
,
1001
0000
1000
0100
0010
0001
0100
0010
,
0000
1000
0001
0010
0002
0100
0103
0010
,
1000
0100
1000
0100
1000
0001
1000
0001
,
0100
1000
0100
0001
1000
0000
1001
0000
,
0101
0000
2000
0000
3100
0010
0001
1000
,
0000
0001
0100
0010
0100
0000
0001
0010
,
0200
0000
2300
0000
3001
1000
0100
0110
,
0000
0001
0010
0100
2000
0000
3000
0000
,
1001
1000
0100
0000
1000
0001
0100
0000
,
0010
0100
0001
0000
1000
0100
0010
0100
,
0000
1000
0001
1000
0000
0001
0100
0001
,
0000
0010
0001
0010
0100
0010
0001
1000
,
0010
0100
0001
1000
0100
1000
0001
0200
,
0000
0320
0000
2030
0000
3100
1000
0001
,
0010
0011
0110
1100
,
1000
0000
0001
0100
0000
0010
1000
0001
,
1000
0100
1000
0000
0100
0010
0001
0000
,
1000
0001
1000
0100
1000
0100
1000
0001
,
0100
0010
1000
0100
0000
0010
0001
0100
,
0000
0010
1000
0100
0010
0001
0100
0010
,
0200
0000
0301
1000
0100
0000
1100
0000
,
1000
0000
0001
0200
0010
0320
0000
0230
,
0001
0000
0300
0001
1000
0000
1000
0200
,
0000
1300
0100
0010
0001
0100
0110
0000
,
1002
0103
0102
1003
,
2001
3010
1200
0301
,
0001
0100
1000
0000
0001
0010
0100
0000
,
0010
0000
0001
0000
1000
0000
0001
0100
,
0020
2030
3200
0310
,
0220
0000
0000
0000
0330
0001
1000
0000
,
0101
0000
1001
0000
1010
0000
1000
0002
,
0000
2003
0000
3200
0000
0310
0010
0100
,
1000
0001
1000
0001
0010
0000
0001
0200
,
0000
0302
0000
1003
0100
1000
1000
0001
,
0100
0010
0100
0001
0010
0100
1000
0002
,
0000
1003
0100
0020
0000
0031
0100
0001
,
1000
1100
0000
1001
0000
0011
0000
0101
,
0000
1001
0000
1010
0000
0001
0010
0200
,
0000
0300
1002
0000
0013
0100
1000
0200
,
0000
2300
0000
3020
0000
0130
0001
0010
,
0001
1000
0001
1000
0100
1000
0010
0200
,
0000
0302
0000
2003
0000
3001
0100
0010
,
0100
0001
1000
0010
1000
0100
1000
0001
,
0100
0010
0100
0001
0000
1000
0100
0010
,
0200
1000
0300
0100
0020
0001
0030
0010
,
0200
0000
0000
0000
2300
0000
0000
0000
3001
0000
0000
1000
0000
0000
0100
0000
,
0010
0000
0110
0000
0011
0000
0000
1001
,
0000
1100
0000
1002
0000
0000
0203
0000
,
0301
0000
1000
0100
0010
0100
1000
0001
,
0000
0100
0010
0100
0001
0010
0100
1000
,
0010
0100
0001
1000
0100
0001
0100
1000
,
0001
0100
0010
0100
0001
1000
0100
0000
,
2000
0000
3001
1000
0100
0010
0001
0100
,
0010
1000
0001
0010
0100
0000
1100
0000
,
1002
0203
0320
2030
,
3100
0000
1100
0000
1001
0001
0200
0000
,
0310
0000
0010
0000
0010
0000
0000
1000
,
0000
0001
0000
1000
0000
0001
0001
1000
,
0100
0100
1000
1000
0001
0000
0010
0010
,
0000
0001
0000
1000
0001
0010
0100
1000
,
0001
0010
0001
1000
0100
1000
0010
0100
,
0000
0010
1000
0010
0000
0100
0001
1000
,
0001
0011
0000
1001
0000
1100
0000
1001
,
0000
0110
0000
1001
0000
0010
1000
0001
,
0010
0000
0011
0000
1100
0000
0000
1010
,
0000
1001
0000
0110
0000
1000
0001
0000
,
1001
0000
0010
0001
1000
0001
0100
0010
,
0000
1000
0100
0010
0001
0000
1000
0001
,
0100
0010
0100
0010
1000
0100
1000
0100
,
1000
0001
0100
0001
1000
0010
0010
0000
,
0100
0001
0010
0100
0010
0001
1000
0100
,
1000
0001
0010
0100
1000
0001
0010
0000
,
1100
0000
0011
0000
1000
0001
0000
0101
,
0000
0001
0010
0100
1100
0000
0000
1010
,
0000
1000
0100
0010
0011
0000
0000
1001
,
0000
0001
0010
1000
0010
0001
0010
1000
,
0010
0001
0010
1000
0200
0000
0000
0300
;

//---------------dance-single - S-STANDARD----------------
#NOTES:
     dance-single:
     DJ OMiY-SSP:
     Medium:
     6:
     0.474660,0.500904,0.209233,0.200864,0.000000,348.000000,25.000000,24.000000,0.000000,0.000000,0.000000,0.474660,0.500904,0.209233,0.200864,0.000000,348.000000,25.000000,24.000000,0.000000,0.000000,0.000000:
0000
0000
0000
0000
,
0000
0000
0000
0000
,
0000
0000
0000
0000
,
0000
0000
0000
0000
,
0000
0000
0000
0000
,
1000
0001
0000
0001
0100
0000
0010
0000
,
1000
0100
1000
0000
0001
0100
0001
0000
,
0020
0032
2003
3020
,
0130
0110
2002
3003
,
0010
0000
1000
0000
0001
0000
1000
0100
,
0000
0010
0001
0000
0100
0000
0010
0000
,
1000
0100
1000
0000
0010
0100
0010
0000
,
0100
0001
0100
0000
0001
0010
0010
0000
,
0100
0000
1000
0000
0001
0000
0100
0001
,
0000
0001
1000
0000
0100
0000
1000
0000
,
0020
0000
2030
0000
3100
0010
0000
0100
,
0000
0010
0001
0010
0001
0000
0000
0000
,
1001
0000
1000
0000
0001
0000
0100
0010
,
0000
0000
1000
0000
0001
0000
0010
0001
,
0000
1000
0000
0100
0000
0010
0000
0001
,
0000
0100
0000
0010
1000
0000
1000
0000
,
0001
0100
0001
0000
1000
0000
0010
0100
,
0000
0001
0000
1000
0000
1000
0010
0000
,
0100
0101
1100
0101
,
2002
0000
3003
0100
,
0010
1000
0001
0000
1000
0000
0100
1000
,
0000
0001
0000
0100
0000
0010
1000
0010
,
0000
1000
0000
1000
0000
0001
0000
0010
,
0000
0100
0000
1000
0001
0000
0100
0000
,
0010
0000
0000
0100
0010
0000
1000
0000
,
0001
0000
0000
0100
0001
0100
0000
0010
,
0100
0000
0000
0001
1000
0000
1000
0200
,
0000
0000
0310
1001
,
1000
0100
0010
0001
,
0100
0000
0010
0000
0100
0000
0001
1000
,
0001
0100
0010
0100
,
0001
0000
1000
0000
0100
0000
1000
0100
,
0020
0032
0023
0230
,
1300
0000
0000
0110
,
1001
0000
0001
0000
0100
0000
0000
0010
,
0000
1000
0000
0001
0000
0000
1000
0000
,
0001
0100
0001
0000
1000
0000
0100
1000
,
0000
0001
0000
0100
0000
0000
0020
0000
,
1030
0000
0001
0000
0010
0000
0100
1000
,
0001
0000
0100
0010
0000
0000
1001
0000
,
0001
0100
0000
0010
0000
1000
0000
0100
,
0000
0010
0000
0001
0000
1000
0002
0000
,
0003
0000
0110
0000
1000
0000
0000
0100
,
0000
1000
0000
0001
0000
0000
0010
0000
,
0001
0000
1000
0000
0010
0000
0100
0010
,
0000
1000
0000
0100
0000
0000
2000
0000
,
3001
0000
1000
0010
0100
0000
0001
0000
,
1000
0000
0001
0010
0000
0000
0001
0000
,
1000
0100
0000
0000
0001
0100
0000
0000
,
1000
0001
0200
0300
,
0110
0000
1001
0000
0110
0000
0000
0001
,
0000
1000
0000
0002
0000
0000
0003
0000
,
1001
0000
1000
0000
0100
0000
1000
0001
,
0000
0010
0100
0010
,
0001
0100
0001
0000
1000
0100
1000
0000
,
0010
0100
0010
0110
,
1000
0100
0010
0001
,
0100
0000
0010
1000
0001
0000
0101
0000
,
1000
1000
0100
0100
,
0110
0110
0011
2000
,
3100
0000
0100
0000
0100
0000
0000
0010
,
0000
0010
0000
0010
0000
0001
1000
0000
,
0001
0010
0001
0010
0001
0000
1000
0100
,
0000
1000
0000
0100
2000
0000
3002
0000
,
0103
0000
0010
0000
1000
0000
0001
0010
,
0000
0001
0000
1000
0000
0000
0100
0000
,
1000
0001
0000
0100
0000
0010
0000
1000
,
0000
0001
0000
0010
0000
0100
1000
0000
,
0100
0000
0100
0000
0100
0000
0000
1100
,
0000
1001
0000
0101
0000
0000
0020
0000
,
0130
0000
0001
0000
1000
0000
0010
1000
,
0000
1000
0001
0000
0010
0000
0001
0000
,
1000
0100
1000
0000
0010
0100
0010
0000
,
0100
0001
0100
0000
0001
0000
1001
0000
,
0010
0000
0100
0000
1000
0000
0001
0100
,
0000
0100
0010
0000
1000
0000
0001
0000
,
1000
0000
0100
0000
0010
0000
0000
0001
,
0000
1000
0001
0000
0100
0000
0000
0010
,
0000
0100
0010
0000
1000
0000
0000
0001
,
0000
0100
0001
0000
1000
0100
1000
0000
,
0010
0100
0010
0100
0001
0000
0000
0000
;

//---------------dance-single - S-LIGHT----------------
#NOTES:
     dance-single:
     DJ OMiY-LSP:
     Easy:
     3:
     0.285753,0.357788,0.092063,0.225972,0.000000,201.000000,11.000000,27.000000,0.000000,0.000000,0.000000,0.285753,0.357788,0.092063,0.225972,0.000000,201.000000,11.000000,27.000000,0.000000,0.000000,0.000000:
0000
0000
0000
0000
,
0000
0000
0000
0000
,
0000
0000
0000
0000
,
0000
0000
0000
0000
,
0000
0000
0000
0000
,
1000
0000
0100
0000
,
0001
0000
0100
0000
,
1000
0001
1000
0001
,
0100
0100
0100
0000
,
0110
0000
1000
0000
,
0001
0100
0001
0000
,
1000
0000
0100
0000
,
0010
0000
0001
1000
,
0010
0000
0100
0000
,
0010
1000
0001
0000
,
2000
0000
3002
0000
,
0103
0010
0100
0000
,
1001
0000
0001
0000
,
0100
0000
0010
1000
,
0000
0001
0000
0010
,
0000
0001
1000
0001
,
0000
0100
0010
0000
,
1000
0000
0100
1000
,
0000
0100
0100
0100
,
0010
0000
0002
0000
,
0013
0001
1000
0000
,
0010
0000
1000
0001
,
0000
0010
0000
0100
,
0000
1000
0001
0000
,
0200
0000
0320
1000
,
2030
0000
3200
0000
,
0310
0000
0001
0000
,
0200
0000
0300
0010
,
0100
0000
0001
0000
,
1000
0000
0010
0000
,
0200
0000
0000
0000
,
0302
0000
1000
0000
,
0023
0000
0000
0000
,
0130
0000
0000
1000
,
0001
0000
0100
0000
,
0010
0100
0001
0000
,
1000
1000
0100
0000
,
0100
0100
0010
0000
,
0001
0000
1000
0000
,
0010
0100
0010
0000
,
2000
0001
0001
3001
,
0001
0100
0000
0110
,
0000
1001
0001
0000
,
0100
0010
1000
0000
,
0001
0000
0010
0000
,
0001
1000
0100
0000
,
1000
0000
0001
0000
,
0010
0100
1000
0000
,
0010
0000
0010
0000
,
0100
0010
0100
0000
,
0001
0001
1000
0000
,
2002
0000
3003
0000
,
0010
0000
0100
0000
,
0001
1000
0001
0000
,
1000
0000
0100
0000
,
0010
0100
1000
0001
,
0100
0000
0010
0000
,
2000
0000
3001
0100
,
0020
0000
2030
0000
,
3001
1000
1001
0000
,
0010
0010
0010
0000
,
1000
0001
1000
0000
,
0100
0100
0010
0000
,
0100
1000
0100
0000
,
0010
0000
0001
0000
,
1000
0000
0001
0000
,
0020
0100
0100
0130
,
0010
0001
1000
0000
,
0010
0100
0010
0000
,
2002
0000
0000
3003
,
1001
0000
1000
0000
,
0010
0100
0010
0000
,
2000
0000
3002
0000
,
0013
0001
0100
0000
,
0010
0000
0100
0000
,
0001
0010
0100
0000
,
2000
0000
0000
0000
0000
0000
0000
3000
,
0000
0000
0001
0000
0202
0000
0000
0303
,
0000
0000
1000
0000
2020
0000
0000
3030
,
0000
1000
0100
0010
,
0001
0100
1001
0000
;

//---------------dance-single - BEGINNER----------------
#NOTES:
     dance-single:
     DJ OMiY-BEG:
     Beginner:
     1:
     0.135105,0.178894,0.033477,0.167386,0.000000,89.000000,4.000000,20.000000,0.000000,0.000000,0.000000,0.135105,0.178894,0.033477,0.167386,0.000000,89.000000,4.000000,20.000000,0.000000,0.000000,0.000000:
0000
0000
0000
0000
,
0000
0000
0000
0000
,
0000
0000
0000
0000
,
0000
0000
0000
0000
,
0000
0000
0000
0000
,
1000
0000
0000
0000
,
0001
0000
0000
0000
,
0020
0000
0030
0000
,
0001
0001
0001
0000
,
1000
0000
0000
0000
,
0010
0000
0000
0000
,
0100
0000
0000
0000
,
0010
0000
0000
0000
,
1000
0000
0000
0000
,
0001
0000
0000
0000
,
0100
0000
0100
0000
,
0020
0000
0030
0000
,
1001
0000
0000
0000
,
1000
0000
0000
0000
,
0100
0000
0100
0000
,
0100
0000
0000
0000
,
0010
0000
0000
0000
,
0001
0000
0000
0000
,
1000
0000
0000
0000
,
0020
0000
0030
0000
,
0100
0000
0000
0000
,
0001
0000
0000
0000
,
1000
0000
1000
0000
,
1000
0000
0000
0000
,
0020
0000
0000
0000
,
0030
0000
0000
0000
,
0200
0000
0000
0000
0000
0000
0000
0300
,
0000
0000
0000
0001
,
0001
0000
0000
0000
,
0010
0000
0000
0000
,
0100
0000
0000
0000
,
1000
0000
0000
0000
,
2002
0000
0000
0000
,
3003
0000
0000
0000
,
0110
0000
0000
0000
,
1000
0000
0000
0000
,
0001
0000
0100
0000
,
0001
0000
0000
0000
,
0010
0000
0000
0000
,
0100
0000
0000
0000
,
2000
0000
3000
0000
,
0200
0000
0300
0000
,
0110
0000
0000
0000
,
0001
0000
0000
0000
,
1000
0000
0010
0000
,
1000
0000
0000
0000
,
0001
0000
0000
0000
,
0010
0000
0000
0000
,
0002
0000
0003
0000
,
0200
0000
0300
0000
,
0020
0000
0000
0000
,
0000
0000
0030
0000
,
1000
0000
0000
0000
,
0100
0000
0000
0000
,
1000
0000
0000
0000
,
0001
0000
0000
0000
,
0010
0000
0000
0000
,
0200
0000
0300
0000
,
0010
0000
0000
0000
,
0001
0001
0001
0000
,
0002
0000
0000
0000
,
0003
0000
0000
0000
,
2000
0000
0000
0000
,
3000
0000
0000
0000
,
0100
0000
0000
0000
,
1000
0000
0000
0000
,
0010
0000
0100
0000
,
0010
0000
0000
0000
,
0200
0000
0300
0000
,
0002
0000
0003
0000
,
1000
0000
0000
0000
,
0001
0000
0000
0000
,
0010
0000
0100
0000
,
0010
0000
0000
0000
,
0100
0000
0000
0000
,
1000
0000
0000
0000
,
0002
0000
0000
0000
0000
0000
0000
0003
,
0000
0000
0000
0000
0200
0000
0000
0300
,
0000
0000
0000
0000
0020
0000
0000
0030
,
0000
0000
1000
0000
,
1000
1000
1000
0000
;

//---------------dance-double - D-HEAVY----------------
#NOTES:
     dance-double:
     DJ OMiY-HDP:
     Hard:
     9:
     0.717370,0.610908,0.544006,0.334773,0.000000,495.000000,65.000000,40.000000,0.000000,0.000000,0.000000,0.717370,0.610908,0.544006,0.334773,0.000000,495.000000,65.000000,40.000000,0.000000,0.000000,0.000000:
// measure 0
00000000
00000000
00000000
00000000
,  // measure 1
00000000
00000000
00000000
00000000
,  // measure 2
00000000
00000000
00000000
00000000
,  // measure 3
00000000
00000000
00000000
00000000
,  // measure 4
00000000
00000000
00000000
00000000
,  // measure 5
01000000
00010000
00000000
10000000
01000000
10000000
00100000
01000000
,  // measure 6
00010000
00100000
00001000
00010000
00000100
00001000
00000001
00000000
,  // measure 7
00000020
00000230
00002300
00003100
,  // measure 8
00010100
00000000
00011000
00000000
00101000
01000000
10000000
00000000
,  // measure 9
10010000
00000000
01010000
00000000
00100000
00001000
00010000
00000200
,  // measure 10
00000000
00000310
00000001
00000100
00001000
00000100
00000010
00000000
,  // measure 11
00001000
00000100
00001000
00000100
00000001
00000100
00000001
00000100
,  // measure 12
00001000
00000100
00010000
00001000
00100000
01000000
00100000
00000000
,  // measure 13
00110000
00000000
10010000
00000000
10000000
00100000
01000000
00020000
,  // measure 14
00000000
00130000
00001000
00010000
00001000
00000100
00000100
00000010
,  // measure 15
00002000
00000000
00003002
00000000
00000013
00000001
00000100
00000110
,  // measure 16
00000000
00000010
00010000
00001000
00101000
00000000
00000000
00000000
,  // measure 17
00011000
00000000
00001000
00010000
00001000
00100000
00010000
01000000
,  // measure 18
00000000
10000000
01000000
00010000
10000000
01000000
00010000
00001000
,  // measure 19
00010000
00000100
00000010
00000001
00000000
00000001
00000010
00001000
,  // measure 20
00000000
00001000
00000010
00000001
00000100
00001000
00010000
00100000
,  // measure 21
01000000
00100000
10000000
01000000
00100000
00010000
00100000
00002000
,  // measure 22
00000000
00023000
00000000
00030100
00001000
00000010
00000100
00001000
,  // measure 23
00000100
00000101
00000011
00001010
,  // measure 24
00011000
00000000
00000000
00000000
00100000
00000000
00010000
10000000
,  // measure 25
01000000
10000000
00010000
00100000
01000000
00100000
00001000
00010000
,  // measure 26
00000100
00000010
00000100
00001000
00000001
00000100
00000010
00010000
,  // measure 27
00001000
00100000
00010000
01000000
00000000
00100000
10000000
01000000
,  // measure 28
00000000
00100000
00010000
00001000
00000100
00000000
00000010
00000000
,  // measure 29
00000011
00000000
00000000
00000001
00001000
00000000
00001100
00000000
,  // measure 30
00000100
00000000
00010000
00001000
00010000
00010000
00000000
00001000
,  // measure 31
00100000
00000000
00010000
10000000
00010000
00000000
01000000
00200000
,  // measure 32
00000000
10300000
00100000
00000000
01000000
00100000
01100000
00000000
,  // measure 33
10000000
01000000
00100000
00010000
00100000
00001000
00010000
00000010
,  // measure 34
00000100
00000001
00000010
00001000
00000010
00000001
00001000
00000100
,  // measure 35
00020000
00000000
00031000
00000010
00000002
00000000
00000103
00000010
,  // measure 36
00002000
00000000
00003100
00010000
00002000
00000000
00103000
01000000
,  // measure 37
10000000
11000000
01010000
00011000
,  // measure 38
00202000
00000000
00000000
00000000
00303000
00010000
00000100
00000000
,  // measure 39
00001100
00000000
00000011
00000000
00001100
00000000
00000001
00000200
,  // measure 40
00000000
00000320
00000000
00020030
00000000
00031000
00010000
00100000
,  // measure 41
01000000
00100000
01000000
00100000
10000000
01000000
00100000
00002000
,  // measure 42
00000000
00023000
00000000
00030100
00001000
00000001
00000001
00000010
,  // measure 43
00000100
00001000
00000100
00010000
00001000
00010000
00001000
00100000
,  // measure 44
01000000
00100000
00010000
10000000
01000000
00000000
10000000
00100000
,  // measure 45
01000000
01010000
00000000
00110000
00000000
00101000
00000000
00010100
,  // measure 46
00000000
00001100
00000000
00001001
00000000
00000010
00000001
00000100
,  // measure 47
00000000
00000000
00011000
00000000
00010000
01000000
10000000
00020000
,  // measure 48
00000000
00230000
00000000
00302000
00000000
01003000
00010000
00100000
,  // measure 49
00001000
00010000
00000100
00000010
00000100
00001000
00000100
00020000
,  // measure 50
00000000
00032000
00000000
02003000
00000000
03100000
10000000
01000000
,  // measure 51
00100000
00010000
01000000
00100000
01000000
00000000
00010000
00100000
,  // measure 52
00001000
00010000
00000010
00000100
00000000
00000100
00000001
00001000
,  // measure 53
00000100
00001100
00000000
00010100
00000000
00011000
00000000
01001000
,  // measure 54
00000000
10010000
00000000
01100000
00000000
10010000
00000000
10000000
,  // measure 55
02000000
00000000
03200000
00000000
00320000
00000000
00030000
00110000
,  // measure 56
00000000
00011000
00000000
00001100
00000000
00000000
00002000
00000000
,  // measure 57
00003001
00000010
00000100
00000010
00000001
00001000
00000100
00010000
,  // measure 58
00001000
00100000
01000000
00100000
01000000
10000000
00010000
01000000
,  // measure 59
00100000
10000000
00100000
10000000
00100000
00010000
00100000
00010000
,  // measure 60
00100000
01000000
00001000
00010000
00000100
00001000
00001100
00000000
,  // measure 61
00000011
00000001
00001000
00000100
00010000
00001000
01000000
00100000
,  // measure 62
01000000
10000000
01000000
00010000
10000000
00000000
10010000
00000000
,  // measure 63
00200000
00302000
00023000
00030200
,  // measure 64
00001300
00000000
00000011
00000000
00001100
00000001
00000200
00000000
,  // measure 65
00000310
00000000
00000010
00000000
00000010
00000000
00000000
00001000
,  // measure 66
00000000
00000100
00000000
00001000
00000000
00010000
00010000
00100000
,  // measure 67
01000000
10000000
01000000
10000000
00200000
00000000
01300000
01010000
,  // measure 68
00000000
00110000
00000000
10010000
00010000
00100000
01000000
10000000
,  // measure 69
00010000
00100000
00010000
01000000
00010000
00100000
00001000
00010000
,  // measure 70
00000100
00000010
00000100
00001000
00000001
00000100
00001000
00000100
,  // measure 71
00000001
00001001
00000000
00000011
00000000
00001010
00000000
00011000
,  // measure 72
00000000
00101000
00000000
01100000
00000000
10000000
01000000
00100000
,  // measure 73
00110000
00000000
01100000
00000000
11000000
00000000
00000000
10100000
,  // measure 74
00000000
01100000
00000000
01010000
00000000
00010000
00200000
00000000
,  // measure 75
00301000
00010000
00001000
00000100
00000001
00000010
00001000
00000010
,  // measure 76
00000001
00000010
00000100
00001000
00000100
00010000
00010000
00000000
,  // measure 77
00001000
00100000
00001000
00100000
01000000
00100000
01000000
00100000
,  // measure 78
00010000
10000000
00100000
01000000
00010000
10000000
10000000
00000000
,  // measure 79
01000000
00100000
00010000
00100000
01000000
00100000
00001000
00010000
,  // measure 80
00000010
00000100
00000001
00000010
00000100
00010000
00010000
00001000
,  // measure 81
00010000
00000000
00011000
00000000
00001000
00100000
00000000
00110000
,  // measure 82
00000000
00010000
10000000
00100000
00010000
00001000
00010000
00001000
,  // measure 83
00000000
00000100
00000001
00000010
00001000
00000000
00010000
00011000
,  // measure 84
00000000
00001000
00000100
00000001
00000010
00001000
00010000
01000000
,  // measure 85
10000000
00100000
00010000
00100000
20200000
00000000
00000000
30300000
;

//---------------dance-double - D-STANDARD----------------
#NOTES:
     dance-double:
     DJ OMiY-SDP:
     Medium:
     7:
     0.523680,0.500904,0.326404,0.284557,0.000000,365.000000,39.000000,34.000000,0.000000,0.000000,0.000000,0.523680,0.500904,0.326404,0.284557,0.000000,365.000000,39.000000,34.000000,0.000000,0.000000,0.000000:
// measure 0
00000000
00000000
00000000
00000000
,  // measure 1
00000000
00000000
00000000
00000000
,  // measure 2
00000000
00000000
00000000
00000000
,  // measure 3
00000000
00000000
00000000
00000000
,  // measure 4
00000000
00000000
00000000
00000000
,  // measure 5
00001000
00100000
00000000
00100000
00010000
00000000
10000000
00000000
,  // measure 6
01000000
00000000
00100000
00000000
00010000
10000000
00010000
00000000
,  // measure 7
02000000
23000000
32000000
03020000
,  // measure 8
00130000
00000000
00110000
00000000
00101000
00001000
00010000
00000000
,  // measure 9
00000100
00000000
00000010
00000000
00000001
00001000
00000001
00000100
,  // measure 10
00000000
00000010
00001000
00000000
00001100
00000000
00001000
00000000
,  // measure 11
00000100
00010000
00000100
00000000
00010000
00001000
00010000
00000000
,  // measure 12
00001000
00000000
00100000
00000000
00010000
10000000
01000000
00000000
,  // measure 13
00100000
00000000
00010000
00000000
10000000
00000000
00100000
01000000
,  // measure 14
00000000
01000000
00010000
00000000
10000000
01000000
00100000
00000000
,  // measure 15
00010000
00000000
00100000
00000000
00001000
00010000
00000000
00000100
,  // measure 16
00000000
00010000
00001000
00000000
00002200
00000000
00003300
00000000
,  // measure 17
00000101
00000001
00001000
00000000
00001000
00000100
00000010
00000000
,  // measure 18
00000001
00000000
00001000
00000000
00000100
00010000
00001000
00010000
,  // measure 19
00000000
01000000
00000000
01000000
00000000
10000000
00000000
10000000
,  // measure 20
00000000
00010000
00000000
00010000
00200000
00000000
00300000
00000000
,  // measure 21
00001000
00010000
00001000
00000000
00010000
00000000
00000100
00001000
,  // measure 22
00000000
00000001
00000000
00001000
00000000
00000010
00000100
00000000
,  // measure 23
00000001
00000000
00000020
00000000
00000230
00000000
00001300
00000100
,  // measure 24
00020000
00000000
00031000
00011000
,  // measure 25
00100000
00010000
01000000
00000000
00100000
10000000
00010000
00000000
,  // measure 26
10000000
00000000
01000000
00000000
00100000
00010000
00100000
00001000
,  // measure 27
00000000
00010000
00000000
00010000
00000000
00000100
00000000
00000100
,  // measure 28
00000000
00000010
00000000
00000010
00000002
00000000
00000003
00000000
,  // measure 29
00001001
00000000
00000000
00000001
00000100
00000000
00000110
00000000
,  // measure 30
00000010
00000000
00000000
00001000
00000100
00001000
00000000
00000100
,  // measure 31
00010000
00000000
00000000
00010000
00001000
00000000
00001000
00200000
,  // measure 32
00000000
00000000
01300000
01100000
,  // measure 33
11000000
00010000
01100000
00010000
,  // measure 34
00110000
01000000
11000000
00100000
,  // measure 35
00101000
00010000
00001000
00010000
,  // measure 36
00010100
00000000
00000100
00000000
00001000
00000000
00000001
00000010
,  // measure 37
00000200
00002300
00003200
00000302
,  // measure 38
00000203
00000000
00000000
00000000
00000300
00001000
00000100
00000000
,  // measure 39
00011000
00000000
00011000
00000000
00011000
00000000
00100000
00020000
,  // measure 40
00000000
20030000
00000000
32000000
00000000
03100000
00100000
00000000
,  // measure 41
00010000
00100000
00010000
00000000
00100000
00000000
00001000
00010000
,  // measure 42
00000000
00000100
00000000
00001000
00000000
00000000
00001001
00000000
,  // measure 43
00000001
00000100
00000001
00000000
00001000
00000100
00001000
00000100
,  // measure 44
00000000
00010000
00000000
00002000
00000000
00003000
00100000
00000000
,  // measure 45
00010000
00000000
01000000
00100000
00000000
10000000
00000000
00010000
,  // measure 46
10000000
00000000
01000000
00100000
00000000
00010000
00100000
00010000
,  // measure 47
00000000
00000000
10010000
00000000
10010000
00000000
00010000
00200000
,  // measure 48
00000000
00302000
00000000
00023000
00000000
00030100
00000100
00000000
,  // measure 49
00000010
00000100
00000010
00000000
00000001
00000000
00001000
00000001
,  // measure 50
00000000
00000100
00000000
00000010
00000000
00000000
00001000
00000000
,  // measure 51
00000100
00000000
00010000
00001000
00010000
00000000
00001000
00000000
,  // measure 52
00100000
00000000
00001000
00010000
00001000
00000000
01000000
00000000
,  // measure 53
00100000
10000000
00000000
00000000
00010000
01000000
00000000
00000000
,  // measure 54
00001000
00010000
00000100
00000010
,  // measure 55
00000001
00000000
00001001
00000000
00001001
00000000
00000000
00001000
,  // measure 56
00000000
00001100
00000000
00002200
00000000
00003300
00000000
00000000
,  // measure 57
00000100
00000000
00010000
00000000
00001000
00000000
00100000
00010000
,  // measure 58
00000000
00010000
01000000
00000000
00100000
00000000
10000000
00000000
,  // measure 59
00010000
01000000
00010000
00000000
10000000
01000000
10000000
00000000
,  // measure 60
00100000
01000000
00010000
00100000
,  // measure 61
00001000
00000000
00010000
00000000
00000100
00000000
00000010
00000001
,  // measure 62
00000000
00000010
00000100
00000000
00001000
00000000
00001001
00000000
,  // measure 63
00000020
00000230
00002300
00003200
,  // measure 64
00000310
00000011
00002002
00003003
,  // measure 65
00000001
00000000
00001000
00000000
00010000
00000000
00000000
10000000
,  // measure 66
00000000
00010000
00000000
00001000
00000000
00000100
00000100
00000000
,  // measure 67
00010000
00001000
00010000
00001000
00010000
00000000
00001000
00010000
,  // measure 68
00000000
00001000
00000000
00010000
00002000
00000000
00203000
00000000
,  // measure 69
00310000
10000000
01000000
00000000
10000000
00000000
00010000
00000000
,  // measure 70
00100000
00010000
00100000
00000000
01000000
00000000
00100000
00000000
,  // measure 71
00001000
00000000
00010000
00000100
00000000
00001000
00000000
00000001
,  // measure 72
00000010
00000000
00000010
00000001
00000000
00001000
00000100
00000000
,  // measure 73
00001100
00000000
00010100
00000000
00011000
00000000
00000000
00011000
,  // measure 74
00000000
00101000
00000000
00110000
00000000
00010000
10000000
00000000
,  // measure 75
01000000
00000000
00010000
00000000
01000000
00000000
10000000
00010000
,  // measure 76
00000000
01000000
00100000
00000000
01000000
00000000
01010000
00000000
,  // measure 77
10000000
00100000
10000000
00000000
00010000
00100000
00010000
00000000
,  // measure 78
01000000
00000000
00010000
00000000
00100000
00001000
00001000
00000000
,  // measure 79
00010000
00000000
00000100
00000000
00001000
00000000
00000010
00000100
,  // measure 80
00000000
00000010
00001000
00000000
00000001
00000000
00001010
00000000
,  // measure 81
00001000
00000000
00000100
00000000
00010000
00001000
00000000
00011000
,  // measure 82
00000000
00001000
00100000
00000000
00001000
00000000
00000000
00011000
,  // measure 83
00000000
00010000
00000100
00000000
00010000
00000000
00000000
00011000
,  // measure 84
00000000
00001000
00100000
00000000
10000000
00000000
00100000
00000000
,  // measure 85
00001000
00000100
00000001
00000000
;

//---------------dance-double - D-LIGHT----------------
#NOTES:
     dance-double:
     DJ OMiY-LDP:
     Easy:
     5:
     0.406510,0.465125,0.184125,0.284557,0.000000,284.000000,22.000000,34.000000,0.000000,0.000000,0.000000,0.406510,0.465125,0.184125,0.284557,0.000000,284.000000,22.000000,34.000000,0.000000,0.000000,0.000000:
// measure 0
00000000
00000000
00000000
00000000
,  // measure 1
00000000
00000000
00000000
00000000
,  // measure 2
00000000
00000000
00000000
00000000
,  // measure 3
00000000
00000000
00000000
00000000
,  // measure 4
00000000
00000000
00000000
00000000
,  // measure 5
00001000
00010000
00000000
00010000
00001000
00000000
00010000
00000000
,  // measure 6
00000100
00001000
00000100
00001000
,  // measure 7
00000001
00000001
00000100
00000100
,  // measure 8
00000110
00001001
00000110
00001000
,  // measure 9
00000100
00000000
00010000
00000000
00001000
00000000
00100000
00010000
,  // measure 10
00000000
00100000
00010000
00000000
01000000
00000000
00100000
00000000
,  // measure 11
20000000
32000000
03200000
00320000
,  // measure 12
00230000
00000000
00000000
00000000
00300000
01000000
00100000
00000000
,  // measure 13
00010000
00000000
00100000
00000000
00001000
00000000
00010000
00000100
,  // measure 14
00000000
00010000
00000100
00000000
00001000
00000000
00000001
00000000
,  // measure 15
00000020
00000000
00000000
00000000
00000000
00000000
00000000
00000130
,  // measure 16
00000000
00001000
00000100
00000000
00001100
00000000
00000000
00000000
,  // measure 17
00000100
00010000
00000100
00001000
,  // measure 18
00000001
00000010
00000100
00001000
,  // measure 19
00000200
00000000
00020300
00000000
,  // measure 20
00031000
01000000
00100000
01000000
,  // measure 21
00010000
10000000
01000000
00100000
,  // measure 22
00010000
10000000
00100000
00010000
,  // measure 23
00200000
02300000
03002000
00023000
,  // measure 24
00030100
00000000
00000000
00000000
00001000
00000100
00001000
00000000
,  // measure 25
00001001
00000010
00000001
00001000
,  // measure 26
00000100
00001000
00000010
00000100
,  // measure 27
00000020
00000000
00002030
00000000
,  // measure 28
00003100
00000000
00010000
00001000
00010000
00000000
00001000
00000000
,  // measure 29
00100000
00000000
00000000
00010000
00100000
00000000
00000000
00000000
,  // measure 30
01000000
00000000
00000000
10000000
01000000
00000000
00000000
00000000
,  // measure 31
10000000
00000000
00000000
00010000
00100000
00000000
00000000
00002000
,  // measure 32
00000000
00000000
00003000
00011000
,  // measure 33
00010100
00000000
00001100
00000000
,  // measure 34
00000110
00000000
00000011
00000000
,  // measure 35
00001001
00001000
00000100
00000000
,  // measure 36
00010000
00000000
00001000
00000000
00100000
00000000
00010000
10000000
,  // measure 37
00020000
00230000
02300000
23000000
,  // measure 38
00020000
00000000
30030000
01100000
,  // measure 39
10010000
00000000
10000000
00000000
01000000
00000000
00000000
00100000
,  // measure 40
00000000
00100000
00000000
00100000
00000000
00000000
00010000
00000000
,  // measure 41
00100000
00000000
00001000
00000000
00010000
00000000
00000000
00000100
,  // measure 42
00000000
00000100
00000000
00000100
00000000
00000000
00001100
00000000
,  // measure 43
00001000
00000001
00001000
00000100
,  // measure 44
00010000
00001000
00100000
00010000
,  // measure 45
10000000
00000000
00000000
00010000
00000000
01000000
00000000
00000000
,  // measure 46
00200000
00000000
00000000
10300000
00000000
00000000
00010000
00000000
,  // measure 47
00000000
00000000
10010000
00000000
00010000
00000000
00000000
00100000
,  // measure 48
00000000
00100000
00000000
00100000
00000000
00000000
00001000
00000000
,  // measure 49
00010000
00000000
00000100
00000000
00001000
00000000
00000000
00000001
,  // measure 50
00000000
00000001
00000000
00000001
00000000
00000000
00000010
00000000
,  // measure 51
00000100
00001000
00000100
00000000
,  // measure 52
00010000
00001000
00010000
00000000
,  // measure 53
00001000
00100000
01000000
10000000
,  // measure 54
01000000
00100000
00001000
00010000
,  // measure 55
00000100
00000000
00000100
00000000
00000100
00000000
00000000
00000010
,  // measure 56
00000000
00000010
00000000
00000220
00000000
00000000
00000330
00000000
,  // measure 57
00000001
00000000
00000100
00000000
00000010
00000000
00001000
00000100
,  // measure 58
00000000
00001000
00000100
00000000
00010000
00000000
00001000
00000000
,  // measure 59
00100000
00100000
01000000
01000000
,  // measure 60
20000000
00010000
00010000
30010000
,  // measure 61
01000000
00100000
10000000
01000000
,  // measure 62
00100000
00000000
00001000
00010000
00002000
00000000
00003000
00000000
,  // measure 63
00010000
00000000
00001000
00000000
,  // measure 64
00000100
00000100
00000100
00000000
,  // measure 65
00001002
00000000
00000000
00000000
00000020
00000000
00000000
00000033
,  // measure 66
00000000
00000000
00000000
00000000
00000000
00000100
00001000
00000000
,  // measure 67
00000100
00000000
00000100
00000000
00010000
00000000
00000000
00001000
,  // measure 68
00000000
00010000
00000000
00002000
00000000
00000000
00003000
00000000
,  // measure 69
00100000
00010000
00100000
01000000
,  // measure 70
01000000
10000000
00010000
01000000
,  // measure 71
00010000
00000000
00000000
00100000
00000000
00001000
00000000
00000000
,  // measure 72
00020000
00000000
00000000
00030100
00000000
00000000
00001000
00000000
,  // measure 73
00001001
00000000
00000110
00000000
00001001
00000000
00000000
00000100
,  // measure 74
00000000
00000010
00000000
00000200
00000000
00000000
00000310
00000000
,  // measure 75
00001000
00000100
00010000
00001000
,  // measure 76
00100000
00010000
01000000
00100000
,  // measure 77
10000000
10000000
00010000
00010000
,  // measure 78
00200000
00000000
00000000
00000000
00300000
01000000
10000000
00000000
,  // measure 79
00010000
00100000
00001000
00010000
,  // measure 80
00000100
00000010
00000001
00001000
,  // measure 81
00000010
00000000
00000010
00000000
00000100
00000000
00000000
00000002
,  // measure 82
00000000
00000000
00001003
00000000
00001100
00000000
00000000
00002000
,  // measure 83
00000000
00000000
00003100
00000000
00010100
00000000
00000000
00020000
,  // measure 84
00000000
00031000
00010000
00001000
,  // measure 85
00010000
00001000
00010000
00001000
00010000
00000000
00000000
00000000
;
