#VERSION:0.82;
#TITLE:DESIRE;
#SUBTITLE:;
#ARTIST:GUHROOVY fw. M-Project;
#TITLETRANSLIT:;
#SUBTITLETRANSLIT:;
#ARTISTTRANSLIT:;
#GENRE:UK Hardcore;
#ORIGIN:;
#CREDIT:;
#BANNER:DESIRE-bn.png;
#BACKGROUND:DESIRE-bg.png;
#PREVIEWVID:;
#JACKET:DESIRE-jk.png;
#CDIMAGE:;
#DISCIMAGE:;
#LYRICSPATH:;
#CDTITLE:;
#MUSIC:DESIRE.mp3;
#OFFSET:0.600000;
#SAMPLESTART:11.723000;
#SAMPLELENGTH:10.971000;
#SELECTABLE:YES;
#DISPLAYBPM:175.000000;
#BPMS:0.000=175.000,
67.000=350.000,
68.000=175.000,
83.000=350.000,
84.000=175.000,
91.000=350.000,
92.000=175.000,
256.000=700.000,
258.000=350.000,
259.000=175.000,
259.500=87.500,
259.750=43.750,
259.875=21.875,
259.938=10.938,
260.000=175.000;
#STOPS:67.000=0.171,
83.000=0.085,
83.500=0.085,
91.000=0.171;
#DELAYS:;
#WARPS:;
#TIMESIGNATURES:0.000=4=4;
#TICKCOUNTS:0.000=4;
#COMBOS:0.000=1;
#SPEEDS:0.000=1.000=0.000=0;
#SCROLLS:0.000=1.000;
#FAKES:;
#LABELS:0.000=Song Start;
#LASTSECONDHINT:114.235001;
#BGCHANGES:;
#KEYSOUNDS:;
#ATTACKS:
;

//---------------dance-single - S-HEAVY----------------
#NOTEDATA:;
#CHARTNAME:DJ OMiY-HSP;
#STEPSTYPE:dance-single;
#DESCRIPTION:S-HEAVY;
#CHARTSTYLE:;
#DIFFICULTY:Hard;
#METER:8;
#RADARVALUES:0.561641,0.516637,0.226816,0.226816,0.075605,414.000000,27.000000,27.000000,0.000000,0.000000,0.000000,0.000000,0.000000,0.561641,0.516637,0.226816,0.226816,0.075605,414.000000,27.000000,27.000000,0.000000,0.000000,0.000000,0.000000,0.000000;
#CREDIT:DJ OMiY;
#DISPLAYBPM:0.000000:175.000000;
#NOTES:
0000
0000
0000
0000
,
0000
0000
0000
0000
,
0000
0000
0000
0000
,
0000
0000
0000
0000
,
0000
0000
0000
0000
,
1000
0000
0001
0100
0000
0000
0010
0000
0100
0000
0001
0000
0010
0000
0000
0000
,
0001
1100
1000
0101
,
1000
0100
1000
0020
0000
0130
0010
0100
,
0001
1000
0001
0000
2000
0000
0000
3100
,
1000
0001
1000
0100
0010
0001
0011
0000
,
0010
0000
0001
1000
0001
0100
0100
0000
,
0010
1000
0010
0100
0001
1000
1001
0000
,
1000
0000
0100
1000
0001
0100
0001
0000
,
0010
0001
0010
0100
1000
0001
1001
0000
,
0001
0000
0010
0001
0100
0001
1000
0000
,
0010
0100
0001
0010
0001
1000
0010
0000
,
0100
0001
0010
0100
1000
0100
0020
0000
,
0031
0000
1000
0100
1000
0001
0010
0000
,
0001
0100
1000
0100
0001
0000
0110
0000
,
1000
0001
1000
0010
0100
0001
0010
0000
,
0001
0000
1000
0010
0110
0000
0001
0001
,
0100
0000
0010
1000
0100
0010
0001
0000
,
1000
0100
1000
0001
0010
0000
0210
0000
,
0310
0000
0100
1000
0001
0100
0001
0000
,
1000
0000
0000
0100
0000
0000
1000
0000
0001
0000
0000
0100
0000
0000
0001
0000
,
1000
0100
0000
1000
0001
1000
0000
0000
,
0001
0100
0000
0001
0010
0001
0000
0000
,
0100
0010
0000
1000
0001
1000
0000
0000
,
0001
0010
0000
0001
0100
0001
0000
0000
,
1000
0100
0000
0010
0100
0010
0000
0000
,
0001
0100
0000
0010
0100
0010
0000
0000
,
1000
0001
0000
0100
0001
0100
0000
0000
,
0001
0000
1000
0000
0000
0000
0010
0000
1000
0000
0000
0001
0000
0000
0100
0000
,
0001
0000
1000
0100
1000
0010
0000
0010
,
0100
0001
0000
1000
0001
1000
0000
0000
,
0100
0000
1000
0100
0010
0001
0000
0001
,
0100
0001
0000
1000
0010
1000
0000
0000
,
0001
0000
0100
0001
0100
0010
0000
1000
,
0100
0010
0000
0100
0010
0001
0000
0000
,
0010
0000
0100
1000
0001
0010
0000
0001
,
0200
0000
0000
0000
0000
0310
0100
0010
,
1010
0000
0000
0000
1000
0001
0000
0000
0100
0000
0000
0010
0000
0000
1000
0000
,
0100
0000
0000
0000
0010
0001
0000
0000
0100
0000
0000
0010
0000
0000
1000
0000
,
0001
0000
0000
0000
0010
0100
0000
0000
1000
0000
0000
0001
0000
0000
0100
0000
,
0010
0000
0000
0000
1000
0001
0000
0000
0100
0000
0000
0010
0000
0000
1000
0000
,
0001
0000
0010
0000
0001
1000
0000
0000
0001
0000
0000
0100
0000
0000
0001
0000
,
0010
0000
0100
0000
1000
0100
0000
0000
1000
0000
0000
0001
0000
0000
0100
0000
,
0010
0000
0100
0000
0001
0100
0000
0000
0010
0000
0000
1000
0000
0000
0001
0000
,
0010
0100
0000
0010
0001
0000
2000
0000
,
3100
0010
0210
1300
,
0001
0100
0002
0000
0020
0000
0003
0000
,
0001
0100
0001
0130
,
1000
0000
0010
0000
0100
0001
1000
0100
,
0020
0031
0102
1003
,
1000
0010
2000
0000
0200
0000
3000
0000
,
1000
0010
1000
0310
,
0100
1000
0000
0001
0100
0010
0000
1000
,
2002
0000
0000
3003
,
0220
0000
0000
0330
,
0202
0000
0000
0303
,
2200
0000
0000
3300
,
1010
0000
0011
0000
,
1100
0000
0101
0000
,
0110
1001
0110
1001
,
0020
0000
0000
0000
,
1030
0001
0000
0001
1000
0010
0000
0100
,
0110
0000
1000
0001
0010
0000
0001
0100
,
0010
0000
1000
0100
0010
0000
0100
0010
,
0001
0000
0001
1000
0010
0000
0100
0010
,
0100
0000
0001
0010
0100
1000
0001
0100
,
0101
0000
1000
0010
0100
0000
0001
0010
,
0100
0000
1000
0001
0100
0000
0010
1000
,
0100
0000
0010
0001
1000
0000
1000
0010
,
0001
0010
0100
0001
0020
0000
0100
0000
,
0031
1000
0001
0000
1000
0100
1000
0000
,
0010
0100
0002
0000
2003
0000
3100
0000
,
0010
0100
1000
0100
0010
0001
0100
0001
,
1000
0010
0100
0001
0010
0000
0110
0000
,
1000
0001
0010
0000
0001
0010
0100
0000
,
0010
0100
2000
0000
3002
0000
0013
0000
,
0001
0100
1000
0100
0001
0100
0010
1000
,
0001
0010
0000
0100
1000
0010
0000
1000
,
1001
0000
0000
0000
;

//---------------dance-single - S-STANDARD----------------
#NOTEDATA:;
#CHARTNAME:DJ OMiY-SSP;
#STEPSTYPE:dance-single;
#DESCRIPTION:S-STANDARD;
#CHARTSTYLE:;
#DIFFICULTY:Medium;
#METER:6;
#RADARVALUES:0.454833,0.482195,0.252018,0.193214,0.000000,326.000000,30.000000,23.000000,0.000000,0.000000,0.000000,0.000000,0.000000,0.454833,0.482195,0.252018,0.193214,0.000000,326.000000,30.000000,23.000000,0.000000,0.000000,0.000000,0.000000,0.000000;
#CREDIT:DJ OMiY;
#DISPLAYBPM:175.000000;
#NOTES:
0000
0000
0000
0000
,
0000
0000
0000
0000
,
0000
0000
0000
0000
,
0000
0000
0000
0000
,
0000
0000
0000
0000
,
1000
0000
0010
0000
0100
0010
1000
0000
,
0001
0010
0001
1000
,
0100
0000
0010
0001
1000
0010
0100
0000
,
0001
1000
0001
0000
0020
0000
0000
0000
,
0031
0000
0100
0000
0010
0100
0010
0000
,
1000
0000
0001
1000
0100
0000
1000
0000
,
0010
0000
0100
0000
0001
0010
0001
0000
,
1000
0000
0100
1000
0001
0000
0100
0000
,
0010
0000
1000
0100
0010
0000
0100
0000
,
0010
0000
0001
1000
0010
0000
0100
0000
,
0010
0000
1000
0000
0001
1000
0001
0000
,
0010
0001
0100
1001
,
0010
1000
0100
1000
,
0001
0000
0100
0010
0100
0000
0010
0000
,
1000
0000
0001
0000
1000
0010
1000
0000
,
0100
0000
1000
0000
0001
0000
0100
0010
,
0100
0000
0001
0000
1000
0001
1000
0000
,
0010
0100
0001
2000
,
3100
0000
0010
0000
0100
1000
0001
0000
,
0020
0000
0000
0031
0200
0000
0000
0310
,
1000
0001
0000
0000
1000
0001
0000
0000
,
0100
0010
0000
0000
0100
0010
0000
0000
,
1000
0100
0000
0000
1000
0100
0000
0000
,
0010
0001
0000
0000
0010
0001
0000
0000
,
0100
0110
1000
1001
,
0001
0101
0010
1001
,
1000
1100
0001
0101
,
1000
1010
0001
0011
,
1000
0000
0001
0000
0100
0010
0000
1000
,
0100
0010
0000
0000
0001
0100
0000
0000
,
0010
0000
1000
0000
0001
0100
0000
0010
,
0100
0010
0000
0000
1000
0001
0000
0000
,
1000
0000
0010
0000
1000
0001
0000
0001
,
0100
0001
0000
0000
1000
0010
0000
0000
,
0100
0000
0001
0000
0010
0001
0000
1000
,
0200
0000
0000
0000
0000
1300
0001
0000
,
1001
0000
0001
0000
0000
1000
0100
0000
,
1000
0000
1010
0000
0000
0001
1000
0000
,
0010
0000
0110
0000
0000
1000
0100
0000
,
0010
0000
0011
0000
0000
0001
1000
0000
,
0010
0000
1001
0000
0000
0001
0100
0000
,
0010
0000
1010
0000
0000
0010
0100
0000
,
0001
0000
0011
0000
0000
0100
1000
0000
,
0100
1000
0000
1000
0001
0000
0200
0000
,
0320
0000
2030
0000
,
3001
0100
0001
0000
0020
0000
0000
0000
,
0001
0001
0001
0031
,
0001
0000
1000
0000
0001
0100
0002
0000
,
2003
0000
3200
0000
,
0310
0001
1000
0000
0200
0000
0000
0000
,
1000
1000
1000
1300
,
1000
0001
0000
1000
0001
0000
0100
0000
,
0110
0000
0000
0010
,
1001
0000
0000
0100
,
1001
0000
0000
0010
,
1001
0000
0000
1000
,
1100
0000
0101
0000
,
1100
0000
0101
0000
,
1000
0000
0001
0000
1000
0001
0010
0001
,
2000
0000
0000
0000
,
3001
0100
0000
0010
1000
0000
0000
0010
,
0110
0000
0001
0000
1000
0000
0010
0100
,
0001
0000
1000
0000
0010
0000
1000
0100
,
0010
0000
0001
0000
0100
0000
0010
1000
,
0001
0000
0100
0000
0010
0100
0001
0010
,
0001
0000
1000
0000
0010
0000
1000
0100
,
1000
0000
0001
0000
0010
0000
0001
0010
,
0100
0010
0100
1000
,
0001
1000
0001
1000
0002
0000
0103
0000
,
1001
1000
2200
3300
,
1000
0100
0020
0000
0032
0000
1000
0000
,
1003
0001
0010
0100
,
1000
0010
1000
0000
0001
0100
0001
0000
,
0011
0001
0202
0303
,
0001
0010
0200
0000
2300
0000
0001
0000
,
3001
0001
0010
0001
,
1000
0100
0000
0010
0001
0000
1000
0000
,
0110
0000
0000
0000
;

//---------------dance-single - S-LIGHT----------------
#NOTEDATA:;
#CHARTNAME:DJ OMiY-LSP;
#STEPSTYPE:dance-single;
#DESCRIPTION:S-LIGHT;
#CHARTSTYLE:;
#DIFFICULTY:Easy;
#METER:4;
#RADARVALUES:0.330024,0.413310,0.184813,0.369627,0.000000,209.000000,22.000000,44.000000,0.000000,0.000000,0.000000,0.000000,0.000000,0.330024,0.413310,0.184813,0.369627,0.000000,209.000000,22.000000,44.000000,0.000000,0.000000,0.000000,0.000000,0.000000;
#CREDIT:DJ OMiY;
#DISPLAYBPM:175.000000;
#NOTES:
0000
0000
0000
0000
,
0000
0000
0000
0000
,
0000
0000
0000
0000
,
0000
0000
0000
0000
,
0000
0000
0000
0000
,
0010
1000
0001
0100
,
0000
0001
0000
1000
,
0010
0100
0020
1000
,
2030
0000
0002
3003
,
0001
0100
0001
1000
,
0100
1000
0100
0000
,
1000
0001
0100
0010
,
1000
0001
1000
0000
,
0001
0010
0100
0010
,
0001
0100
0001
0000
,
1000
0001
0010
0100
,
0010
0001
1000
0000
,
1000
0010
0100
0010
,
0100
0001
0010
0000
,
0100
0010
0001
1000
,
0100
1000
0001
0000
,
0001
0100
0010
1000
,
0001
0010
0110
0000
,
0110
1000
0001
1000
,
0020
0000
2030
0000
,
3002
0003
0020
0030
,
0002
0003
0200
0300
,
0020
0030
2000
3000
,
0002
0003
1000
0100
,
0020
0030
0200
0300
,
2000
3000
0002
0003
,
0200
0300
0002
0003
,
0010
0001
1000
0010
,
1001
0001
0100
0000
,
0020
0030
2000
3000
,
0001
1000
0100
0010
,
0002
0003
2000
3000
,
0100
1000
0001
1000
,
0020
0030
0200
0300
,
0001
1000
0100
1000
,
0002
0000
0000
0103
,
2001
0000
0010
0000
,
3002
0000
0100
0000
,
0023
0000
0001
0000
,
0230
0000
0310
0100
,
2000
0000
0001
0000
,
3020
0000
1000
0000
,
0230
0000
0001
0000
,
0301
1000
2000
3020
,
0130
0000
0110
0000
,
0001
1000
0200
0000
,
0000
1000
0000
1000
,
0000
0010
0000
0310
,
0010
0000
1001
0000
,
0001
0100
0020
0000
,
0000
0100
0000
0100
,
2000
0000
0000
3030
,
1001
0000
0000
0000
,
1001
0000
0000
0000
,
0110
0000
0000
0000
,
0110
0000
0000
0000
,
1001
0000
0110
0000
,
1001
0000
0110
0000
,
1010
0011
1010
0011
,
2002
0000
0000
0003
,
3100
0000
0010
0001
,
1001
1000
0100
0000
,
0010
0001
0100
0000
,
0001
0100
0001
0000
,
1000
0010
1000
0000
,
0001
1000
0010
0000
,
1000
0001
0010
0000
,
0001
0100
0010
1000
,
2002
0000
0000
3003
,
1000
0000
0100
0000
,
0010
0001
2000
0000
,
3001
0100
0001
0010
,
0001
1000
0100
0010
,
0001
0000
1000
0000
,
0001
0100
0002
0000
,
1003
0100
1000
0001
,
2000
0000
0000
3010
,
1001
0000
0000
0000
;

//---------------dance-single - BEGINNER----------------
#NOTEDATA:;
#CHARTNAME:DJ OMiY-BEG;
#STEPSTYPE:dance-single;
#DESCRIPTION:BEGINNER;
#CHARTSTYLE:;
#DIFFICULTY:Beginner;
#METER:1;
#RADARVALUES:0.141610,0.280580,0.084006,0.201615,0.000000,84.000000,10.000000,24.000000,0.000000,0.000000,0.000000,0.000000,0.000000,0.141610,0.280580,0.084006,0.201615,0.000000,84.000000,10.000000,24.000000,0.000000,0.000000,0.000000,0.000000,0.000000;
#CREDIT:DJ OMiY;
#DISPLAYBPM:175.000000;
#NOTES:
0000
0000
0000
0000
,
0000
0000
0000
0000
,
0000
0000
0000
0000
,
0000
0000
0000
0000
,
0000
0000
0000
0000
,
1000
0000
0000
0000
,
0001
0000
0000
0000
,
0100
0000
0100
0000
,
0020
0000
0000
0030
,
0010
0000
0000
0000
,
1000
0000
0000
0000
,
0001
0000
0000
0000
,
0010
0000
0000
0000
,
0100
0000
0000
0000
,
1000
0000
0000
0000
,
0001
0000
0000
0000
,
0100
0000
0000
0020
,
0030
0000
0000
0000
,
0100
0000
0000
0000
,
0001
0000
0000
0000
,
1000
0000
0000
0002
,
0003
0000
0000
0000
,
0010
0000
0000
0200
,
0300
0000
0000
0000
,
1000
0000
1000
0000
,
0200
0000
0300
0000
,
0020
0000
0030
0000
,
0002
0000
0003
0000
,
2000
0000
3000
0000
,
0020
0000
0030
0000
,
0200
0000
0300
0000
,
0020
0000
0030
0000
,
2000
0000
3000
0000
,
0001
0000
0001
0000
,
0000
0000
0000
0000
,
1000
0000
0100
0000
,
0000
0000
0000
0000
,
1000
0000
1000
0000
,
0000
0000
0000
0000
,
0001
0000
0010
0000
,
0200
0000
0300
0000
,
1002
0000
0000
0000
,
0003
0000
0000
0000
,
0200
0000
0000
0000
,
0300
0000
0010
0000
,
0020
0000
0000
0000
,
0030
0000
0000
0000
,
2000
0000
0000
0000
,
3000
0000
0000
0000
,
0100
0000
0100
0000
,
0010
0000
0020
0000
,
0000
0000
0000
0000
,
0000
0000
0030
0000
,
0001
0000
0001
0000
,
1000
0000
2000
0000
,
0000
0000
0000
0000
,
0000
0000
3000
0000
,
1001
0000
0000
0000
,
1001
0000
0000
0000
,
1001
0000
0000
0000
,
1001
0000
0000
0000
,
1001
0000
1001
0000
,
1001
0000
1001
0000
,
0010
0010
0010
0010
,
0020
0000
0000
0000
,
0030
0000
0100
0000
,
0110
0000
0000
0000
,
0010
0000
0000
0000
,
1000
0000
0000
0000
,
0001
0000
0000
0000
,
0010
0000
0000
0000
,
0100
0000
0000
0000
,
1000
0000
0000
0000
,
0200
0000
0300
0000
,
1000
0000
1000
0000
,
0001
0000
0002
0000
,
0000
0000
0000
0000
,
0000
0000
0003
0000
,
0010
0000
0010
0000
,
0100
0000
0200
0000
,
0000
0000
0000
0000
,
0300
0000
1000
0000
,
0002
0000
0000
0000
,
0000
0000
0003
0000
;

//---------------dance-double - D-HEAVY----------------
#NOTEDATA:;
#CHARTNAME:DJ OMiY-HDP;
#STEPSTYPE:dance-double;
#DESCRIPTION:D-HEAVY;
#CHARTSTYLE:;
#DIFFICULTY:Hard;
#METER:8;
#RADARVALUES:0.562841,0.516637,0.294021,0.302422,0.075605,398.000000,35.000000,36.000000,0.000000,0.000000,0.000000,0.000000,0.000000,0.562841,0.516637,0.294021,0.302422,0.075605,398.000000,35.000000,36.000000,0.000000,0.000000,0.000000,0.000000,0.000000;
#CREDIT:DJ OMiY;
#DISPLAYBPM:175.000000;
#NOTES:
// measure 0
00000000
00000000
00000000
00000000
,  // measure 1
00000000
00000000
00000000
00000000
,  // measure 2
00000000
00000000
00000000
00000000
,  // measure 3
00000000
00000000
00000000
00000000
,  // measure 4
00000000
00000000
00000000
00000000
,  // measure 5
10000000
00000000
01000000
10000000
00000000
00000000
00010000
00000000
00100000
00000000
00001000
00000000
01000000
00000000
00000000
00000000
,  // measure 6
00010000
00110000
00100000
00101000
,  // measure 7
00010000
00000100
00000010
00000002
00000000
00000103
00000010
00001000
,  // measure 8
00000001
00000010
00000002
00000000
00000203
00000000
00000310
00001000
,  // measure 9
00000100
00010000
00000100
00001000
00000100
00000000
00010000
00000000
,  // measure 10
00001000
00000000
00100000
00001000
00010000
00001000
01000000
00000000
,  // measure 11
00100000
00000000
10000000
01000000
00100000
00010000
00100000
00000000
,  // measure 12
00001000
00000000
00010000
00000100
00001000
00000000
00001010
00000000
,  // measure 13
00000001
00000010
00000100
00001000
00000100
00010000
00001000
00000000
,  // measure 14
00100000
00000000
00010000
00100000
10000000
00000000
00100000
00000000
,  // measure 15
00010000
01000000
00100000
10000000
00010000
00100000
00002000
00000000
,  // measure 16
00013000
00000000
00000100
00010000
00001000
00000000
00001100
00000000
,  // measure 17
00000101
00000000
00000010
00000001
00000010
00000100
00001000
00000000
,  // measure 18
00000100
00000000
00010000
00001000
00010000
00000000
00011000
00000000
,  // measure 19
00001000
00000000
00100000
00010000
01000000
00010000
10000000
00000000
,  // measure 20
00100000
00000000
01000000
00010000
10000000
00000000
00100000
00100000
,  // measure 21
01000000
00000000
00010000
10000000
01000000
00100000
00010000
00000000
,  // measure 22
00100000
00000000
00001000
00010000
00000010
00000000
00001020
00000000
,  // measure 23
00001030
00000100
00000010
00000001
00000010
00000100
00001000
00000000
,  // measure 24
00000100
00000000
00000000
00001100
00000000
00000000
00000100
00000000
00010000
00000000
00000000
00011000
00000000
00000000
00010000
00000000
,  // measure 25
01000000
10000000
00000000
00010000
01000000
00010000
00000000
00000000
,  // measure 26
00100000
00001000
00000000
00010000
00001000
00010000
00000000
00000000
,  // measure 27
00000100
00000010
00000000
00000001
00001000
00000001
00000000
00000000
,  // measure 28
00000100
00000010
00000000
00010000
00000100
00010000
00000000
00000000
,  // measure 29
00001000
00100000
00000000
00010000
01000000
10000000
00000000
00000000
,  // measure 30
01000000
00100000
00000000
10000000
01000000
00010000
00000000
00000000
,  // measure 31
00001000
00000100
00000000
00000010
00000100
00000001
00000000
00000000
,  // measure 32
00001000
00000000
00000010
00000000
00000000
00000000
00000100
00000000
00000001
00000000
00000000
00000010
00000000
00000000
00000100
00000000
,  // measure 33
00010000
00000000
00001000
00100000
00001000
01000000
00010000
00000000
,  // measure 34
10000000
01000000
00000000
00100000
00010000
00001000
00000000
00000000
,  // measure 35
00010000
00000000
01000000
00100000
01000000
00010000
00100000
00000000
,  // measure 36
00001000
00010000
00000000
00010000
00001000
00000100
00000000
00000000
,  // measure 37
00000101
00000000
00000001
00000010
00001000
00000010
00000001
00000000
,  // measure 38
00000100
00000010
00000000
00010000
00000100
00001000
00000000
00000000
,  // measure 39
00000100
00000000
00010000
00001000
00010000
00000010
00010000
00000000
,  // measure 40
00022000
00000000
00000000
00030000
00000000
00013000
01000000
10000000
,  // measure 41
10010000
00000000
00000000
00000000
00010000
00100000
00000000
00000000
00010000
00000000
00000000
10000000
00000000
00000000
01000000
00000000
,  // measure 42
00100000
00000000
00000000
00000000
00001000
00010000
00000000
00000000
00000100
00000000
00000000
00000010
00000000
00000000
00000100
00000000
,  // measure 43
00001000
00000000
00000000
00000000
00000100
00000010
00000000
00000000
00000001
00000000
00000000
00001000
00000000
00000000
00000100
00000000
,  // measure 44
00010000
00000000
00000000
00000000
00001000
00010000
00000000
00000000
00100000
00000000
00000000
01000000
00000000
00000000
00010000
00000000
,  // measure 45
10000000
00000000
01000000
00000000
00100000
00001000
00000000
00000000
00010000
00000000
00000000
00000100
00000000
00000000
00010000
00000000
,  // measure 46
00001000
00000000
00000100
00000000
00000001
00000100
00000000
00000000
00000010
00000000
00000000
00001000
00000000
00000000
00000100
00000000
,  // measure 47
00010000
00000000
00001000
00000000
00100000
00001000
00000000
00000000
00010000
00000000
00000000
00001000
00000000
00000000
01000000
00000000
,  // measure 48
00100000
10000000
00000000
00010000
00100000
00000000
20010000
00000000
,  // measure 49
30100000
10000000
00210000
00301000
,  // measure 50
00010000
00000100
00002000
00000000
00000020
00000000
00003000
00000000
,  // measure 51
00000100
00001000
00000100
00001030
,  // measure 52
00000001
00001000
00000001
00000010
00000100
00000000
00001100
00000000
,  // measure 53
00000200
00010300
00012000
01003000
,  // measure 54
00010000
00100000
20000000
00000000
00200000
00000000
30000000
00000000
,  // measure 55
00010000
01000000
00010000
01300000
,  // measure 56
10000000
01000000
00000000
00100000
00010000
00000000
00100000
00001000
,  // measure 57
00022000
00000000
00000000
00033000
,  // measure 58
00002200
00000000
00000000
00003300
,  // measure 59
00000202
00000000
00000000
00000303
,  // measure 60
00000022
00000000
00000000
00000033
,  // measure 61
00001010
00000000
00011000
00000000
,  // measure 62
00110000
00000000
10100000
00000000
,  // measure 63
10010000
00011000
00001001
00011000
,  // measure 64
20020000
00000000
00000000
30000000
,  // measure 65
10030000
00100000
00000000
00010000
00001000
00000000
00000100
00000001
,  // measure 66
00000101
00000000
00000100
00000010
00001000
00000100
00000010
00000000
,  // measure 67
00000001
00000000
00000100
00000010
00010000
00000100
00001000
00000000
,  // measure 68
00010000
00000000
01000000
00100000
01000000
00010000
10000000
00000000
,  // measure 69
01000000
00100000
00010000
00000000
00100000
00001000
00010000
00000000
,  // measure 70
00000100
00000000
00001000
00000100
00000010
00000100
00001000
00000000
,  // measure 71
00000010
00000000
00000100
00000001
00001000
00000100
00010000
00000000
,  // measure 72
00001000
00000000
00100000
01000000
00100000
00010000
00100000
00000000
,  // measure 73
00002000
00023000
00200000
00330000
,  // measure 74
10020000
01030000
20010000
30100000
,  // measure 75
01000000
00010000
00200000
00000000
00002000
00000000
00300000
00000000
,  // measure 76
00013000
00001000
00100000
00010000
01000000
00100000
01000000
00001000
,  // measure 77
00010000
00001000
00000100
00000010
00000100
00000001
00001000
00000000
,  // measure 78
00002010
00003001
00000102
00001003
,  // measure 79
00000010
00001000
00000200
00000000
00020000
00000000
00000300
00000000
,  // measure 80
00031000
00010000
00000100
00001000
00000100
00010000
00001000
00100000
,  // measure 81
01000000
10000000
00000000
01000000
00100000
00000000
00010000
00001000
,  // measure 82
00011000
00000000
00000000
00000000
;

//---------------dance-double - D-STANDARD----------------
#NOTEDATA:;
#CHARTNAME:DJ OMiY-SDP;
#STEPSTYPE:dance-double;
#DESCRIPTION:D-STANDARD;
#CHARTSTYLE:;
#DIFFICULTY:Medium;
#METER:6;
#RADARVALUES:0.446432,0.413310,0.226816,0.201615,0.008401,321.000000,27.000000,24.000000,0.000000,0.000000,0.000000,0.000000,0.000000,0.446432,0.413310,0.226816,0.201615,0.008401,321.000000,27.000000,24.000000,0.000000,0.000000,0.000000,0.000000,0.000000;
#CREDIT:DJ OMiY;
#DISPLAYBPM:175.000000;
#NOTES:
// measure 0
00000000
00000000
00000000
00000000
,  // measure 1
00000000
00000000
00000000
00000000
,  // measure 2
00000000
00000000
00000000
00000000
,  // measure 3
00000000
00000000
00000000
00000000
,  // measure 4
00000000
00000000
00000000
00000000
,  // measure 5
00001000
00000000
00010000
00000000
00000100
00001000
00000001
00000000
,  // measure 6
00000000
00001001
00000000
00001100
,  // measure 7
00000100
00000000
00010000
00001000
00000000
00001000
00100000
00000000
,  // measure 8
00010000
10000000
00020000
00000000
02000000
00030000
03000000
00010000
,  // measure 9
10000000
01000000
00100000
00100000
,  // measure 10
00001000
00000000
00010000
00001000
00010000
00000000
00000100
00000000
,  // measure 11
00000010
00000001
00001000
00001000
,  // measure 12
00000100
00000000
00010000
00001000
00010000
00000000
00011000
00000000
,  // measure 13
00100000
00010000
10000000
10000000
,  // measure 14
01000000
00000000
00100000
00010000
10000000
00000000
00100000
00000000
,  // measure 15
01000000
00010000
00010000
00100000
,  // measure 16
00001000
00000000
00010000
00000100
00010000
00000000
00002000
00000000
,  // measure 17
00013000
00000100
00000010
00000001
,  // measure 18
00000100
00000000
00000010
00001000
00000010
00000000
00000100
00000000
,  // measure 19
00000001
00000010
00000001
00000001
,  // measure 20
00001000
00000000
00000100
00000000
00010000
00000000
00001000
00010000
,  // measure 21
00001000
00100000
00010000
01000000
,  // measure 22
00100000
00000000
10000000
01000000
00100000
00000000
01200000
00000000
,  // measure 23
00310000
00000000
00100000
00000000
00001000
00010000
00000100
00000000
,  // measure 24
00001000
00000000
00000000
00000001
00000000
00000000
00001000
00000000
00000001
00000000
00000000
00001000
00000000
00000000
00000001
00000000
,  // measure 25
00000100
00000010
00000000
00000000
00001000
00000100
00000000
00000000
,  // measure 26
00010000
00001000
00000000
00000000
00100000
00010000
00000000
00000000
,  // measure 27
00010000
01000000
00000000
00000000
00100000
10000000
00000000
00000000
,  // measure 28
10000000
01000000
00000000
00000000
01000000
00100000
00000000
00000000
,  // measure 29
00100000
00001000
00000000
00000000
00010000
00000100
00000000
00000000
,  // measure 30
00001000
00000001
00000000
00000000
00000001
00000010
00000000
00000000
,  // measure 31
00000100
00001000
00000000
00000000
00010000
00100000
00000000
00000000
,  // measure 32
00001000
00010000
00000000
00000000
00010000
00001000
00000000
00000000
,  // measure 33
00010000
00000000
00000100
00000000
00001000
00000001
00001000
00000000
,  // measure 34
00000010
00000100
00000000
00000000
00000010
00000100
00000000
00000000
,  // measure 35
00000001
00000000
00000010
00000000
00000100
00010000
00001000
00000000
,  // measure 36
00100000
00010000
00000000
00000000
00100000
00010000
00000000
00000000
,  // measure 37
10000000
00000000
00010000
00000000
01000000
00100000
01000000
00000000
,  // measure 38
00010000
00100000
00000000
00000000
00010000
00100000
00000000
00000000
,  // measure 39
01000000
00000000
10000000
00000000
00010000
01000000
00010000
00000000
,  // measure 40
00200000
00000000
00000000
00301000
,  // measure 41
00011000
00000000
00010000
00000000
00000000
00000100
00001000
00000000
,  // measure 42
00000001
00000000
00000101
00000000
00000000
00000100
00000010
00000000
,  // measure 43
00001000
00000000
00001100
00000000
00000000
00000100
00010000
00000000
,  // measure 44
00002000
00000000
00203000
00320000
,  // measure 45
10030000
00000000
11000000
00000000
00000000
10000000
00010000
00000000
,  // measure 46
00100000
00000000
00101000
00000000
00000000
00001000
00010000
00000000
,  // measure 47
00000100
00000000
00001100
00000000
00000000
00001000
00000001
00000000
,  // measure 48
00000001
00000010
00000000
00000100
00001000
00000000
00000020
00000000
,  // measure 49
00000230
00000301
00000102
00000000
,  // measure 50
00001003
00000100
00002000
00000000
00000200
00000000
00003000
00000000
,  // measure 51
00010000
00010000
00010000
00010300
,  // measure 52
00000100
00000000
00010000
00000000
00001000
00000000
00100000
00010000
,  // measure 53
00100000
00010000
20020000
30030000
,  // measure 54
00010000
00100000
02000000
00000000
20000000
00000000
03000000
00000000
,  // measure 55
00010000
00010000
00010000
30010000
,  // measure 56
01000000
00010000
00000000
10000000
00100000
00000000
01000000
00000000
,  // measure 57
01010000
00000000
00000000
01000000
,  // measure 58
11000000
00000000
00000000
01000000
,  // measure 59
01010000
00000000
00000000
00010000
,  // measure 60
00110000
00000000
00000000
00100000
,  // measure 61
00101000
00000000
00011000
00000000
,  // measure 62
00001100
00000000
00000101
00000000
,  // measure 63
00001001
00000110
00001001
00000110
,  // measure 64
00002001
00000000
00000000
00000000
,  // measure 65
00003100
00010000
00000000
00001000
00100000
00000000
00010000
10000000
,  // measure 66
00100000
01000000
00010000
10000000
,  // measure 67
01000000
00000000
00100000
00000000
00001000
00000000
00010000
00000100
,  // measure 68
00001000
00000001
00000100
00000010
,  // measure 69
00001000
00000100
00001000
00000000
00000001
00000100
00000001
00000000
,  // measure 70
00001000
00000100
00010000
00001000
,  // measure 71
00100000
00010000
10000000
00000000
00100000
01000000
00001000
00000000
,  // measure 72
00010000
00000010
00000100
00000010
,  // measure 73
00001000
00000100
00001000
00000100
00000020
00000000
00000032
00000000
,  // measure 74
00001003
00000100
00001200
00010300
,  // measure 75
00000100
00001000
00000100
00000000
00020000
00000000
00031000
00000000
,  // measure 76
00100000
00010000
10000000
01000000
,  // measure 77
10000000
01000000
00100000
00000000
00010000
00100000
01000000
00000000
,  // measure 78
00100000
00010000
20010000
30100000
,  // measure 79
01000000
00010000
01000000
00000000
00002000
00000000
00013000
00000000
,  // measure 80
00000100
00001000
00000001
00000010
,  // measure 81
00000001
00000010
00000000
00000100
00001000
00000000
00010000
00000000
,  // measure 82
00100000
00000000
00000000
00000000
;

//---------------dance-double - D-LIGHT----------------
#NOTEDATA:;
#CHARTNAME:DJ OMiY-LDP;
#STEPSTYPE:dance-double;
#DESCRIPTION:D-LIGHT;
#CHARTSTYLE:;
#DIFFICULTY:Easy;
#METER:4;
#RADARVALUES:0.348025,0.413310,0.193214,0.394829,0.000000,220.000000,23.000000,47.000000,0.000000,0.000000,0.000000,0.000000,0.000000,0.348025,0.413310,0.193214,0.394829,0.000000,220.000000,23.000000,47.000000,0.000000,0.000000,0.000000,0.000000,0.000000;
#CREDIT:DJ OMiY;
#DISPLAYBPM:175.000000;
#NOTES:
// measure 0
00000000
00000000
00000000
00000000
,  // measure 1
00000000
00000000
00000000
00000000
,  // measure 2
00000000
00000000
00000000
00000000
,  // measure 3
00000000
00000000
00000000
00000000
,  // measure 4
00000000
00000000
00000000
00000000
,  // measure 5
00001000
00100000
00010000
10000000
,  // measure 6
00000000
01000000
00000000
10000000
,  // measure 7
02000000
03200000
00320000
00000000
,  // measure 8
00130000
00001000
00020000
00000000
,  // measure 9
00030100
00001000
00000100
00001000
,  // measure 10
00000001
00000010
00000001
00000000
,  // measure 11
00000100
00000010
00000100
00000010
,  // measure 12
00001000
00000000
00001100
00000000
,  // measure 13
00000100
00010000
00001000
00100000
,  // measure 14
00001000
00000000
00010000
00000000
,  // measure 15
00001000
00100000
00010000
10000000
,  // measure 16
00100000
01000000
00200000
00300000
,  // measure 17
10000000
01000000
00100000
00010000
,  // measure 18
00100000
00001000
00010000
00000000
,  // measure 19
00000100
00001000
00000010
00000100
,  // measure 20
00000010
00001000
00000002
00000003
,  // measure 21
00000010
00000001
00001000
00000100
,  // measure 22
00010000
00001000
00200000
00300000
,  // measure 23
00010000
01000000
00100000
01000000
,  // measure 24
00020000
00000000
20030000
00000000
,  // measure 25
32000000
03000000
20000000
30000000
,  // measure 26
00020000
00030000
00200000
00300000
,  // measure 27
00002000
00003000
00000200
00000300
,  // measure 28
00000002
00000003
00000020
00000030
,  // measure 29
00000002
00000003
00002000
00003000
,  // measure 30
00000200
00000300
00020000
00030000
,  // measure 31
00002000
00003000
00020000
00030000
,  // measure 32
00200000
00300000
20000000
30000000
,  // measure 33
01000000
10000000
00010000
00100000
,  // measure 34
00002000
00003000
00020000
00030000
,  // measure 35
00001000
00000100
00000010
00000100
,  // measure 36
00000002
00000003
00000020
00000030
,  // measure 37
00000100
00000010
00000100
00001000
,  // measure 38
00000200
00000300
00020000
00030000
,  // measure 39
00001000
00010000
00100000
01000000
,  // measure 40
00020000
00000000
00000000
00130000
,  // measure 41
00102000
00000000
01000000
00000000
,  // measure 42
00203000
00000000
00010000
00000000
,  // measure 43
02300000
00000000
10000000
00000000
,  // measure 44
03200000
00000000
00301000
00010000
,  // measure 45
00000200
00000000
00000010
00000000
,  // measure 46
00002300
00000000
00000001
00000000
,  // measure 47
00003020
00000000
00001000
00000000
,  // measure 48
00000230
00000000
00000301
00001000
,  // measure 49
00001001
00000000
00000110
00000000
,  // measure 50
00000001
00000010
00000210
00000000
,  // measure 51
00001000
00001000
00001000
00001300
,  // measure 52
00000100
00010000
00001000
01000000
,  // measure 53
01100000
00000000
10010000
00000000
,  // measure 54
10000000
01000000
21000000
00000000
,  // measure 55
00010000
00010000
00010000
30010000
,  // measure 56
10000000
01000000
00100000
00001000
,  // measure 57
00011000
00000000
00000000
00000000
,  // measure 58
00001100
00000000
00000000
00000000
,  // measure 59
00000101
00000000
00000000
00000000
,  // measure 60
00001001
00000000
00000000
00000000
,  // measure 61
00001100
00000000
00011000
00000000
,  // measure 62
00110000
00000000
01010000
00000000
,  // measure 63
10010000
01100000
10010000
01100000
,  // measure 64
20000000
00000000
00000000
00000000
,  // measure 65
31000000
00000000
10000000
00010000
,  // measure 66
01010000
01000000
00010000
00000000
,  // measure 67
00100000
00001000
00010000
00000000
,  // measure 68
00000100
00001000
00000001
00000000
,  // measure 69
00000010
00000001
00000100
00000010
,  // measure 70
00001000
00000100
00010000
00000000
,  // measure 71
00001000
00100000
00001000
00000000
,  // measure 72
00010000
01000000
10000000
00000000
,  // measure 73
00100000
01000000
00020000
00230000
,  // measure 74
00310000
00100000
00001000
00000000
,  // measure 75
00010000
00000100
00002000
00000000
,  // measure 76
00003100
00001000
00000100
00000010
,  // measure 77
00000001
00000100
00000010
00000110
,  // measure 78
00000100
00000001
00000010
00000000
,  // measure 79
00000100
00001000
00000200
00000000
,  // measure 80
00010300
00001000
00100000
01000000
,  // measure 81
10000000
00010000
01000000
00100000
,  // measure 82
10010000
00000000
00000000
00000000
;
