#VERSION:0.82;
#TITLE:D;
#SUBTITLE:;
#ARTIST:Eagle;
#TITLETRANSLIT:;
#SUBTITLETRANSLIT:;
#ARTISTTRANSLIT:;
#GENRE:Breakbeats Hardcore;
#ORIGIN:;
#CREDIT:;
#BANNER:D-bn.png;
#BACKGROUND:D-bg.png;
#PREVIEWVID:;
#JACKET:D-jk.png;
#CDIMAGE:;
#DISCIMAGE:;
#LYRICSPATH:;
#CDTITLE:;
#MUSIC:D.mp3;
#OFFSET:-0.419000;
#SAMPLESTART:16.399000;
#SAMPLELENGTH:16.020000;
#SELECTABLE:YES;
#DISPLAYBPM:120.000000:175.000000;
#BPMS:0.000=120.000,
68.000=130.000,
72.000=140.000,
76.000=150.000,
80.000=160.000,
82.000=170.000,
84.000=180.000,
86.000=190.000,
88.000=200.000,
89.000=210.000,
90.000=220.000,
91.000=230.000,
92.000=50.000,
96.000=175.000,
212.000=170.000,
214.000=160.000,
216.000=150.000,
218.000=140.000,
220.000=130.000,
224.000=30.000,
226.000=120.000;
#STOPS:;
#DELAYS:;
#WARPS:;
#TIMESIGNATURES:0.000=4=4;
#TICKCOUNTS:0.000=4;
#COMBOS:0.000=1;
#SPEEDS:0.000=1.000=0.000=0;
#SCROLLS:0.000=1.000;
#FAKES:;
#LABELS:0.000=Song Start;
#BGCHANGES:;
#KEYSOUNDS:;
#ATTACKS:
;

//---------------dance-single - S-HEAVY----------------
#NOTEDATA:;
#CHARTNAME:DJ OMiY-HSP;
#STEPSTYPE:dance-single;
#DESCRIPTION:S-HEAVY;
#CHARTSTYLE:;
#DIFFICULTY:Hard;
#METER:10;
#RADARVALUES:0.716720,0.835900,0.204277,0.122566,0.698626,574.000000,25.000000,15.000000,0.000000,0.000000,0.000000,0.000000,0.000000,0.716720,0.835900,0.204277,0.122566,0.698626,574.000000,25.000000,15.000000,0.000000,0.000000,0.000000,0.000000,0.000000;
#CREDIT:DJ OMiY;
#DISPLAYBPM:120.000000:175.000000;
#NOTES:
0000
0000
0000
0000
,
0000
0000
0000
0000
,
0000
0000
0000
0000
,
0000
0000
0000
0000
,
1000
0100
0010
0100
1000
0001
0000
0100
0000
0010
0100
0010
0100
0000
0001
1000
,
0001
0010
0100
0010
0001
1000
0000
0100
0000
1000
0010
1000
0010
0000
0100
0001
,
1000
0000
0000
0010
0000
0000
0100
0000
0000
0010
0000
0000
1000
0000
0000
0001
0000
0000
0000
0000
0000
1000
0000
0000
0001
0000
0000
0010
0000
0000
0100
0000
0000
1000
0000
0000
0001
0000
0000
0100
0000
0000
0010
0000
0100
0000
0001
0000
,
1000
0000
0000
0000
0000
0000
0001
0000
0000
0100
0000
0000
0000
0000
0000
0001
0000
0000
1000
0000
0000
1000
0000
0000
0010
0000
0000
0100
0000
0000
0000
0000
0000
0001
0000
0000
1000
0000
0100
0000
0010
0000
0001
0000
0010
0000
0100
0000
,
1000
0000
0001
0100
0001
0000
1000
0100
0100
0010
0100
1000
0001
0100
0001
0000
,
1000
0000
0010
0100
0010
0000
1000
0100
0000
0010
0001
1000
0001
0100
0010
0100
,
0001
0000
1000
0001
1000
0000
0100
1000
1000
0010
0100
0001
1000
0100
0010
0001
,
0010
0000
0000
0000
0000
0000
0001
0000
0000
1000
0000
0000
0001
0000
0000
1000
0000
0000
0001
0000
0000
2000
0000
0000
0010
0000
0000
0000
0000
0000
3010
0000
0000
0100
0000
0000
0001
0000
0010
0000
0001
0000
1000
0000
0000
0000
0000
0000
,
0101
0000
1000
0001
0100
0000
0001
0010
0010
0001
1000
0100
0010
0100
1000
0000
,
0010
0000
0100
0001
0100
0010
0100
0001
0100
0010
0100
0001
0200
0000
0000
0300
,
1001
0000
1000
0100
1000
0000
0010
0010
0100
0001
0010
0100
1000
0001
0100
0000
,
1010
1000
0100
1100
0000
0001
1000
0001
0100
0101
0000
0100
0020
0000
0100
0030
,
1001
0000
0001
0000
0100
0000
0010
1000
0000
0010
1000
0000
0001
0000
0100
0000
,
0101
0000
0001
0000
1000
0000
0100
0010
0000
0100
0010
0000
0002
0000
0000
0003
,
1001
0000
1000
0000
0010
0000
1000
0001
0000
1000
0001
0000
0010
0000
0001
0000
,
0101
0000
0000
0100
0000
0000
0010
0000
2000
0000
0000
0000
3001
0000
1000
0000
,
1100
0000
0000
0000
0100
0000
0010
0001
0000
0010
0001
0000
0100
0000
0000
0000
,
1001
0000
0100
0000
1001
0001
0010
0000
,
0001
0010
0100
1000
0001
0010
0100
2000
,
0002
0000
0000
0000
,
3003
0000
0000
0000
0000
0000
1000
0100
1000
0100
1000
0100
0010
0001
1000
0100
,
0010
0001
0100
0000
0001
1000
0001
0100
,
0010
0000
0000
0010
0000
0000
0100
0000
0000
0100
0000
0001
0000
0000
1000
0000
,
0001
0010
0100
0000
0010
0100
1000
0001
,
1000
0000
0000
1000
0000
0000
0001
0000
0000
0001
0000
0000
0010
0000
0001
0000
,
1000
0010
0100
0000
0010
0100
0001
1000
,
0010
0000
0000
0010
0000
0000
0100
0000
0000
0100
0000
0010
0000
0000
1000
0000
,
0100
1000
0001
0000
1000
0001
0100
0010
,
1000
0000
0000
1000
0000
0000
0001
1000
0001
1000
0001
1000
0001
0100
0001
0100
,
0010
1000
0100
0010
0001
0100
0001
1000
,
0010
0000
0000
0010
0000
0000
1000
0000
0000
1000
0000
0001
0000
0000
0010
0000
,
0100
0010
0001
0100
0001
1000
0100
0010
,
0001
0000
0000
0001
0000
0000
0100
0000
0000
0100
0000
0000
0010
0000
1000
0000
,
0001
1000
0100
0010
0100
1000
0010
1000
,
0100
0000
0000
0100
0000
0000
0010
0000
0000
0010
0000
0100
0000
0000
1000
0000
,
0100
1000
0001
0100
0010
0100
0001
1000
,
0001
0100
0001
0000
1000
0000
0001
0100
0001
0000
1000
0000
1002
0000
0000
0000
,
0013
0000
0001
0000
1000
0000
0100
0000
0010
0000
0100
0000
1000
0100
1000
0000
,
0001
0100
0010
0100
0001
1000
0100
1000
,
0001
0000
0100
0000
0010
0000
1000
0000
0001
0000
0010
0000
0001
1000
0001
0000
,
0100
0000
0100
0000
0001
0000
0100
0000
0100
0000
0001
0000
1000
0001
1000
0000
,
0100
0000
0010
0000
0100
0000
1000
0000
0001
0000
0100
0000
0001
0010
0001
0000
,
1000
0100
0010
0001
1000
0001
0010
0100
,
1000
0000
0010
0000
0100
0000
0001
0000
1000
0000
0001
0000
0010
0100
0010
0000
,
0001
0010
0001
0010
0001
0010
0000
0100
,
1100
0000
1000
0100
0010
0001
1000
0001
,
0100
0001
0000
0010
0001
1000
0010
0000
,
2000
0000
3100
0020
0000
0031
0100
0100
,
0010
1000
0001
0010
0100
1000
0002
0000
,
0103
0000
0010
1000
0001
0100
0010
0000
,
1000
0100
0010
0001
1000
0000
0110
0000
,
0002
0000
0103
0200
0000
0310
0010
2000
,
0002
0000
0000
0000
0000
0000
0000
3003
,
0001
0000
0000
1000
0000
0000
0001
0000
0000
0100
0000
0000
0000
0000
0000
0001
0000
0000
1000
0000
0000
0100
0000
0000
0010
0000
0000
0001
0000
0000
0000
0000
0000
1000
0000
0000
0001
0000
0010
0000
0100
0000
1000
0000
0100
0000
0010
0000
,
0001
0000
1000
0000
1100
0000
0001
0100
0100
0001
0100
0100
0001
1000
0100
0000
,
0010
0000
0100
0000
1001
0000
0010
0001
0001
0010
0001
0001
0100
0001
1000
0010
,
0100
0000
0010
0000
1010
0000
1000
0100
0100
1000
0100
0100
0010
0001
1000
0000
,
0001
0000
1000
0000
0001
0000
1000
0000
0000
0010
0000
0000
0100
0000
0000
0000
0000
0000
0010
0000
0000
1000
0000
0000
0001
0000
0000
0010
0000
0000
0000
0000
0000
0100
0000
0000
0010
0000
0000
0001
0000
0000
0010
0000
0000
0100
0000
0000
,
1000
0000
0001
0000
0101
0000
1000
0001
0001
1000
0001
0001
0010
0100
1000
0000
,
0001
0000
0100
0000
0110
0000
0010
1000
1000
0001
1000
1000
0100
0010
0100
1000
,
0100
0000
1000
0000
1010
0000
0010
0100
0100
0010
0100
0100
0001
1000
0100
0000
,
0011
0001
1000
1001
0000
0100
0001
1000
0100
0110
0000
0100
1000
0010
0100
0001
,
1001
0000
0000
0000
;

//---------------dance-single - S-STANDARD----------------
#NOTEDATA:;
#CHARTNAME:DJ OMiY-SSP;
#STEPSTYPE:dance-single;
#DESCRIPTION:S-STANDARD;
#CHARTSTYLE:;
#DIFFICULTY:Medium;
#METER:8;
#RADARVALUES:0.496101,0.539291,0.253303,0.106224,0.134823,381.000000,31.000000,13.000000,0.000000,0.000000,0.000000,0.000000,0.000000,0.496101,0.539291,0.253303,0.106224,0.134823,381.000000,31.000000,13.000000,0.000000,0.000000,0.000000,0.000000,0.000000;
#CREDIT:DJ OMiY;
#DISPLAYBPM:120.000000:175.000000;
#NOTES:
0000
0000
0000
0000
,
0000
0000
0000
0000
,
0000
0000
0000
0000
,
0000
0000
0000
0000
,
1000
0000
0001
0000
0100
0000
0000
0010
0000
0000
1000
0000
0001
0000
0010
0000
,
0001
0000
1000
0000
0100
0000
0000
0001
0000
0000
0100
0000
1000
0000
0001
0000
,
0100
0000
0010
0000
1000
0000
0000
0001
0000
0000
0100
0000
0010
0000
1000
0000
,
0100
0000
0000
0110
0000
0000
0001
0000
0000
1001
0000
0000
1100
0000
0101
0000
,
1001
1000
0001
0100
0001
1000
0010
0010
,
0010
0100
0001
0010
0100
1000
0002
0000
,
1003
0100
0010
0100
1000
0100
0010
0001
,
1000
0000
0000
0001
0000
0000
0001
0000
0000
1000
0000
0000
0001
0000
1000
0000
,
0010
0100
0001
0010
0100
1000
0001
1000
,
0100
0010
0001
1000
0001
0100
0020
0000
,
1030
0100
1000
0100
0010
0001
0010
0100
,
1000
0000
0000
0100
0000
0000
1000
0000
0000
0001
0000
0000
0100
0000
0000
0000
,
1002
0100
0000
0103
,
2001
0100
0000
3100
,
1002
0010
0000
0013
,
0001
0000
0000
1000
0000
0000
0001
0000
0100
0000
0000
0000
0110
0000
0000
0000
,
2001
0010
0000
3010
,
1001
0100
1001
0010
,
0001
0010
0100
2000
,
0002
0000
0000
0000
,
3003
0000
0000
0001
0010
0100
1000
0001
,
1001
0100
0001
1000
,
0001
0000
0000
0100
0000
0000
0001
0000
0000
1000
0000
0010
0000
0000
0100
0000
,
0001
0010
0100
1000
,
0010
0000
0000
1000
0000
0000
0001
0000
0000
1000
0000
0000
0100
0000
0010
0000
,
0001
1000
0010
0100
,
0010
0000
0000
1000
0000
0000
0001
0000
0000
0010
0000
0001
0000
0000
1000
0000
,
0100
0010
0100
1000
,
0001
0000
0000
0010
0000
0000
0100
0000
1000
0000
0100
0000
0010
0000
0001
0000
,
0100
0000
0110
0000
1000
0001
1000
0001
,
0100
0000
0001
0010
0001
1000
0001
1000
,
0010
0000
0100
0001
0100
0010
0100
0010
,
1000
0000
0100
0010
0001
0010
0100
0010
,
0001
0000
1000
0001
0100
0010
1000
0100
,
1000
0000
0010
0100
0001
0100
0001
1000
,
0100
0000
0010
0100
1000
0100
1000
0001
,
0100
0000
0100
0000
0001
0000
0100
0000
0100
0000
0010
0000
0100
0000
0001
1000
,
0001
0000
0101
0000
0001
0010
0100
1000
,
0001
0000
1100
1000
0000
0101
0001
0000
,
0010
0100
1000
0100
0010
0001
1000
0001
,
0010
0000
1100
0100
0000
0101
0100
0000
,
1000
0001
1000
0010
0100
0001
1000
0001
,
0100
0000
0011
0001
0000
1010
1000
0000
,
0001
0010
0100
1000
0100
0010
0001
1000
,
0010
0100
0010
0100
0001
2000
0000
3100
,
0010
0000
0001
0100
0001
0000
1000
0010
,
1000
1000
0000
0001
0001
0000
0100
0000
,
0010
0000
0100
0001
0000
1000
0100
0000
,
0010
0001
0000
1000
0010
1000
0000
0001
,
0100
0000
0010
0100
0010
0000
1000
0000
,
0010
0010
0000
0100
0100
0000
0001
0000
,
1000
0000
0100
0010
0000
0001
0010
0200
,
2000
0000
0000
0000
0000
0000
0000
3300
,
1100
0000
0000
0101
0000
0000
1000
0000
0001
0100
0000
0001
1000
0000
1001
0000
,
1100
0000
0010
0000
0001
0000
1000
0000
0001
0000
0100
0000
0010
0100
0010
0000
,
1000
0000
0001
0000
0010
0000
0100
0000
1000
0000
0100
0000
1000
0001
1000
0001
,
0010
0000
0100
0000
1000
0000
0001
0000
1000
0000
0100
0000
1000
0010
1000
0000
,
0001
0000
0010
0000
0100
0000
2000
0002
0000
0000
3003
0000
1001
0000
0010
0000
,
1001
0000
0001
0000
0100
0000
0010
0000
1000
0000
0001
0000
1000
0100
1000
0000
,
0010
0000
0100
0000
0001
0000
1000
0000
0001
0000
0010
0000
0100
0010
0100
0010
,
0001
1000
0100
0001
0100
1000
0010
1000
,
0001
0000
0000
0101
0000
0000
1010
0000
0000
1001
0000
0000
0010
0000
0100
0000
,
1001
0000
0000
0000
;

//---------------dance-single - S-LIGHT----------------
#NOTEDATA:;
#CHARTNAME:DJ OMiY-LSP;
#STEPSTYPE:dance-single;
#DESCRIPTION:S-LIGHT;
#CHARTSTYLE:;
#DIFFICULTY:Easy;
#METER:5;
#RADARVALUES:0.356025,0.377503,0.196106,0.179764,0.032684,259.000000,24.000000,22.000000,0.000000,0.000000,0.000000,0.000000,0.000000,0.356025,0.377503,0.196106,0.179764,0.032684,259.000000,24.000000,22.000000,0.000000,0.000000,0.000000,0.000000,0.000000;
#CREDIT:DJ OMiY;
#DISPLAYBPM:120.000000:175.000000;
#NOTES:
0000
0000
0000
0000
,
0000
0000
0000
0000
,
0000
0000
0000
0000
,
0000
0000
0000
0000
,
1000
0001
0010
0001
,
1000
0010
1000
0001
,
0010
0000
0100
0000
1000
0100
1000
0001
,
0200
0000
0000
0301
0000
0000
0200
0000
0000
1300
0000
0000
0100
0000
0000
0000
,
1001
0000
1000
0000
0001
0010
0001
0010
,
0100
1000
0001
0120
,
1030
0000
0001
0000
1000
0100
0010
0100
,
0010
0000
0001
2000
0002
0000
3003
0001
,
1001
0000
0100
0000
0010
1000
0010
1000
,
0001
1000
0100
2001
,
3010
0000
0100
0000
0001
1000
0001
1000
,
0020
0000
0000
0031
0000
0000
0020
0000
0000
1030
0000
0000
0010
0000
0000
0000
,
2001
0010
0000
3010
,
1002
0100
0000
0103
,
2001
0010
0000
3010
,
1001
0000
1001
0000
,
0001
0100
0000
0001
,
1000
0001
0000
1000
,
0001
0010
0100
2000
,
0002
0000
0000
0000
,
3003
0000
1100
0101
,
1001
0010
0010
1000
,
0001
0000
0000
0010
0000
0000
0100
0000
,
1000
0001
1000
0010
,
0100
0000
0000
0001
0000
0000
0100
0000
,
0010
1000
0100
0010
,
0001
0000
0000
1000
0000
0000
0010
0000
,
1000
0100
0010
0001
,
1000
0000
0000
0001
0100
0001
0100
0000
,
1001
0010
1000
0001
,
1000
0000
0000
0100
0000
0000
1000
0001
,
1000
0010
0100
0001
,
0010
0000
0000
0100
0000
0000
0010
0001
,
0010
0001
0100
0001
,
1000
0000
0000
0010
0000
0000
1000
0001
,
1000
0100
0010
0001
,
0101
0000
0000
1010
0000
0000
0001
1000
,
0001
0000
0010
0000
0100
0000
1000
0001
,
0100
0010
1000
0001
,
0100
0000
0010
0000
1000
0001
1000
0000
,
0010
0100
0001
1000
,
0100
0000
0010
0000
0100
1000
0100
0000
,
0010
0001
1000
0100
,
0001
0000
0100
0000
1000
0001
1000
0000
,
0220
0000
0000
0000
0300
0000
0030
1000
,
0001
0000
0001
1000
,
0010
1000
0001
0000
,
0010
0000
0100
1000
0000
0100
1000
0000
,
0001
0100
2002
3003
,
0010
0000
1000
0001
,
1000
0100
0010
0000
,
0001
0000
1000
0001
0000
1000
0002
0000
,
0200
0000
0000
0000
0000
0000
0000
0303
,
0101
0000
0000
0001
0000
0000
0100
0000
0000
0100
0000
0000
2001
0000
0000
0000
,
3010
0000
1000
1000
1000
1000
1000
0000
,
1001
0000
0010
0010
0010
0010
0010
0000
,
1010
0000
0100
0100
0100
0100
0100
0000
,
0001
0010
0002
0020
0000
0000
0033
0100
,
1000
0000
0001
0001
0001
0001
0001
0000
,
0101
0000
0010
0010
0010
0010
0010
0000
,
1001
0000
0100
0100
0100
0100
0100
0000
,
1000
0000
0000
0100
0000
0000
0010
0000
0000
0001
0000
0000
0100
0000
0000
0000
,
1001
0000
0000
0000
;

//---------------dance-single - BEGINNER----------------
#NOTEDATA:;
#CHARTNAME:DJ OMiY-BEG;
#STEPSTYPE:dance-single;
#DESCRIPTION:BEGINNER;
#CHARTSTYLE:;
#DIFFICULTY:Beginner;
#METER:3;
#RADARVALUES:0.171592,0.215716,0.163421,0.065369,0.000000,119.000000,20.000000,8.000000,0.000000,0.000000,0.000000,0.000000,0.000000,0.171592,0.215716,0.163421,0.065369,0.000000,119.000000,20.000000,8.000000,0.000000,0.000000,0.000000,0.000000,0.000000;
#CREDIT:DJ OMiY;
#DISPLAYBPM:120.000000:175.000000;
#NOTES:
0000
0000
0000
0000
,
0000
0000
0000
0000
,
0000
0000
0000
0000
,
0000
0000
0000
0000
,
1000
0000
0001
0000
,
1000
0000
0001
0000
,
1000
0000
0001
0001
,
0002
0000
0003
0000
,
0110
0000
0100
0000
,
0010
0010
0010
0000
,
1000
0000
0001
0000
,
0100
0100
0100
0000
,
1001
0000
0010
0000
,
1000
1000
1000
0000
,
0001
0000
1000
0000
,
0001
0001
0001
0000
,
1001
0000
0000
0000
,
1001
0000
0000
0000
,
1001
0000
0000
0000
,
1001
0000
0000
0000
,
1001
0000
1001
0000
,
1001
0000
1001
0000
,
1001
0000
0100
0000
,
2002
0000
0000
0000
,
3003
0000
0000
0000
,
0110
0000
0000
0000
,
1000
0000
0001
0000
,
0100
0000
0000
0000
,
0001
0000
0010
0000
,
0100
0000
0000
0000
,
1000
0000
0001
0000
,
0100
0000
0000
0000
,
0010
0000
1000
0000
,
0001
0000
0000
0000
,
1000
0000
0100
0000
,
0010
0000
0000
0000
,
0001
0000
1000
0000
,
0001
0000
0000
0000
,
0100
0000
0010
0000
,
1000
0000
0000
0000
,
0010
0000
0010
0000
,
1001
0000
0010
0010
,
0010
0000
1000
1000
,
1000
0000
0001
0001
,
0001
0000
0100
0100
,
0100
0000
0010
0010
,
0010
0000
1000
1000
,
1000
0000
0100
0100
,
0200
0000
0300
0000
,
1001
0000
0000
0000
,
0010
0000
0000
0000
,
1000
0000
0001
0000
,
1000
0000
0000
0000
,
0002
0000
0003
0000
,
0200
0000
0300
0000
,
0010
0000
0010
0000
,
2002
0000
3003
0000
,
0000
0000
0000
1001
,
1001
0000
0010
0010
,
0010
0000
1000
1000
,
1000
0000
0001
0001
,
0001
0000
0100
0000
,
1001
0000
1000
1000
,
1000
0000
0001
0001
,
0001
0000
0100
0100
,
0100
0000
0001
0000
,
0110
0000
0000
0000
;

//---------------dance-double - D-HEAVY----------------
#NOTEDATA:;
#CHARTNAME:DJ OMiY-HDP;
#STEPSTYPE:dance-double;
#DESCRIPTION:D-HEAVY;
#CHARTSTYLE:;
#DIFFICULTY:Hard;
#METER:10;
#RADARVALUES:0.717887,0.835900,0.220619,0.122566,0.686370,573.000000,27.000000,15.000000,0.000000,0.000000,0.000000,0.000000,0.000000,0.717887,0.835900,0.220619,0.122566,0.686370,573.000000,27.000000,15.000000,0.000000,0.000000,0.000000,0.000000,0.000000;
#CREDIT:DJ OMiY;
#DISPLAYBPM:120.000000:175.000000;
#NOTES:
// measure 0
00000000
00000000
00000000
00000000
,  // measure 1
00000000
00000000
00000000
00000000
,  // measure 2
00000000
00000000
00000000
00000000
,  // measure 3
00000000
00000000
00000000
00000000
,  // measure 4
00001000
00100000
00010000
00100000
00001000
00010000
00000000
00000100
00000000
00001000
00000010
00001000
00000010
00000000
00000100
00000001
,  // measure 5
00001000
00000100
00000010
00000100
00001000
00000001
00000000
00000010
00000000
00000001
00000100
00000001
00000100
00000000
00000010
00000100
,  // measure 6
00000001
00000000
00000000
00001000
00000000
00000000
00000100
00000000
00000000
00001000
00000000
00000000
00000010
00000000
00000000
00010000
00000000
00000000
00000000
00000000
00000000
00001000
00000000
00000000
00000000
00000000
00000000
00010000
00000000
00000000
00001000
00000000
00000000
00100000
00000000
00000000
00010000
00000000
00000000
10000000
00000000
00000000
00010000
00000000
01000000
00000000
00010000
00000000
,  // measure 7
10000000
00000000
00000000
00000000
00000000
00000000
00010000
00000000
00000000
01010000
00000000
00000000
00000000
00000000
00000000
10000000
00000000
00000000
01000000
00000000
00000000
10000000
00000000
00000000
00010000
00000000
00000000
01000000
00000000
00000000
00000000
00000000
00000000
00100000
00000000
00000000
10000000
00000000
01000000
00000000
00100000
00000000
00010000
00000000
00100000
00000000
01000000
00000000
,  // measure 8
10000000
00000000
01000000
00000000
01100000
00000000
00010000
00100000
00001000
00010000
00000010
00001000
00000010
00000100
00000010
00000100
,  // measure 9
00000001
00000000
00000010
00000001
00001000
00000000
00000010
00000100
00000000
00000010
00001000
00000000
00000001
00001000
00000100
00010000
,  // measure 10
00000010
00000000
00001000
00000100
00010000
00001000
01000000
00010000
00000000
10000000
00010000
00000000
10000000
01000000
10000000
00000000
,  // measure 11
00010000
00000000
00000000
00000000
00000000
00000000
01000000
00000000
00000000
00100000
00000000
00000000
01000000
00000000
00000000
00100000
00000000
00000000
01000000
00000000
00000000
00100000
00000000
00000000
20000000
00000000
00000000
00000000
00000000
00000000
00010000
00000000
00000000
00000000
00000000
00000000
30010000
00000000
10000000
00000000
00010000
00000000
01000000
00000000
00000000
00000000
00000000
00000000
,  // measure 12
01100000
00000000
00010000
00000000
01000000
00100000
10000000
01000000
00000000
00100000
00001000
00000000
00010000
00000100
00010000
00000000
,  // measure 13
00001000
00000100
00000010
00000100
00000001
00000100
00000010
00000100
00000001
00001000
00000100
00000010
00000002
00000000
00000000
00000003
,  // measure 14
00001001
00000000
00001000
00000100
00010000
00000000
00000100
00001000
00000000
00000100
00010000
00000000
00001000
00100000
00010000
00000000
,  // measure 15
10000000
01000000
00100000
00110000
00000000
01000000
00100000
01000000
00010000
10010000
00000000
10000000
01000000
00100000
00010000
00000000
,  // measure 16
01010000
00000000
00010000
00000000
10000000
00000000
00100000
01000000
00000000
00010000
00100000
00001000
00100000
00000000
00001000
00000000
,  // measure 17
00011000
00000000
00010000
00000000
00000100
00000000
00001000
00000001
00000000
00000010
00000100
00000010
00000200
00000000
00000000
00000300
,  // measure 18
00001100
00000000
00001000
00000000
00000010
00000000
00010000
00000100
00000000
00010000
00001000
00000000
00100000
00000000
00010000
00000000
,  // measure 19
01010000
00000000
00000000
01000000
00000000
00000000
00100000
00000000
20100000
00000000
00000000
00000000
30020000
00000000
00000000
00000000
,  // measure 20
00130000
00000000
01000000
00000000
00100000
00000000
00001000
00010000
00000000
00001000
00010000
00000000
00000100
00000000
00000010
00000000
,  // measure 21
00000001
00000000
00001100
00000000
00000010
00001000
00001001
00000000
,  // measure 22
00001000
00000100
00010000
00001000
00100000
00010000
10000000
00200000
,  // measure 23
02000000
00000000
00000000
00000000
,  // measure 24
03300000
00000000
00000000
00000000
00000000
00000000
00010000
01000000
00010000
01000000
00100000
01000000
00100000
01000000
00010000
10000000
,  // measure 25
00010000
01000000
00100000
00000000
10000000
01000000
00100000
00001000
,  // measure 26
00010000
00000000
00000000
00010000
00000000
00000000
00000010
00000000
00000000
00000010
00000000
00000100
00000000
00000000
00000001
00000000
,  // measure 27
00001000
00000000
00000100
00000000
00000010
00000000
00000000
00000001
00000000
00001000
00000000
00000000
00000100
00000000
00010000
00000000
,  // measure 28
00001000
00000000
00000000
00001000
00000000
00000000
00100000
00000000
00000000
00100000
00000000
00000000
00010000
00000000
10000000
00000000
,  // measure 29
00100000
01000000
00010000
00000000
10000000
01000000
00100000
01000000
,  // measure 30
10000000
00000000
00000000
10000000
00000000
00000000
00010000
00000000
00000000
00010000
00000000
00100000
00000000
00000000
00001000
00000000
,  // measure 31
00010000
00000000
00000010
00000000
00000100
00000000
00000000
00000001
00000000
00000010
00000000
00000000
00001000
00000000
00000010
00000000
,  // measure 32
00000001
00000000
00000000
00000001
00000000
00000000
00001000
00000010
00001000
00000010
00001000
00000010
00000100
00000001
00000100
00000001
,  // measure 33
00001000
00000100
00000010
00000100
00001000
00000100
00010000
00001000
,  // measure 34
01000000
00100000
01000000
00010000
10000000
01000000
00100000
00000000
,  // measure 35
00010000
01000000
00100000
10000000
00010000
00100000
00001000
00010000
,  // measure 36
00000010
00001000
00000100
00000010
00000100
00001000
00000001
00000000
,  // measure 37
00000010
00000001
00000010
00000100
00001000
00000100
00001000
00010000
,  // measure 38
00100000
00010000
10000000
01000000
00100000
01000000
10000000
00000000
,  // measure 39
00010000
01000000
00010000
00100000
00001000
00010000
00000100
00000010
,  // measure 40
00000001
00001000
00000001
00000000
00000100
00000000
00000001
00001000
00000001
00000000
00000010
00000000
00002001
00000000
00000000
00000000
,  // measure 41
00003100
00000000
00010000
00000000
00001000
00000000
00100000
00000000
00010000
00000000
10000000
00000000
00100000
01000000
00100000
00000000
,  // measure 42
10000000
01000000
00100000
00010000
00100000
00001000
00010000
00000100
,  // measure 43
00001000
00000000
00000010
00000000
00000100
00000000
00000010
00000000
00001000
00000000
00000001
00000010
00000001
00000010
00000100
00000000
,  // measure 44
00001000
00000000
00000010
00000000
00010000
00000000
00001000
00000000
00100000
00000000
00010000
00000000
10000000
00010000
10000000
00000000
,  // measure 45
00100000
00000000
01000000
00000000
00010000
00000000
00100000
00000000
00010000
00000000
01000000
00000000
00100000
10000000
00100000
00000000
,  // measure 46
01000000
00010000
00100000
00001000
00010000
00001000
00000100
00000001
,  // measure 47
00000010
00000000
00000100
00000000
00001000
00000000
00000100
00000000
00010000
00000000
00001000
00010000
00001000
00100000
00001000
00000000
,  // measure 48
00010000
01000000
10000000
01000000
00010000
00001000
00000000
00000100
,  // measure 49
00000001
00000000
00000010
00000100
00001000
00000100
00010000
00000000
,  // measure 50
00001000
00001000
00000000
00100000
00200000
00000000
00320000
00000000
,  // measure 51
10030000
00000000
01000000
00200000
00000000
00301000
00020000
00000100
,  // measure 52
00030100
00001000
00000001
00001000
00000100
00000010
00000001
00000000
,  // measure 53
00000100
00000000
00000010
00000100
00000000
00000010
00000100
00001000
,  // measure 54
00010000
00010000
00000000
00001000
00001000
00000000
00100000
00000000
,  // measure 55
00010000
00000000
10000000
02000000
00000000
03010000
00001000
00000200
,  // measure 56
00000002
00000000
00000000
00000303
,  // measure 57
00001001
00000000
00000000
00000001
00000000
00000000
00000100
00000000
00000000
00000110
00000000
00000000
00000000
00000000
00000000
00000010
00000000
00000000
00001000
00000000
00000000
00000100
00000000
00000000
00001100
00000000
00000000
00001000
00000000
00000000
00000000
00000000
00000000
00000100
00000000
00000000
00010000
00000000
00001000
00000000
00010000
00000000
00001000
00000000
00100000
00000000
00010000
00000000
,  // measure 58
01000000
00000000
00100000
00000000
10010000
00000000
10000000
00100000
00100000
01000000
00100000
00100000
10000000
01000000
00100000
00000000
,  // measure 59
00010000
00000000
00100000
00000000
00101000
00000000
00001000
00010000
00010000
00000100
00010000
00010000
00001000
00000100
00000010
00000100
,  // measure 60
00000001
00000000
00000010
00000000
00000110
00000000
00000010
00000001
00000001
00001000
00000001
00000001
00000100
00000010
00001000
00000000
,  // measure 61
00000100
00000000
00010000
00000000
00000100
00000000
00010000
00000000
00000000
00001000
00000000
00000000
00010000
00000000
00000000
00000000
00000000
00000000
00001000
00000000
00000000
00100000
00000000
00000000
00100000
00000000
00000000
00010000
00000000
00000000
00100000
00000000
00000000
00100000
00000000
00000000
01000000
00000000
00000000
10000000
00000000
00000000
01000000
00000000
00000000
00100000
00000000
00000000
,  // measure 62
00010000
00000000
01000000
00000000
10010000
00000000
00100000
01000000
01000000
00010000
01000000
01000000
00100000
01000000
00001000
00000000
,  // measure 63
00010000
00000000
00001000
00000000
00001100
00000000
00000010
00000100
00000100
00000001
00000100
00000100
00000010
00000100
00000001
00000010
,  // measure 64
00000100
00000000
00001000
00000000
00001001
00000000
00000100
00000001
00000001
00001000
00000001
00000001
00000010
00000100
00010000
00000000
,  // measure 65
00011000
00001000
00100000
00110000
00000000
00010000
10000000
00010000
01000000
01010000
00000000
00100000
10000000
01000000
00100000
00001000
,  // measure 66
00011000
00000000
00000000
00000000
;

//---------------dance-double - D-STANDARD----------------
#NOTEDATA:;
#CHARTNAME:DJ OMiY-SDP;
#STEPSTYPE:dance-double;
#DESCRIPTION:D-STANDARD;
#CHARTSTYLE:;
#DIFFICULTY:Medium;
#METER:8;
#RADARVALUES:0.479759,0.485361,0.187935,0.138908,0.130737,371.000000,23.000000,17.000000,0.000000,0.000000,0.000000,0.000000,0.000000,0.479759,0.485361,0.187935,0.138908,0.130737,371.000000,23.000000,17.000000,0.000000,0.000000,0.000000,0.000000,0.000000;
#CREDIT:DJ OMiY;
#DISPLAYBPM:120.000000:175.000000;
#NOTES:
// measure 0
00000000
00000000
00000000
00000000
,  // measure 1
00000000
00000000
00000000
00000000
,  // measure 2
00000000
00000000
00000000
00000000
,  // measure 3
00000000
00000000
00000000
00000000
,  // measure 4
00001000
00000000
00010000
00000000
00000100
00000000
00000000
00000010
00000000
00000000
00000001
00000000
00000100
00000000
00000010
00000000
,  // measure 5
00001000
00000000
00000100
00000000
00010000
00000000
00000000
00001000
00000000
00000000
00100000
00000000
00010000
00000000
00000000
00000000
,  // measure 6
10000000
00000000
01000000
00000000
00100000
00000000
00000000
01000000
00000000
00000000
10000000
00000000
00010000
00000000
00100000
00000000
,  // measure 7
00001000
00000000
00000000
00011000
00000000
00000000
00010000
00000000
00000000
00010100
00000000
00000000
00001000
00000000
00000010
00000000
,  // measure 8
00000110
00000000
00001001
00000000
00000010
00000001
00001000
00000001
,  // measure 9
00000100
00000010
00001000
00000000
00000100
00010000
00002000
00000000
,  // measure 10
00103000
00010000
10000000
01000000
00100000
01000000
10000000
00000000
,  // measure 11
00010000
00000000
00100000
00000000
00001000
00000000
00100000
00010000
00000000
00000000
00000000
00000000
10010000
00000000
01000000
00000000
,  // measure 12
10010000
00010000
01000000
00100000
10000000
01000000
00100000
00001000
,  // measure 13
00010000
00001000
00001000
00001000
00001000
00001000
00000200
00000000
,  // measure 14
00000301
00000010
00000100
00001000
00000001
00001000
00000100
00010000
,  // measure 15
00001000
00000000
00000000
00101000
00000000
00000000
00100000
00000000
00000000
01100000
00000000
00000000
20010000
00000000
00000000
00000000
,  // measure 16
30100000
01000000
00010000
10000000
,  // measure 17
01000000
00000000
00100000
00000000
00001000
00010000
00000020
00000000
,  // measure 18
00000130
00000001
00000010
00000100
,  // measure 19
00010000
00000000
00000000
00001000
00000000
00000000
00100000
00000000
00002000
00000000
00000000
00000000
00023000
00000000
00000000
00000000
,  // measure 20
01030000
10000000
00100000
01000000
,  // measure 21
00010000
10000000
01000000
00100000
,  // measure 22
00010000
00001000
00000100
00000010
,  // measure 23
00000002
00000000
00000000
00000000
,  // measure 24
00000003
00000000
00000000
00000010
00000001
00000010
00000100
00001000
,  // measure 25
00000100
00010000
00001000
00100000
,  // measure 26
00010000
00000000
00000000
10000000
00000000
00000000
00010000
00000000
00000000
01000000
00000000
00100000
00000000
00000000
10000000
00000000
,  // measure 27
01000000
00100000
00001000
00010000
,  // measure 28
00000100
00000000
00000000
00001000
00000000
00000000
00000001
00000000
00000000
00000010
00000000
00000000
00000001
00000000
00000100
00000000
,  // measure 29
00000010
00001000
00000001
00000010
,  // measure 30
00000100
00000000
00000000
00010000
00000000
00000000
00001000
00000000
00000000
00100000
00000000
00001000
00000000
00000000
00010000
00000000
,  // measure 31
01000000
00100000
01000000
10000000
,  // measure 32
00010000
00000000
00000000
01000000
00000000
00000000
00100000
00000000
10000000
00000000
00010000
00000000
10000000
00000000
01000000
00000000
,  // measure 33
00100000
00000000
00001000
00010000
00001000
00010000
00000100
00001000
,  // measure 34
00000010
00000000
00000100
00000001
00000010
00000001
00000010
00000100
,  // measure 35
00001000
00000000
00000100
00010000
00001000
00100000
00001000
00100000
,  // measure 36
00010000
00000000
01000000
00100000
10000000
00010000
10000000
00010000
,  // measure 37
01000000
00000000
00010000
00100000
00001000
00010000
00000100
00010000
,  // measure 38
00000100
00000000
00001000
00000001
00000010
00000100
00001000
00000100
,  // measure 39
00001000
00000000
00000010
00010000
00001000
00010000
00001000
00100000
,  // measure 40
01000000
00000000
01000000
00000000
00100000
00000000
01000000
00000000
01000000
00000000
00100000
00000000
01000000
00000000
10000000
00010000
,  // measure 41
20000000
00000000
31000000
00000000
00100000
00001000
00010000
00001000
,  // measure 42
00000100
00000000
00000110
00000010
00000000
00001001
00001000
00000000
,  // measure 43
00000020
00000000
00000130
00000001
00001000
00000100
00010000
00001000
,  // measure 44
00100000
00000000
00110000
00010000
00000000
11000000
10000000
00000000
,  // measure 45
00200000
00000000
01300000
00010000
10000000
01000000
00100000
00001000
,  // measure 46
00010000
00000000
00010100
00000100
00000000
00001100
00001000
00000000
,  // measure 47
00000001
00000000
00000100
00000010
00001000
00000100
00010000
00001000
,  // measure 48
00100000
00010000
01000000
00100000
10000000
00020000
00000000
00130000
,  // measure 49
01000000
00000000
00100000
00001000
00010000
00000000
00000100
00000000
,  // measure 50
00001000
00000010
00000000
00000100
00000001
00000000
00000010
00000000
,  // measure 51
00000200
00000000
00010300
00002000
00000000
00103000
00010000
10000000
,  // measure 52
00010000
02000000
00000000
03100000
10000000
00000000
01000000
00000000
,  // measure 53
10000000
00000000
01000000
00100000
00010000
00000000
01000000
00000000
,  // measure 54
00001000
00010000
00000000
00010000
00000100
00001000
00000010
00000000
,  // measure 55
00000200
00000000
00000301
00000010
00000000
00000100
00010000
00001000
,  // measure 56
02000000
00000000
00000000
03000000
,  // measure 57
01010000
00000000
00000000
11000000
00000000
00000000
00100000
00000000
10000000
00010000
00000000
00010000
01000000
00000000
00100000
00000000
,  // measure 58
10010000
00000000
00000000
00000000
10000000
00000000
01000000
00000000
00100000
00000000
00001000
00000000
00010000
00000100
00010000
00000000
,  // measure 59
00001000
00000000
00000000
00000000
00000100
00000000
00000010
00000000
00000100
00000000
00000001
00000000
00000010
00000100
00000010
00000100
,  // measure 60
00000000
00000000
00000000
00000000
00001000
00000000
00000100
00000000
00010000
00000000
00001000
00000000
00100000
00001000
00100000
00000000
,  // measure 61
00010000
00000000
01000000
00000000
00100000
00000000
10000000
00020000
00000000
00000000
00030000
00000000
00110000
00000000
00100000
00000000
,  // measure 62
00101000
00000000
00000000
00000000
00010000
00000000
00000100
00000000
00001000
00000000
00000010
00000000
00000100
00000001
00001000
00000000
,  // measure 63
00000000
00000000
00000000
00000000
00000010
00000000
00000100
00000000
00000001
00000000
00001000
00000000
00000100
00010000
00001000
01000000
,  // measure 64
00000000
00000000
00100000
10000000
01000000
00100000
00001000
00010000
,  // measure 65
00000100
00000000
00000000
00010100
00000000
00000000
00000010
00000000
00000000
00001001
00000000
00000000
00000010
00000000
00001000
00000000
,  // measure 66
00000101
00000000
00000000
00000000
;

//---------------dance-double - D-LIGHT----------------
#NOTEDATA:;
#CHARTNAME:DJ OMiY-LDP;
#STEPSTYPE:dance-double;
#DESCRIPTION:D-LIGHT;
#CHARTSTYLE:;
#DIFFICULTY:Easy;
#METER:6;
#RADARVALUES:0.357192,0.404468,0.098053,0.204277,0.032684,269.000000,12.000000,25.000000,0.000000,0.000000,0.000000,0.000000,0.000000,0.357192,0.404468,0.098053,0.204277,0.032684,269.000000,12.000000,25.000000,0.000000,0.000000,0.000000,0.000000,0.000000;
#CREDIT:DJ OMiY;
#DISPLAYBPM:120.000000:175.000000;
#NOTES:
// measure 0
00000000
00000000
00000000
00000000
,  // measure 1
00000000
00000000
00000000
00000000
,  // measure 2
00000000
00000000
00000000
00000000
,  // measure 3
00000000
00000000
00000000
00000000
,  // measure 4
00001000
00100000
00010000
10000000
,  // measure 5
01000000
00100000
00001000
00010000
,  // measure 6
00000100
00000000
00000010
00000000
00000001
00000010
00000100
00001000
,  // measure 7
00000200
00000000
00000000
00000301
00000000
00000000
00000200
00000000
00000000
00010300
00000000
00000000
00001000
00000000
01000000
00000000
,  // measure 8
00010000
00000000
10000000
00000000
01000000
01000000
01000000
01000000
,  // measure 9
00100000
00000000
00010000
00000000
00100000
00001000
00020000
00000000
,  // measure 10
01030000
00000000
10000000
00000000
00100000
00010000
00001000
00000000
,  // measure 11
00020000
00000200
00030000
00001300
,  // measure 12
00001001
00000000
00000010
00000100
00000001
00000000
00000010
00000000
,  // measure 13
00000200
00020300
00032000
00103000
,  // measure 14
10010000
00000000
00100000
00000000
10000000
01000000
00100000
00000000
,  // measure 15
00002000
00000000
00000000
00013000
00000000
00000000
00002000
00000000
00000000
00003100
00000000
00000000
00000020
00000000
00000000
00000000
,  // measure 16
00000130
00000001
00000000
00001000
,  // measure 17
00000100
00010000
00000000
00002000
,  // measure 18
00103000
01000000
00000000
00100000
,  // measure 19
00010000
10000000
10010000
00000000
,  // measure 20
00100000
10000000
00000000
00010000
,  // measure 21
00100000
00001000
00000000
00010000
,  // measure 22
00000100
00000010
00000000
00000001
,  // measure 23
00000200
00000000
00000000
00000000
,  // measure 24
00000300
00000000
00000110
00001001
,  // measure 25
00001100
00000100
00010000
00001000
,  // measure 26
00200000
00000000
00000000
00320000
00000000
00000000
20030000
00000000
,  // measure 27
31000000
10000000
00010000
00100000
,  // measure 28
00001000
00000000
00000000
00010000
00000000
00000000
00001000
00000000
,  // measure 29
00000100
00000010
00000100
00000001
,  // measure 30
00000020
00000000
00000000
00000230
00000000
00000000
00020300
00000000
,  // measure 31
00031000
00100000
00010000
10000000
,  // measure 32
01000000
00000000
00000000
10000000
00010000
00000000
01000000
00000000
,  // measure 33
00100000
10000000
00010000
00100000
,  // measure 34
00100000
00001000
00010000
00000100
,  // measure 35
00001000
00000001
00000100
00000010
,  // measure 36
00000010
00000000
00000000
00001000
00000000
00000000
00000001
00000000
,  // measure 37
00000010
00000100
00001000
00000100
,  // measure 38
00000100
00010000
00001000
01000000
,  // measure 39
00100000
10000000
00010000
01000000
,  // measure 40
01000000
00000000
00000000
01010000
00000000
00000000
11000000
00000000
,  // measure 41
00100000
00000000
00001000
00000000
00010000
00000000
00000100
00001000
,  // measure 42
00000100
00000010
00000001
00000100
,  // measure 43
00000010
00000000
00001000
00000000
00000100
00010000
00001000
00010000
,  // measure 44
00001000
00000000
01000000
00000000
00100000
00000000
01000000
00010000
,  // measure 45
01000000
00000000
00100000
00000000
10000000
01000000
10000000
00000000
,  // measure 46
00010000
00000000
00100000
00000000
01000000
00000000
10000000
00010000
,  // measure 47
00100000
00000000
00001000
00000000
00010000
00000100
00010000
00000100
,  // measure 48
00001000
00000000
00000010
00000000
00000100
00000002
00000000
00000000
,  // measure 49
00001003
00000100
00010000
00001000
,  // measure 50
00100000
00010000
00000000
00100000
00010000
00000000
00000000
00000000
,  // measure 51
10000000
00010000
01000000
00100000
,  // measure 52
01000000
00001000
01000000
00001000
00010000
00000000
00000100
00000000
,  // measure 53
00000010
00000100
00001000
00000001
,  // measure 54
00000100
00000010
00000000
00000100
00000010
00000000
00000000
00000000
,  // measure 55
00001000
00000100
00010000
00001000
,  // measure 56
00200000
00000000
00000000
00300000
,  // measure 57
02000000
00000000
00000000
13000000
00000000
00000000
02000000
00000000
00000000
03010000
00000000
00000000
01000000
00000000
10000000
00000000
,  // measure 58
10010000
00000000
00100000
00100000
00100000
00100000
00010000
00100000
,  // measure 59
00000000
00000000
00001000
00001000
00001000
00001000
00010000
00000100
,  // measure 60
00001000
00000000
00000010
00000010
00000010
00000010
00000100
00000001
,  // measure 61
00001000
00001000
00000001
00000110
,  // measure 62
00001001
00000000
00000010
00000010
00000010
00000010
00001000
00000100
,  // measure 63
00000000
00000000
00010000
00010000
00010000
00010000
00000100
00010000
,  // measure 64
00001000
00000000
01000000
01000000
01000000
01000000
00010000
00100000
,  // measure 65
00020000
00000000
00000000
01030000
00000000
00000000
20000000
00000000
00000000
31000000
00000000
00000000
00010000
00000000
10000000
00000000
,  // measure 66
01100000
00000000
00000000
00000000
;
