#VERSION:0.82;
#TITLE:中華急行;
#SUBTITLE:;
#ARTIST:Ryu☆;
#TITLETRANSLIT:Chuuka kyuukou;
#SUBTITLETRANSLIT:;
#ARTISTTRANSLIT:Ryu*;
#GENRE:Hardcore;
#ORIGIN:;
#CREDIT:;
#BANNER:Chuuka kyuukou-bn.png;
#BACKGROUND:Chuuka kyuukou-bg.png;
#PREVIEWVID:;
#JACKET:Chuuka kyuukou-jk.png;
#CDIMAGE:;
#DISCIMAGE:;
#LYRICSPATH:;
#CDTITLE:;
#MUSIC:Chuuka kyuukou.mp3;
#OFFSET:-1.820000;
#SAMPLESTART:25.660000;
#SAMPLELENGTH:11.248000;
#SELECTABLE:YES;
#BPMS:0.000=171.000,
161.000=85.500,
177.000=171.000;
#STOPS:32.000=1.053,
177.000=1.053;
#DELAYS:;
#WARPS:;
#TIMESIGNATURES:0.000=4=4,
32.000=1=4,
33.000=4=4,
177.000=1=4,
178.000=4=4;
#TICKCOUNTS:0.000=4;
#COMBOS:0.000=1;
#SPEEDS:0.000=1.000=0.000=0;
#SCROLLS:0.000=1.000;
#FAKES:;
#LABELS:0.000=Song Start;
#LASTSECONDHINT:95.154076;
#BGCHANGES:;
#KEYSOUNDS:;
#ATTACKS:
;

//---------------dance-single - S-HEAVY----------------
#NOTEDATA:;
#CHARTNAME:DJ OMiY-HSP;
#STEPSTYPE:dance-single;
#DESCRIPTION:S-HEAVY;
#CHARTSTYLE:;
#DIFFICULTY:Hard;
#METER:8;
#RADARVALUES:0.545053,0.654414,0.127834,0.255669,0.049167,349.000000,13.000000,26.000000,0.000000,0.000000,0.000000,0.000000,0.000000,0.545053,0.654414,0.127834,0.255669,0.049167,349.000000,13.000000,26.000000,0.000000,0.000000,0.000000,0.000000,0.000000;
#CREDIT:DJ OMiY;
#NOTES:
0000
0000
0000
0000
,
0000
0000
0000
0000
,
0000
0000
0000
0000
,
0000
0000
0000
0000
,
2000
0000
0000
0000
,
0020
0000
3000
0000
,
0002
0000
0030
0000
,
0200
0000
0003
0000
,
1300
0000
1001
0000
1000
0100
0010
0000
,
0001
0100
0010
1000
0001
1000
0100
0010
,
0001
1000
0010
0000
1000
0001
1000
0100
,
0010
0000
0100
0000
1000
0000
0000
0000
0001
0000
0000
0010
0001
0000
1000
0000
,
0001
0010
0100
0000
1000
0001
0100
0000
,
0010
0100
0001
1000
0010
1000
0001
0010
,
0100
0010
0001
0000
1000
0010
0100
0001
,
1000
0000
0010
1000
0010
1000
0002
0100
,
0103
0000
1001
0000
0001
0010
0100
0000
,
0010
0100
1000
0100
0010
0001
1000
0100
,
0010
0100
1000
0000
0010
0100
0001
1000
,
0100
0000
0010
0000
0001
0000
0000
0000
1000
0000
0000
0010
1000
0000
0001
0000
,
0010
0100
1000
0000
0010
1000
0001
0000
,
0100
0001
1000
0010
1000
0001
0100
0010
,
1000
0000
0010
0000
0100
0000
0000
0000
0001
0000
1000
0000
0001
0000
0100
0001
,
0100
0000
0001
1000
0001
2000
0020
0000
,
3030
1001
0010
0001
,
1000
0110
1000
0100
,
0010
0000
0001
0000
0100
0001
0010
0000
,
0100
1000
0010
0000
0100
0000
0010
1000
,
0001
1001
1000
0001
,
0010
0001
0000
1000
0100
0000
0010
0000
,
0100
1001
0010
1000
,
0001
0100
0000
0001
0010
0000
0001
1000
,
0100
0000
1100
0000
0001
1000
0010
0100
,
0001
1000
0000
0100
0010
0100
1000
0001
,
0100
0000
1001
0000
0001
0100
0010
0100
,
0001
1000
0000
0010
1000
0001
0010
0001
,
0100
0000
0110
0000
0010
1000
0100
0010
,
0001
0100
0000
0010
1000
0001
1000
0100
,
1000
0000
1010
0000
0001
0010
0100
0010
,
0001
0000
0010
0000
0000
0000
0001
1000
0001
0000
0010
0000
0100
0000
1000
0000
,
0001
2010
3002
0023
,
0230
0000
1300
1000
0100
0100
0010
0010
,
0001
0000
0000
0000
0102
0000
0000
0010
0023
0000
0000
0000
0230
0000
0000
1000
,
1300
0000
0001
0000
0100
0010
0100
0000
0010
0100
0010
0000
1000
0001
0010
0001
,
0200
0000
0310
0000
0001
0100
0001
0100
,
0010
1000
0010
1000
0100
1000
0100
0010
,
0002
0000
2003
0000
3010
0100
0010
1000
,
0010
0100
0010
1000
0001
0010
0001
1000
,
0020
0000
0130
0100
0010
1000
0001
1000
,
0010
1000
0001
1000
0010
0100
0001
1000
,
0200
0000
2300
0000
3100
0010
0100
1000
,
0100
0010
0100
1000
0100
0010
0001
1000
,
0001
0100
0020
0000
0130
0001
0010
0001
,
0100
0001
0010
0001
1000
0100
0010
0001
,
2000
0000
3020
0000
0130
0001
1000
0001
,
0100
0001
1000
0001
0010
0100
1000
0001
,
1000
0000
0100
1000
0010
0100
0001
0100
,
0010
0100
0001
0100
0010
1000
0001
1000
,
0020
0000
0230
0000
0301
0010
0100
1000
,
0001
0010
0100
1000
0000
0001
1000
0100
,
0020
0030
1001
0000
;

//---------------dance-single - S-CHALLENGE----------------
#NOTEDATA:;
#CHARTNAME:DJ OMiY-CSP;
#STEPSTYPE:dance-single;
#DESCRIPTION:S-CHALLENGE;
#CHARTSTYLE:;
#DIFFICULTY:Challenge;
#METER:10;
#RADARVALUES:0.751554,0.713906,0.403170,0.206502,0.290086,473.000000,41.000000,21.000000,0.000000,0.000000,0.000000,0.000000,0.000000,0.751554,0.713906,0.403170,0.206502,0.290086,473.000000,41.000000,21.000000,0.000000,0.000000,0.000000,0.000000,0.000000;
#CREDIT:DJ OMiY;
#NOTES:
0000
0000
0000
0000
,
0000
0000
0000
0000
,
0000
0000
0000
0000
,
0000
0000
0000
0000
,
0001
0010
0001
0010
0001
0010
0001
0010
,
0100
1000
0100
1000
0100
1000
0100
1000
,
0010
0100
0010
0100
0010
0100
0010
0100
,
0001
1000
0001
1000
0001
1000
0001
1000
,
0010
0000
1100
0000
0100
0010
0011
0000
,
0001
0100
0010
1000
0100
0001
0100
1000
,
0001
0000
0100
0000
0110
0000
0000
0000
1000
0000
0001
0000
1000
0000
0100
0010
,
0001
0000
0100
0000
0010
0000
1000
0000
0001
0000
0010
0001
1000
0000
0010
0000
,
0110
0001
1001
0000
0001
0100
0101
0000
,
0010
1000
0001
0010
0100
0010
0001
1000
,
0010
0000
1000
0000
1100
0000
0000
0000
0010
0000
0100
0000
0001
0000
0010
0100
,
1000
0001
0101
0001
0010
0100
1100
2000
,
0002
3003
0110
0010
1000
0001
0010
0001
,
1000
0000
0010
0000
0001
0000
0010
0000
1000
0000
0100
0000
0010
0000
0100
1000
,
0001
0000
0100
0000
0010
0000
0100
0000
1000
0000
0100
0000
0001
0000
0010
0001
,
0100
0000
0010
0000
1000
0000
0100
0000
0010
0000
0100
0000
1000
0000
0001
0100
,
0001
1000
1010
0010
0100
0001
0010
0100
,
1000
0000
0001
0000
0100
0000
0010
0000
0001
0000
0010
0000
1000
0000
0001
0100
,
0001
0000
0010
0000
0100
0000
1000
0000
0001
0000
0100
0000
0010
0000
1000
0001
,
0010
0100
1100
1000
0001
0100
0102
0000
,
0013
0000
0000
0000
0100
0000
1000
0001
1000
0000
0010
0100
0010
0000
0100
0001
,
0200
0000
0010
0000
0310
0000
1000
0010
1000
0000
0001
0010
0001
0000
1000
0100
,
2000
0000
0001
0000
3001
0000
0100
0010
0100
0000
0001
1000
0001
0000
0010
0001
,
0020
0100
0130
1000
0001
0100
0010
0110
,
1010
0000
1000
0000
1001
0000
0001
0000
0100
0001
0100
0010
1000
0000
0100
0000
,
1000
0000
0001
0000
0010
0000
0100
1000
0001
0000
0100
0000
0010
0000
0100
0000
,
0001
0000
0000
0000
1001
0000
0001
0000
1000
0010
0100
0001
0010
0000
0100
0000
,
1000
0000
0001
0000
0000
0000
0100
0010
0100
0000
0001
0000
1000
0000
0100
0000
,
0010
0000
0000
0000
0011
0000
0001
0000
1000
0100
1000
0010
0100
0000
0001
0000
,
1000
0000
0001
0000
0100
0000
0010
1000
0100
0000
1000
0000
0001
0000
0100
0000
,
0010
0000
1000
0000
1001
0000
0001
0000
0010
0001
1000
0001
0100
0000
0010
0000
,
1000
0000
0001
0000
1000
0000
0100
0010
0001
0000
1000
0000
0001
0000
0101
0000
,
2001
0000
0000
0000
3100
0000
1000
0000
0010
0100
0010
1000
0001
0000
0010
0000
,
0001
0000
1000
0000
0100
0000
0010
0001
1000
0000
0100
0000
1000
0000
0010
0000
,
0100
0000
0001
0000
0101
0000
0100
0000
0010
1000
0100
0010
0001
1000
0100
0010
,
0001
1000
0100
0010
0000
0000
0001
1000
0001
0000
0100
0000
0010
0000
1010
0000
,
2001
3010
0110
1000
,
1001
0000
0000
0000
1000
0100
1000
0001
1000
0100
1000
0001
1000
0100
0010
0001
,
2000
0000
0000
0000
3001
0000
0000
1000
1100
0000
0000
0000
1000
0000
0000
0010
,
0110
0000
0100
0000
0001
0010
0001
1000
0001
0010
0001
1000
0001
0010
0100
1000
,
0001
0100
0001
1000
0010
0000
0000
0000
0110
0000
0010
0000
1010
0000
0010
0000
,
0100
0001
0010
0100
1000
0100
0001
0100
,
2000
0000
3020
0000
0130
0001
1000
0010
,
1000
0100
0010
0001
0010
1000
0010
0001
,
0100
0010
0100
0100
0101
0001
1001
1000
,
0100
1000
0001
0100
0010
0100
1000
0100
,
0002
0000
0023
0000
0130
1000
0100
0010
,
0100
1000
0100
0001
0100
1000
0001
0010
,
0110
2000
0002
3003
0101
0001
0011
0010
,
0100
1000
0001
0100
1000
0100
0001
1000
,
0200
0000
0320
0000
0031
1000
0100
1000
,
0001
0010
0001
1000
1100
1000
1010
0010
,
0110
0000
0001
0001
1000
0100
0001
0100
,
0010
1000
0010
0001
0100
0010
1000
0001
,
0020
0000
0032
0000
1003
0100
0010
0001
,
0100
0010
0100
0001
1000
0100
0010
0001
0000
0000
1000
0000
1100
0000
0001
0000
,
0202
0303
0110
0000
;

//---------------dance-single - S-STANDARD----------------
#NOTEDATA:;
#CHARTNAME:DJ OMiY-SSP;
#STEPSTYPE:dance-single;
#DESCRIPTION:S-STANDARD;
#CHARTSTYLE:;
#DIFFICULTY:Medium;
#METER:6;
#RADARVALUES:0.453742,0.446191,0.206502,0.236002,0.000000,278.000000,21.000000,24.000000,0.000000,0.000000,0.000000,0.000000,0.000000,0.453742,0.446191,0.206502,0.236002,0.000000,278.000000,21.000000,24.000000,0.000000,0.000000,0.000000,0.000000,0.000000;
#CREDIT:DJ OMiY;
#NOTES:
0000
0000
0000
0000
,
0000
0000
0000
0000
,
0000
0000
0000
0000
,
0000
0000
0000
0000
,
0020
0000
0000
0000
,
2000
0000
0030
0000
,
0002
0000
3000
0000
,
0200
0000
0003
0000
,
0310
0000
0110
0000
0010
1000
0100
0000
,
1000
0001
0100
0000
0001
0000
1000
0000
,
0100
0000
1000
0000
0010
0100
0001
1000
,
0001
0000
0010
0000
0100
0000
1000
0001
,
1000
0000
1001
0000
1000
0100
0010
0000
,
0100
0010
0001
0000
0100
0000
0010
0000
,
0100
0000
0001
0000
1000
0010
1000
0000
,
0001
0000
0100
0010
0100
0001
0200
0000
,
0301
0000
1001
0000
0010
0001
0100
0000
,
0010
1000
0100
0000
1000
0000
0100
0000
,
0001
0000
0100
0000
1000
0001
0010
0001
,
0010
0000
0100
0000
1000
0000
0010
0100
,
0001
0000
0011
0000
0001
0100
0010
0000
,
1000
0100
0010
0000
0001
0000
1000
0000
,
0010
0000
1000
0000
0010
0100
0010
0000
,
1000
0000
0001
0010
0100
1000
0002
0000
,
0003
1001
1000
1000
,
0001
0100
0100
0100
,
0010
0000
1000
0100
1000
0000
0001
0100
,
0001
0000
2000
0000
3100
0000
0010
0001
,
1000
1001
0001
0001
,
0100
0010
0010
0010
,
1000
0000
0100
0000
1000
0001
1000
0000
,
0001
0100
0000
0100
0010
0100
0010
0000
,
0110
0000
1001
0000
0001
0100
0001
0000
,
1000
0100
0000
1000
0100
0000
0010
0000
,
0001
0000
0100
0000
0010
1000
0010
0000
,
0100
0001
0000
0100
0001
0000
0010
0000
,
0100
0000
1000
0000
0010
0100
0001
0000
,
0010
0100
0000
0010
0100
0000
1000
0000
,
0010
0000
1000
0001
1000
0001
0100
0001
,
1000
0001
0000
0010
0100
0000
2000
0000
,
3100
1002
0100
0000
,
2003
0000
3100
0010
0001
0010
0100
0010
,
0001
2001
3010
1002
,
0103
0000
0001
0010
1000
0010
0001
0010
,
0200
0000
0300
0000
1000
0100
1000
0000
,
0001
0010
0001
0000
1000
0000
0010
0100
,
0020
0000
2030
0000
3001
0010
0001
0000
,
1000
0100
1000
0000
0110
0000
1001
0000
,
0110
0000
0001
0100
0001
1000
0001
0000
,
0100
0010
0100
0000
0001
0000
1000
0100
,
0020
0000
0032
0000
1003
0010
1000
0000
,
0001
0100
0001
0000
1100
0000
0101
0000
,
2002
0000
3003
0000
0010
0100
0010
0000
,
1000
0100
1000
0000
0001
0000
0010
0001
,
0200
0000
0320
0000
1030
0100
0010
0000
,
0100
0010
0001
0000
0011
0000
0110
0000
,
1100
0000
1000
0001
0100
0001
1000
0000
,
0010
0100
0001
0000
0010
0100
1000
0001
,
2000
0000
3200
0000
0310
0001
0010
0001
,
1000
0100
1000
0100
0000
1000
0001
0010
,
0200
0300
1001
0000
;

//---------------dance-single - S-LIGHT----------------
#NOTEDATA:;
#CHARTNAME:DJ OMiY-LSP;
#STEPSTYPE:dance-single;
#DESCRIPTION:S-LIGHT;
#CHARTSTYLE:;
#DIFFICULTY:Easy;
#METER:4;
#RADARVALUES:0.338551,0.327207,0.245836,0.295003,0.000000,186.000000,25.000000,30.000000,0.000000,0.000000,0.000000,0.000000,0.000000,0.338551,0.327207,0.245836,0.295003,0.000000,186.000000,25.000000,30.000000,0.000000,0.000000,0.000000,0.000000,0.000000;
#CREDIT:DJ OMiY;
#NOTES:
0000
0000
0000
0000
,
0000
0000
0000
0000
,
0000
0000
0000
0000
,
0000
0000
0000
0000
,
0002
0000
0000
0000
,
0023
0000
0000
0000
,
0230
0000
0000
0000
,
2300
0000
0000
0000
,
3001
0110
0010
1000
,
1000
0100
0010
0001
,
0000
0100
0100
0010
,
0010
1000
0001
1000
,
0000
0101
0001
1000
,
1000
0100
1000
0001
,
0000
1010
0010
1000
,
0100
0020
0032
2000
,
3003
0110
0010
1000
,
0001
1000
1000
0100
,
0010
0001
0100
0001
,
1000
0100
0100
1000
,
0000
0101
0001
0010
,
0100
0010
0010
0100
,
1000
0001
0100
0010
,
0100
0002
2003
0200
,
3300
1002
0000
0203
,
0000
0320
0000
2030
,
0000
3200
0000
2300
,
0000
3002
0000
0013
,
0100
1001
0001
1000
,
0100
0000
1000
0010
,
0100
0010
0010
0100
,
0001
0000
0010
0001
,
1000
0110
0010
1000
,
0001
0000
1000
0100
,
0010
0001
0010
0001
,
1000
0000
0010
0100
,
0001
1001
1000
0010
,
0100
0000
0001
0010
,
0100
1000
0001
0010
,
0100
0000
1010
0101
,
1000
1001
0010
0000
,
0010
0001
0010
0100
,
1000
1001
0100
1001
,
0100
1000
0100
0010
,
0001
0100
0110
0001
,
0110
1000
0001
0100
,
0002
0003
1000
0100
,
0010
0001
2000
3020
,
0200
0330
1001
0010
,
1001
0100
1000
0001
,
0200
0300
0010
1000
,
0100
1000
0002
2003
,
0020
3030
1100
0001
,
1100
0001
0010
0100
,
2000
3000
0010
0100
,
0001
1000
0200
0320
,
0002
0033
0101
1000
,
0101
1000
0001
0100
,
0020
0030
1000
0100
,
0010
0001
0000
0110
,
1001
0000
0110
0000
;

//---------------dance-single - BEGINNER----------------
#NOTEDATA:;
#CHARTNAME:DJ OMiY-BEG;
#STEPSTYPE:dance-single;
#DESCRIPTION:BEGINNER;
#CHARTSTYLE:;
#DIFFICULTY:Beginner;
#METER:2;
#RADARVALUES:0.127834,0.148731,0.009833,0.127834,0.000000,77.000000,1.000000,13.000000,0.000000,0.000000,0.000000,0.000000,0.000000,0.127834,0.148731,0.009833,0.127834,0.000000,77.000000,1.000000,13.000000,0.000000,0.000000,0.000000,0.000000,0.000000;
#CREDIT:DJ OMiY;
#NOTES:
0000
0000
0000
0000
,
0000
0000
0000
0000
,
0000
0000
0000
0000
,
0000
0000
0000
0000
,
0001
0000
0000
0000
,
0001
0000
0000
0000
,
1000
0000
0000
0000
,
1000
0000
0000
0000
,
0000
0010
0000
0000
,
0000
0100
0000
0000
,
0000
0010
0000
0000
,
0000
1000
0000
0000
,
0000
0001
0000
0000
,
0000
0010
0000
0000
,
0000
0100
0000
0000
,
0000
2000
0000
3000
,
0000
0001
0000
1000
,
0000
0001
0000
0000
,
0000
0010
0000
0100
,
0000
0010
0000
0000
,
0000
0001
0000
0100
,
0000
0001
0000
0000
,
0000
1000
0000
0010
,
0000
1000
1000
1000
,
0000
0200
0000
0300
,
0000
0020
0000
0030
,
0000
0002
0000
0003
,
0000
2000
0000
3000
,
0000
0020
0000
0030
,
0000
0200
0000
0300
,
0000
0002
0000
0000
,
0000
0003
0000
0000
,
0000
1001
0000
1000
,
0000
0000
0000
0100
,
0000
0010
0000
0100
,
0000
0000
0000
0010
,
0000
0001
0000
0010
,
0000
0000
0000
0001
,
0000
2000
0000
0000
,
0000
3000
0000
0010
,
0000
0100
0000
0100
,
0000
0020
0000
0030
,
0000
0001
0000
0001
,
0000
1000
0000
0200
,
0000
0300
0100
0000
,
0100
0000
0100
0000
,
0000
0000
0010
0000
,
0010
0000
0010
0000
,
0000
0000
0001
0000
,
0001
0000
0001
0000
,
0000
0000
1000
0000
,
1000
0000
2000
0000
,
3000
0000
0010
0000
,
1000
0000
0010
0000
,
0000
0000
0100
0000
,
0001
0000
0100
0000
,
0000
0000
0001
0000
,
0010
0000
0100
0000
,
0000
0000
1000
0000
,
0100
0000
0010
0010
,
0020
0000
0030
0000
;

//---------------dance-double - D-CHALLENGE----------------
#NOTEDATA:;
#CHARTNAME:DJ OMiY-CDP;
#STEPSTYPE:dance-double;
#DESCRIPTION:D-CHALLENGE;
#CHARTSTYLE:;
#DIFFICULTY:Challenge;
#METER:10;
#RADARVALUES:0.696768,0.713906,0.354003,0.157335,0.216335,444.000000,36.000000,16.000000,0.000000,0.000000,0.000000,0.000000,0.000000,0.696768,0.713906,0.354003,0.157335,0.216335,444.000000,36.000000,16.000000,0.000000,0.000000,0.000000,0.000000,0.000000;
#CREDIT:DJ OMiY;
#NOTES:
// measure 0
00000000
00000000
00000000
00000000
,  // measure 1
00000000
00000000
00000000
00000000
,  // measure 2
00000000
00000000
00000000
00000000
,  // measure 3
00000000
00000000
00000000
00000000
,  // measure 4
10000000
01000000
10000000
01000000
10000000
01000000
10000000
01000000
,  // measure 5
00100000
00010000
00100000
00010000
00100000
00010000
00100000
00010000
,  // measure 6
00001000
00000100
00001000
00000100
00001000
00000100
00001000
00000100
,  // measure 7
00000010
00000001
00000010
00000001
00000010
00000001
00000010
00000001
,  // measure 8
00001000
00000000
00001100
00000000
00000100
00010000
00011000
00000000
,  // measure 9
00001000
00100000
00010000
01000000
00100000
10000000
01000000
00100000
,  // measure 10
00010000
00000000
00100000
00000000
00101000
00000000
00000000
00000000
00010000
00000000
00000010
00000000
00000100
00000000
00000001
00001000
,  // measure 11
00000001
00000000
00000010
00000000
00000100
00000000
00001000
00000000
00000100
00000000
00010000
00001000
00010000
00000000
01000000
00000000
,  // measure 12
10000000
00010000
00110000
00000000
00010000
10000000
10100000
00000000
,  // measure 13
00100000
01000000
00001000
00100000
00001000
00010000
00000100
00000010
,  // measure 14
00000001
00000000
00001000
00000000
00001010
00000000
00000000
00000000
00000001
00000000
00000010
00000000
00000100
00000000
00001000
00000100
,  // measure 15
00010000
00001000
00100000
00010000
10000000
00010000
01010000
02000000
,  // measure 16
00200000
03300000
10010000
00010000
10000000
01000000
00100000
00010000
,  // measure 17
00100000
00001000
00010000
00000010
00000100
00001000
00000100
00000001
,  // measure 18
00001000
00000000
00000100
00000000
00010000
00000000
00001000
00000000
00010000
00000000
00100000
00000000
01000000
00000000
00010000
10000000
,  // measure 19
00010000
01000000
00100000
10000000
01000000
00010000
01000000
10000000
,  // measure 20
00010000
00000000
00110000
00010000
00100000
00010000
00001000
00000100
,  // measure 21
00000010
00000100
00001000
00000001
00000010
00001000
00000010
00000001
,  // measure 22
00001000
00000000
00000100
00000000
00010000
00000000
00001000
00000000
00100000
00000000
00010000
00000000
00100000
00000000
01000000
10000000
,  // measure 23
01000000
10000000
00010000
00100000
00001000
00010000
00021000
00000000
,  // measure 24
00030100
00000000
00010000
00001000
00000010
00000001
00000100
00001000
,  // measure 25
00010000
00100000
10000000
01000000
00010000
00001000
00000010
00000001
,  // measure 26
00000100
00000000
00001000
00000000
00010000
00000000
00000000
00000000
00001000
00010000
00001000
00000000
00100000
00000000
00010000
00000000
,  // measure 27
10000000
01000000
00000000
00100000
00001000
00010000
00000100
00010000
,  // measure 28
00011000
00000000
00001000
00010000
00100000
10000000
01000000
00010000
,  // measure 29
00001000
00000010
00000001
00000100
00001000
00010000
00100000
10000000
,  // measure 30
01000000
00000000
00010000
00000000
00001000
00000000
00000000
00000000
00010000
00000100
00010000
00000000
00001000
00000000
00000100
00000000
,  // measure 31
00000010
00000000
00000100
00000000
00000000
00000000
00000001
00001000
00000001
00000000
00000010
00000000
00000100
00000000
00010000
00000000
,  // measure 32
00001000
00000000
00000000
00000000
00101000
00000000
00000000
00000000
00001000
00010000
00001000
00100000
00010000
00000000
10000000
00000000
,  // measure 33
01000000
00000000
00100000
00000000
00010000
00000000
01000000
00100000
01000000
00000000
00001000
00000000
00010000
00000000
00000010
00000000
,  // measure 34
00001000
00000000
00000000
00000000
00001001
00000000
00001000
00000000
00000010
00000100
00000010
00001000
00000001
00000000
00000010
00000000
,  // measure 35
00000100
00000000
00001000
00000000
00000100
00000000
00010000
00001000
00010000
00000000
00100000
00000000
01000000
00000000
00010000
00000000
,  // measure 36
00010000
00000000
00000000
00000000
11000000
00000000
01000000
00000000
10000000
01000000
00100000
01000000
10000000
00000000
00010000
00000000
,  // measure 37
00100000
00000000
00001000
00000000
00010000
00000000
00000100
00010000
00000100
00000000
00001000
00000000
00000001
00000000
00000010
00000000
,  // measure 38
00000100
00000000
00000010
00000000
00000001
00000000
00001000
00000000
00000010
00000100
00000010
00000100
00000001
00000100
00000001
00000100
,  // measure 39
00000010
00001000
00000010
00001000
00000000
00000000
00000100
00010000
00000100
00000000
00001000
00000000
00010000
00000000
00100000
00000000
,  // measure 40
01000000
20010000
31000000
00120000
,  // measure 41
10030000
00000000
00000000
00000000
10000000
01000000
00100000
00000000
00010000
00001000
00000100
00000000
00000010
00000001
00000010
00000100
,  // measure 42
00001000
00000000
00000000
00000000
00000101
00000000
00000000
00000010
00000110
00000000
00000000
00000000
00001100
00000000
00000000
00001000
,  // measure 43
00011000
00000000
00001000
00000000
00100000
00010000
00100000
01000000
10000000
01000000
00100000
00010000
10000000
01000000
00100000
01000000
,  // measure 44
10000000
00000000
00010000
00000000
00100000
00001000
00010000
00001000
00010000
00000000
00000000
00000000
00000000
00000000
00000000
00000000
00011000
00000000
00000000
00000000
00001000
00000000
00000000
00000000
00000100
00000000
00000000
00000000
00000000
00000000
00000000
00000000
,  // measure 45
00000110
00000010
00001000
00000001
00000010
00000001
00001000
00000100
,  // measure 46
00020000
00000000
00230000
00000000
01300000
00010000
10000000
00010000
,  // measure 47
01000000
00010000
10000000
00010000
01000000
00100000
00010000
00001000
,  // measure 48
00000100
00000000
00000010
00000010
00001010
00001000
00001100
00000000
,  // measure 49
00000100
00000010
00000011
00000000
00000001
00001000
00000100
00010000
,  // measure 50
00002000
00000000
00023000
00000000
01030000
10000000
00010000
01000000
,  // measure 51
00100000
10000000
01000000
00100000
00010000
01000000
00010000
00100000
,  // measure 52
00101000
00002000
00020000
00033000
00011000
00010000
01010000
00000000
,  // measure 53
01010000
01000000
01100000
00000000
00010000
00100000
00001000
00010000
,  // measure 54
00000020
00000000
00000230
00000000
00001300
00000100
00000001
00000010
,  // measure 55
00001000
00000010
00000001
00000100
00000010
00001000
00000100
00010000
,  // measure 56
00000100
00000000
00010100
00010000
00011000
00001000
00101000
00000000
,  // measure 57
00110000
00010000
10010000
00000000
10000000
01000000
00010000
00001000
,  // measure 58
00000200
00000000
00002300
00000000
00013000
00100000
10000000
00010000
,  // measure 59
10000000
01000000
10000000
01000000
00100000
00010000
00100000
00010000
00000000
00000000
00001000
00000000
00000100
00000000
00000010
00000000
,  // measure 60
00000002
00000003
00000110
00000000
;

//---------------dance-double - D-HEAVY----------------
#NOTEDATA:;
#CHARTNAME:DJ OMiY-HDP;
#STEPSTYPE:dance-double;
#DESCRIPTION:D-HEAVY;
#CHARTSTYLE:;
#DIFFICULTY:Hard;
#METER:8;
#RADARVALUES:0.528195,0.654414,0.108168,0.206502,0.054084,344.000000,11.000000,21.000000,0.000000,0.000000,0.000000,0.000000,0.000000,0.528195,0.654414,0.108168,0.206502,0.054084,344.000000,11.000000,21.000000,0.000000,0.000000,0.000000,0.000000,0.000000;
#CREDIT:DJ OMiY;
#NOTES:
// measure 0
00000000
00000000
00000000
00000000
,  // measure 1
00000000
00000000
00000000
00000000
,  // measure 2
00000000
00000000
00000000
00000000
,  // measure 3
00000000
00000000
00000000
00000000
,  // measure 4
00000002
00000000
00000000
00000000
,  // measure 5
00000200
00000000
00000003
00000000
,  // measure 6
00002000
00000000
00000300
00000000
,  // measure 7
00000020
00000000
00003000
00000000
,  // measure 8
00000031
00000000
00001001
00000000
00000001
00000010
00000100
00000000
,  // measure 9
00000010
00000100
00001000
00000000
00001000
00000100
00010000
00000100
,  // measure 10
00010000
00001000
01000000
00000000
00100000
10000000
00010000
00100000
,  // measure 11
01000000
00000000
00000000
00000000
10000000
00000000
01000000
00000000
00100000
00000000
00000000
00010000
01000000
00000000
00001000
00000000
,  // measure 12
00100000
00010000
00100000
00000000
00001000
00010000
00001000
00000000
,  // measure 13
00010000
00000100
00010000
00000000
00010000
00001000
00000100
00000010
,  // measure 14
00001000
00000001
00000010
00000000
00000100
00001000
00000100
00010000
,  // measure 15
00001000
00000000
00100000
00001000
00010000
00001000
02000000
00100000
,  // measure 16
03100000
00000000
10010000
00000000
10000000
00010000
00100000
00000000
,  // measure 17
00001000
00010000
00000100
00000000
00001000
00000010
00000100
00000001
,  // measure 18
00000010
00000000
00000100
00000000
00001000
00000000
00000000
00000000
00000100
00000000
00010000
00000000
00001000
00000000
00100000
00010000
,  // measure 19
00100000
00000000
00000000
00000000
00010000
00000000
01000000
00000000
00100000
00000000
00000000
10000000
01000000
00000000
10000000
00000000
,  // measure 20
00010000
00100000
01000000
00000000
00100000
00001000
00010000
00000000
,  // measure 21
00001000
00010000
00000100
00000000
00000010
00000001
00000100
00000010
,  // measure 22
00001000
00000000
00000001
00000000
00000100
00000000
00000000
00000000
00000010
00000000
00001000
00000000
00000100
00000000
00010000
00001000
,  // measure 23
00010000
00001000
00100000
01000000
10000000
00010000
02000000
00000000
,  // measure 24
03000000
00100000
10000000
00010000
,  // measure 25
00100000
00001000
00010000
00000100
,  // measure 26
00000010
00000000
00000001
00000000
00000100
00000001
00001000
00000000
,  // measure 27
00000100
00000010
00000001
00000000
00001000
00000100
00010000
00001000
,  // measure 28
00001000
00000000
00101000
00000000
00010000
00001000
01000000
00000000
,  // measure 29
00100000
10000000
00010000
00000000
00100000
01000000
10000000
00010000
,  // measure 30
01000000
00000000
00100000
00000000
10000000
01000000
00100000
00000000
,  // measure 31
00010000
00100000
00000000
00001000
00010000
00001000
00010000
00000100
,  // measure 32
00000010
00000000
00001001
00000000
00000010
00000001
00000010
00000100
,  // measure 33
00001000
00000100
00000000
00010000
00001000
00100000
00010000
10000000
,  // measure 34
01000000
00000000
10010000
00000000
00100000
10000000
01000000
00100000
,  // measure 35
00010000
00100000
00000000
00001000
00010000
00000100
00000010
00000100
,  // measure 36
00001000
00000000
00000110
00000000
00000001
00000100
00001000
00000100
,  // measure 37
00000001
00001000
00000000
00000100
00010000
00001000
00100000
00010000
,  // measure 38
00100000
00000000
00010000
10000000
01000000
00100000
00010000
00100000
,  // measure 39
00001000
00000000
00010000
00000000
00000000
00000000
00000100
00001000
00000100
00000000
00010000
00000000
00000100
00000000
00001000
00000000
,  // measure 40
00000001
00001002
00000010
00002003
,  // measure 41
00000100
00000000
00003010
00001000
00000100
00010000
00001000
00100000
,  // measure 42
00010000
00000000
00000000
00000000
20010000
00000000
00000000
00100000
30100000
00000000
00000000
00000000
10020000
00000000
00000000
01000000
,  // measure 43
01030000
00000000
00010000
00000000
00100000
00010000
00100000
00000000
01000000
10000000
01000000
00000000
00100000
00010000
10000000
00010000
,  // measure 44
01000000
00000000
10010000
00000000
00100000
00010000
10000000
00000000
,  // measure 45
00100000
10000000
00010000
00000000
01000000
00010000
00100000
00001000
,  // measure 46
00020000
00000000
00030200
00000000
00001300
00000010
00000100
00000000
,  // measure 47
00000001
00000010
00000100
00000000
00000010
00000001
00001000
00000100
,  // measure 48
00001000
00000000
00000010
00000010
00001000
00000100
00010000
00000000
,  // measure 49
00001000
00100000
00010000
00000000
01000000
00100000
10000000
00010000
,  // measure 50
00200000
00000000
02300000
00000000
13000000
01000000
00100000
00000000
,  // measure 51
00010000
00100000
00001000
00000000
00010000
00000010
00000100
00000001
,  // measure 52
00001000
00000002
00000020
00000033
00000001
00000100
00000010
00000000
,  // measure 53
00001000
00000100
00010000
00000000
00001000
00100000
00010000
10000000
,  // measure 54
00200000
00000000
02300000
00000000
03010000
10000000
01000000
10000000
,  // measure 55
00010000
00100000
00010000
01000000
00100000
10000000
01000000
00100000
,  // measure 56
00010000
00000000
00100000
00001000
00010000
00000100
00001000
00000000
,  // measure 57
00000010
00000100
00000001
00000000
00001000
00000100
00001000
00000001
,  // measure 58
00000200
00000000
00000320
00000000
00001030
00000001
00000010
00000100
,  // measure 59
00001000
00000001
00001000
00000001
00000010
00000100
00001000
00000100
,  // measure 60
00020000
00031000
00011000
00000000
;

//---------------dance-double - D-STANDARD----------------
#NOTEDATA:;
#CHARTNAME:DJ OMiY-SDP;
#STEPSTYPE:dance-double;
#DESCRIPTION:D-STANDARD;
#CHARTSTYLE:;
#DIFFICULTY:Medium;
#METER:6;
#RADARVALUES:0.414408,0.475938,0.098334,0.216335,0.000000,263.000000,10.000000,22.000000,0.000000,0.000000,0.000000,0.000000,0.000000,0.414408,0.475938,0.098334,0.216335,0.000000,263.000000,10.000000,22.000000,0.000000,0.000000,0.000000,0.000000,0.000000;
#CREDIT:DJ OMiY;
#NOTES:
// measure 0
00000000
00000000
00000000
00000000
,  // measure 1
00000000
00000000
00000000
00000000
,  // measure 2
00000000
00000000
00000000
00000000
,  // measure 3
00000000
00000000
00000000
00000000
,  // measure 4
00200000
00000000
00000000
00000000
,  // measure 5
00020000
00000000
00300000
00000000
,  // measure 6
20000000
00000000
00030000
00000000
,  // measure 7
02000000
00000000
30000000
00000000
,  // measure 8
03100000
00000000
00010000
00000000
00100000
00001000
00010000
00000000
,  // measure 9
00001000
00010000
00000100
00000000
00001000
00000000
00000001
00000000
,  // measure 10
00000010
00000000
00000001
00000000
00000100
00000000
00000010
00001000
,  // measure 11
00000001
00000000
00000010
00000000
00000100
00000000
00001000
00000100
,  // measure 12
00010000
00001000
00010000
00000000
00001000
00100000
00010000
00000000
,  // measure 13
01000000
00010000
10000000
00000000
00100000
00000000
01000000
00000000
,  // measure 14
00010000
00000000
10000000
00000000
01000000
00000000
00100000
00010000
,  // measure 15
01000000
00000000
00100000
10000000
00100000
10000000
02000000
00000000
,  // measure 16
03000000
00000000
00100000
00000000
00001000
00010000
00001000
00000000
,  // measure 17
00010000
00000100
00010000
00000000
00000010
00000000
00000100
00000000
,  // measure 18
00000001
00000000
00001000
00000000
00000001
00000000
00000010
00000100
,  // measure 19
00001000
00000000
00000001
00000000
00000100
00000000
00000010
00000100
,  // measure 20
00000001
00000000
00001001
00000000
00000010
00000100
00001000
00000000
,  // measure 21
00000010
00000100
00000001
00000000
00001000
00000000
00000100
00000000
,  // measure 22
00010000
00000000
00001000
00000000
00100000
00010000
01000000
00010000
,  // measure 23
10000000
00000000
00100000
01000000
00100000
01000000
00200000
00000000
,  // measure 24
00300000
10000000
01000000
00100000
,  // measure 25
00001000
00010000
00000100
00000010
,  // measure 26
00000001
00000100
00000010
00001000
,  // measure 27
00000100
00000000
00010000
00000000
00001000
00000000
00100000
00010000
,  // measure 28
01000000
10010000
00100000
00100000
,  // measure 29
10000000
00000000
01000000
00000000
01000000
00000000
01000000
00100000
,  // measure 30
00001000
00011000
00010000
00010000
,  // measure 31
00000100
00000000
00000000
00001000
00000010
00000000
00000100
00000001
,  // measure 32
00001000
00001001
00000010
00000001
,  // measure 33
00000100
00000010
00000000
00000100
00000010
00000000
00001000
00000000
,  // measure 34
00000001
00000010
00000100
00001000
,  // measure 35
00000100
00010000
00000000
00000100
00010000
00000000
00001000
00010000
,  // measure 36
00001000
00100000
00010000
10000000
,  // measure 37
00100000
01000000
00000000
00100000
01000000
00000000
00010000
00000000
,  // measure 38
10000000
00000000
00010000
00000000
00100000
01000000
00100000
01000000
,  // measure 39
00100000
01000000
00000000
10000000
01000000
00000000
10000000
00000000
,  // measure 40
00010000
02020000
03030000
20020000
,  // measure 41
30030000
00000000
10000000
01000000
00100000
00010000
00100000
01000000
,  // measure 42
10000000
01020000
00130000
00201000
,  // measure 43
00310000
00100000
00001000
00010000
00000100
00001000
00000100
00000001
,  // measure 44
00000100
00000000
00001001
00000000
00000010
00000001
00000010
00000000
,  // measure 45
00000001
00000100
00000001
00000000
00001000
00000000
00000100
00010000
,  // measure 46
00002000
00203000
00310000
01000000
,  // measure 47
00100000
00000000
10000000
00000000
01000000
10000000
01000000
10000000
,  // measure 48
00020000
00000000
00030000
00000000
00100000
00010000
01000000
00000000
,  // measure 49
00100000
10000000
01000000
00000000
00100000
00000000
00001000
00010000
,  // measure 50
00002000
00023000
00030100
00000010
,  // measure 51
00000100
00000000
00001000
00000000
00000001
00000100
00000001
00001000
,  // measure 52
00000200
00000000
00000300
00000000
00000010
00000001
00000100
00000000
,  // measure 53
00000010
00001000
00000100
00000000
00000010
00000000
00000001
00001000
,  // measure 54
00000002
00000203
00000310
00001000
,  // measure 55
00000100
00000000
00010000
00000000
00001000
00000000
00100000
00010000
,  // measure 56
02000000
00000000
03000000
00000000
00100000
10000000
00010000
00000000
,  // measure 57
00100000
00010000
10000000
00000000
01000000
00000000
10000000
00010000
,  // measure 58
10000000
00100000
01000000
00001000
,  // measure 59
00010000
00000000
00001000
00100000
00000000
00010000
01000000
00100000
,  // measure 60
20000000
30000000
10100000
00000000
;

//---------------dance-double - D-LIGHT----------------
#NOTEDATA:;
#CHARTNAME:DJ OMiY-LDP;
#STEPSTYPE:dance-double;
#DESCRIPTION:D-LIGHT;
#CHARTSTYLE:;
#DIFFICULTY:Easy;
#METER:4;
#RADARVALUES:0.306241,0.267715,0.098334,0.108168,0.000000,197.000000,10.000000,11.000000,0.000000,0.000000,0.000000,0.000000,0.000000,0.306241,0.267715,0.098334,0.108168,0.000000,197.000000,10.000000,11.000000,0.000000,0.000000,0.000000,0.000000,0.000000;
#CREDIT:DJ OMiY;
#NOTES:
// measure 0
00000000
00000000
00000000
00000000
,  // measure 1
00000000
00000000
00000000
00000000
,  // measure 2
00000000
00000000
00000000
00000000
,  // measure 3
00000000
00000000
00000000
00000000
,  // measure 4
00002000
00000000
00000000
00000000
,  // measure 5
00020000
00000000
00003000
00000000
,  // measure 6
00002000
00000000
00030000
00000000
,  // measure 7
00020000
00000000
00003000
00000000
,  // measure 8
00031000
00100000
00010000
10000000
,  // measure 9
01000000
10000000
00010000
01000000
,  // measure 10
00000000
00100000
01000000
00010000
,  // measure 11
00100000
00001000
00010000
00011000
,  // measure 12
00000000
00010000
00000100
00000010
,  // measure 13
00000100
00001000
00000001
00000010
,  // measure 14
00000000
00000001
00000100
00000010
,  // measure 15
00000100
00000010
00001000
00000200
,  // measure 16
00000300
00010000
00001000
00100000
,  // measure 17
00010000
10000000
01000000
00100000
,  // measure 18
00000000
00010000
10000000
00100000
,  // measure 19
01000000
00001000
00010000
00001000
,  // measure 20
00000000
00100000
01000000
00100000
,  // measure 21
00001000
00010000
00000100
00000010
,  // measure 22
00000000
00000001
00000010
00000100
,  // measure 23
00001000
00000100
00020000
00002000
,  // measure 24
00033000
00100000
00001000
00010000
,  // measure 25
00000100
00000010
00000001
00000100
,  // measure 26
00001000
00010000
00100000
10000000
,  // measure 27
01000000
10000000
00010000
00200000
,  // measure 28
00300000
00011000
00001000
00010000
,  // measure 29
00000100
00000100
00001000
00000010
,  // measure 30
00000100
00000001
00000010
00000100
,  // measure 31
00001000
00000000
00001001
00000110
,  // measure 32
00001001
00000010
00001000
00000100
,  // measure 33
00000100
00010000
00001000
00100000
,  // measure 34
00110000
00010000
10000000
00100000
,  // measure 35
00100000
01000000
00010000
10000000
,  // measure 36
10010000
01000000
00010000
10000000
,  // measure 37
10000000
01000000
00100000
00001000
,  // measure 38
00011000
00000100
00000010
00000001
,  // measure 39
00000100
00000010
00001000
00000001
,  // measure 40
00000010
00000200
00001000
00000000
,  // measure 41
00001300
00000001
00000100
00001000
,  // measure 42
00010000
00200000
10000000
00000000
,  // measure 43
01300000
00010000
10000000
01000000
,  // measure 44
00100000
10010000
00100000
00100000
,  // measure 45
10000000
10000000
01000000
00100000
,  // measure 46
00001000
00000000
00010000
00000100
,  // measure 47
00010000
00000100
00001000
00000001
,  // measure 48
00000100
00000000
00000010
00000010
,  // measure 49
00000100
00000100
00000001
00000010
,  // measure 50
00000100
00000000
00001000
00000010
,  // measure 51
00001000
00000010
00010000
00001000
,  // measure 52
00200000
00300000
00010000
00010000
,  // measure 53
01000000
01000000
00100000
10000000
,  // measure 54
00010000
00100000
01000000
10000000
,  // measure 55
01000000
10000000
00010000
00100000
,  // measure 56
00001000
00000000
00010000
00010000
,  // measure 57
00000100
00000100
00001000
00000010
,  // measure 58
00000100
00000001
00000010
00000100
,  // measure 59
00000010
00000100
00010000
00001000
,  // measure 60
00010000
00000000
00011000
00000000
;
